<?xml version="1.0" standalone="no"?>
<!DOCTYPE svg PUBLIC "-//W3C//DTD SVG 1.1//EN" "http://www.w3.org/Graphics/SVG/1.1/DTD/svg11.dtd" >
<svg xmlns="http://www.w3.org/2000/svg" xmlns:xlink="http://www.w3.org/1999/xlink" version="1.1">
<metadata>
Created by FontForge 20170731 at Thu Oct 26 18:31:48 2017
 By Aleksey,,,
Copyright 2017 The Barlow Project Authors (https://github.com/jpt/barlow)
</metadata>
<defs>
<font id="BarlowCondensed-SemiBold" horiz-adv-x="439" >
  <font-face 
    font-family="Barlow Condensed SemiBold"
    font-weight="600"
    font-stretch="condensed"
    units-per-em="1000"
    panose-1="0 0 7 6 0 0 0 0 0 0"
    ascent="800"
    descent="-200"
    x-height="511"
    cap-height="700"
    bbox="-464 -210 994 982"
    underline-thickness="50"
    underline-position="-150"
    unicode-range="U+000D-25CA"
  />
<missing-glyph horiz-adv-x="381" 
d="M5 0h371q5 0 5 5v690q0 5 -5 5h-371q-5 0 -5 -5v-690q0 -5 5 -5zM147.5 246.5q-3.5 3.5 -3.5 8.5v26q0 34 13.5 54.5t40.5 45.5q23 21 34.5 37.5t11.5 41.5q0 28 -13 44.5t-34 16.5q-24 0 -37.5 -17.5t-13.5 -45.5v-12q0 -12 -12 -11l-59 3q-5 0 -8.5 3t-3.5 8v9
q0 62 37.5 100.5t98.5 38.5q58 0 93 -36.5t35 -97.5q0 -45 -16 -71t-45 -52q-20 -18 -29.5 -31.5t-9.5 -32.5v-21q0 -5 -3.5 -8.5t-8.5 -3.5h-59q-5 0 -8.5 3.5zM155 104q-14 15 -14 37q0 21 14 36t34 15t35 -15t15 -36q0 -22 -14.5 -37t-35.5 -15q-20 0 -34 15z" />
    <glyph glyph-name="I_J.liga" unicode="IJ" horiz-adv-x="667" 
d="M57.5 3.5q-3.5 3.5 -3.5 8.5v676q0 5 3.5 8.5t8.5 3.5h92q5 0 8.5 -3.5t3.5 -8.5v-676q0 -5 -3.5 -8.5t-8.5 -3.5h-92q-5 0 -8.5 3.5zM292 41.5q-51 49.5 -51 131.5v74q0 5 3.5 8.5t8.5 3.5h92q5 0 8.5 -3.5t3.5 -8.5v-76q0 -35 19 -57t50 -22t50.5 22t19.5 57v517
q0 5 3.5 8.5t8.5 3.5h92q5 0 8.5 -3.5t3.5 -8.5v-515q0 -82 -51.5 -131.5t-134.5 -49.5t-134 49.5z" />
    <glyph glyph-name="f_f_i.liga" unicode="ffi" horiz-adv-x="772" 
d="M612.5 596q-19.5 20 -19.5 52t19.5 52t50.5 20t50.5 -20t19.5 -52t-19.5 -52t-50.5 -20t-50.5 20zM451 516q0 -5 5 -5h61q5 0 8.5 -3.5t3.5 -8.5v-58q0 -5 -3.5 -8.5t-8.5 -3.5h-61q-5 0 -5 -5v-412q0 -5 -3.5 -8.5t-8.5 -3.5h-92q-5 0 -8.5 3.5t-3.5 8.5v412q0 5 -5 5
h-138q-5 0 -5 -5v-412q0 -5 -3.5 -8.5t-8.5 -3.5h-92q-5 0 -8.5 3.5t-3.5 8.5v412q0 5 -5 5h-32q-5 0 -8.5 3.5t-3.5 8.5v58q0 5 3.5 8.5t8.5 3.5h32q5 0 5 5v37q0 85 41.5 119.5t130.5 31.5h4q5 0 8.5 -3.5t3.5 -8.5v-56q0 -5 -2 -8.5t-5 -3.5h-8q-31 -1 -44 -21t-13 -59
v-28q0 -5 5 -5h138q5 0 5 5v37q0 85 42 119.5t131 31.5h3q5 0 8.5 -3.5t3.5 -8.5v-56q0 -5 -2 -8.5t-5 -3.5h-8q-31 -1 -44 -21t-13 -59v-28zM608.5 3.5q-3.5 3.5 -3.5 8.5v487q0 5 3.5 8.5t8.5 3.5h92q5 0 8.5 -3.5t3.5 -8.5v-487q0 -5 -3.5 -8.5t-8.5 -3.5h-92
q-5 0 -8.5 3.5z" />
    <glyph glyph-name="f_f_l.liga" unicode="ffl" horiz-adv-x="757" 
d="M455 516q0 -5 5 -5h61q5 0 8.5 -3.5t3.5 -8.5v-58q0 -5 -3.5 -8.5t-8.5 -3.5h-61q-5 0 -5 -5v-412q0 -5 -3.5 -8.5t-8.5 -3.5h-92q-5 0 -8.5 3.5t-3.5 8.5v412q0 5 -5 5h-142q-5 0 -5 -5v-412q0 -5 -3.5 -8.5t-8.5 -3.5h-92q-5 0 -8.5 3.5t-3.5 8.5v412q0 5 -5 5h-32
q-5 0 -8.5 3.5t-3.5 8.5v58q0 5 3.5 8.5t8.5 3.5h32q5 0 5 5v37q0 85 41.5 119.5t130.5 31.5h4q5 0 8.5 -3.5t3.5 -8.5v-56q0 -5 -2 -8.5t-5 -3.5h-8q-31 -1 -44 -21t-13 -59v-28q0 -5 5 -5h142q5 0 5 5v37q0 85 42 119.5t131 31.5h3q5 0 8.5 -3.5t3.5 -8.5v-56
q0 -5 -2 -8.5t-5 -3.5h-8q-31 -1 -44 -21t-13 -59v-28zM603.5 696.5q3.5 3.5 8.5 3.5h92q5 0 8.5 -3.5t3.5 -8.5v-676q0 -5 -3.5 -8.5t-8.5 -3.5h-92q-5 0 -8.5 3.5t-3.5 8.5v676q0 5 3.5 8.5z" />
    <glyph glyph-name="f_i.liga" unicode="fi" horiz-adv-x="508" 
d="M261.5 507.5q3.5 -3.5 3.5 -8.5v-59q0 -5 -3.5 -8.5t-8.5 -3.5h-62q-5 0 -5 -5v-411q0 -5 -3.5 -8.5t-8.5 -3.5h-91q-5 0 -8.5 3.5t-3.5 8.5v411q0 5 -5 5h-32q-5 0 -8.5 3.5t-3.5 8.5v59q0 5 3.5 8.5t8.5 3.5h32q5 0 5 5v25q0 90 41 127t131 36h8q5 0 8.5 -3.5t3.5 -8.5
l-2 -68q0 -12 -8 -12h-9q-30 -1 -44 -19.5t-14 -56.5v-20q0 -5 5 -5h62q5 0 8.5 -3.5zM348.5 595q-19.5 20 -19.5 52t19.5 52t50.5 20t50.5 -20t19.5 -52t-19.5 -52t-50.5 -20t-50.5 20zM344.5 3.5q-3.5 3.5 -3.5 8.5v487q0 5 3.5 8.5t8.5 3.5h92q5 0 8.5 -3.5t3.5 -8.5
v-487q0 -5 -3.5 -8.5t-8.5 -3.5h-92q-5 0 -8.5 3.5z" />
    <glyph glyph-name="f_l.liga" unicode="fl" horiz-adv-x="489" 
d="M261.5 507.5q3.5 -3.5 3.5 -8.5v-59q0 -5 -3.5 -8.5t-8.5 -3.5h-62q-5 0 -5 -5v-411q0 -5 -3.5 -8.5t-8.5 -3.5h-91q-5 0 -8.5 3.5t-3.5 8.5v411q0 5 -5 5h-32q-5 0 -8.5 3.5t-3.5 8.5v59q0 5 3.5 8.5t8.5 3.5h32q5 0 5 5v25q0 90 41 127t131 36h8q5 0 8.5 -3.5t3.5 -8.5
l-2 -68q0 -12 -8 -12h-9q-30 -1 -44 -19.5t-14 -56.5v-20q0 -5 5 -5h62q5 0 8.5 -3.5zM335.5 3.5q-3.5 3.5 -3.5 8.5v676q0 5 3.5 8.5t8.5 3.5h92q5 0 8.5 -3.5t3.5 -8.5v-676q0 -5 -3.5 -8.5t-8.5 -3.5h-92q-5 0 -8.5 3.5z" />
    <glyph glyph-name="g_j.liga" unicode="gj" horiz-adv-x="638" 
d="M484 596.5q-19 20.5 -19 52.5q0 29 21 50t48 21q28 0 49.5 -21t21.5 -50q0 -32 -20 -52.5t-51 -20.5t-50 20.5zM273 473.5q2 0.5 2 3.5v22q0 5 3.5 8.5t8.5 3.5h92q5 0 8.5 -3.5t3.5 -8.5v-480q0 -108 -49 -166.5t-175 -58.5q-22 0 -33 1q-12 1 -12 13v77q0 13 13 11
q57 -1 87.5 14t41.5 44t11 76v11q0 3 -2 3.5t-4 -2.5q-33 -43 -94 -43q-67 0 -102 43.5t-35 118.5v196q0 77 35.5 119.5t101.5 42.5q61 0 94 -43q2 -3 4 -2.5zM477 499q0 5 3.5 8.5t8.5 3.5h91q5 0 8.5 -3.5t3.5 -8.5v-515q0 -65 -13.5 -105.5t-52 -62.5t-110.5 -21
q-12 0 -12 12l3 75q0 12 11 12q59 1 59 90v515zM258.5 118.5q16.5 19.5 16.5 50.5v179q0 32 -16.5 51.5t-43.5 19.5t-44 -20t-17 -51v-179q0 -31 17 -50.5t44 -19.5t43.5 19.5z" />
    <glyph glyph-name="i_j.liga" unicode="ij" horiz-adv-x="420" 
d="M58.5 595q-19.5 20 -19.5 52t19.5 52t50.5 20t50.5 -20t19.5 -52t-19.5 -52t-50.5 -20t-50.5 20zM54.5 3.5q-3.5 3.5 -3.5 8.5v487q0 5 3.5 8.5t8.5 3.5h92q5 0 8.5 -3.5t3.5 -8.5v-487q0 -5 -3.5 -8.5t-8.5 -3.5h-92q-5 0 -8.5 3.5zM265.5 596.5q-19.5 20.5 -19.5 51.5
q0 30 21 51t49 21t49 -21t21 -51q0 -31 -19.5 -51.5t-50.5 -20.5t-50.5 20.5zM165 -193v75q0 12 12 12q44 1 62.5 24t18.5 66v515q0 5 3.5 8.5t8.5 3.5h92q5 0 8.5 -3.5t3.5 -8.5v-515q0 -67 -13 -106.5t-56 -61.5t-128 -21q-12 0 -12 12z" />
    <glyph glyph-name="hyphen_hyphen.liga" unicode="&#x2d;&#x2d;" horiz-adv-x="593" 
d="M30.5 250.5q-3.5 3.5 -3.5 8.5v76q0 5 3.5 8.5t8.5 3.5h515q5 0 8.5 -3.5t3.5 -8.5v-76q0 -5 -3.5 -8.5t-8.5 -3.5h-515q-5 0 -8.5 3.5z" />
    <glyph glyph-name=".notdef" horiz-adv-x="381" 
d="M5 0h371q5 0 5 5v690q0 5 -5 5h-371q-5 0 -5 -5v-690q0 -5 5 -5zM147.5 246.5q-3.5 3.5 -3.5 8.5v26q0 34 13.5 54.5t40.5 45.5q23 21 34.5 37.5t11.5 41.5q0 28 -13 44.5t-34 16.5q-24 0 -37.5 -17.5t-13.5 -45.5v-12q0 -12 -12 -11l-59 3q-5 0 -8.5 3t-3.5 8v9
q0 62 37.5 100.5t98.5 38.5q58 0 93 -36.5t35 -97.5q0 -45 -16 -71t-45 -52q-20 -18 -29.5 -31.5t-9.5 -32.5v-21q0 -5 -3.5 -8.5t-8.5 -3.5h-59q-5 0 -8.5 3.5zM155 104q-14 15 -14 37q0 21 14 36t34 15t35 -15t15 -36q0 -22 -14.5 -37t-35.5 -15q-20 0 -34 15z" />
    <glyph glyph-name=".null" horiz-adv-x="0" 
 />
    <glyph glyph-name="nonmarkingreturn" unicode="&#xd;" horiz-adv-x="200" 
 />
    <glyph glyph-name="space" unicode=" " horiz-adv-x="200" 
 />
    <glyph glyph-name="exclam" unicode="!" horiz-adv-x="273" 
d="M93.5 239.5q-3.5 3.5 -3.5 8.5l-11 440q0 5 3.5 8.5t8.5 3.5h92q5 0 8.5 -3.5t3.5 -8.5l-12 -440q0 -5 -3.5 -8.5t-8.5 -3.5h-69q-5 0 -8.5 3.5zM82 24.5q-21 22.5 -21 54.5t22.5 54.5t51.5 22.5t51.5 -22.5t22.5 -54.5t-21 -54.5t-53 -22.5t-53 22.5z" />
    <glyph glyph-name="quotedbl" unicode="&#x22;" horiz-adv-x="306" 
d="M32 480.5q-4 3.5 -4 8.5l-10 196q0 12 11 12h87q11 0 11 -12l-10 -196q0 -5 -4 -8.5t-9 -3.5h-63q-5 0 -9 3.5zM192 480.5q-4 3.5 -4 8.5l-10 196q0 12 11 12h87q11 0 11 -12l-10 -196q0 -5 -4 -8.5t-9 -3.5h-63q-5 0 -9 3.5z" />
    <glyph glyph-name="numbersign" unicode="#" horiz-adv-x="606" 
d="M561.5 416.5q-3.5 -3.5 -8.5 -3.5h-61q-6 0 -6 -5l-17 -120q0 -5 4 -5h46q5 0 8.5 -3.5t3.5 -8.5v-75q0 -5 -3.5 -8.5t-8.5 -3.5h-61q-6 0 -6 -5l-21 -145q-1 -11 -13 -11l-92 1q-12 0 -11 13l21 142q0 5 -4 5h-105q-6 0 -6 -5l-21 -145q-1 -11 -13 -11l-92 1
q-12 0 -11 13l21 142q0 5 -4 5h-47q-5 0 -8.5 3.5t-3.5 8.5v75q0 5 3.5 8.5t8.5 3.5h62q6 0 6 5l17 120q0 5 -4 5h-47q-5 0 -8.5 3.5t-3.5 8.5v76q0 5 3.5 8.5t8.5 3.5h62q6 0 6 5l21 145q1 11 13 11l92 -1q12 0 11 -13l-21 -142q0 -5 4 -5h105q6 0 6 5l21 145q1 11 13 11
l92 -1q12 0 11 -13l-21 -142q0 -5 4 -5h46q5 0 8.5 -3.5t3.5 -8.5v-76q0 -5 -3.5 -8.5zM353 288l17 120q0 5 -4 5h-105q-6 0 -6 -5l-17 -120q0 -5 4 -5h105q6 0 6 5z" />
    <glyph glyph-name="dollar" unicode="$" horiz-adv-x="440" 
d="M369 55.5q-41 -49.5 -109 -60.5q-5 -2 -5 -6l1 -54q0 -5 -3.5 -8.5t-8.5 -3.5h-52q-5 0 -8.5 3.5t-3.5 8.5l1 56q0 5 -4 6q-63 14 -100 61.5t-37 114.5v28q0 5 3.5 8.5t8.5 3.5h90q5 0 8.5 -3.5t3.5 -8.5v-22q0 -39 20 -63t50 -24q31 0 51 22.5t20 59.5q0 25 -11 44.5
t-30.5 36.5t-63.5 49q-50 36 -80.5 64t-51 67.5t-20.5 91.5q0 70 37.5 117.5t99.5 59.5q5 2 5 6l-1 62q0 5 3.5 8.5t8.5 3.5h51q5 0 8.5 -3.5t3.5 -8.5l-1 -61q0 -4 5 -6q68 -11 107.5 -61t39.5 -124v-24q0 -5 -3.5 -8.5t-8.5 -3.5h-91q-5 0 -8.5 3.5t-3.5 8.5v26
q0 39 -19.5 62.5t-51.5 23.5q-29 0 -48 -21.5t-19 -59.5q0 -36 20.5 -61t80.5 -69q61 -46 92 -74t48 -62t17 -81q0 -75 -41 -124.5z" />
    <glyph glyph-name="percent" unicode="%" horiz-adv-x="772" 
d="M128.5 424.5q-34.5 20.5 -54.5 55.5t-20 77q0 41 20 76t54.5 55.5t75.5 20.5q40 0 74.5 -20.5t54.5 -55.5t20 -76q0 -42 -20 -77t-54 -55.5t-75 -20.5t-75.5 20.5zM161 4q-2 4 1 10l364 678q4 8 15 8h58q7 0 9 -4t-1 -10l-364 -678q-4 -8 -15 -8h-58q-7 0 -9 4z
M264.5 492.5q24.5 26.5 24.5 64.5q0 37 -25 63.5t-60 26.5q-36 0 -61 -26t-25 -64t25 -64.5t61 -26.5t60.5 26.5zM493 11.5q-34 20.5 -54 55.5t-20 77q0 41 20 76t54 55.5t75 20.5t75 -20.5t54 -55.5t20 -76q0 -42 -20 -77t-54 -55.5t-75 -20.5t-75 20.5zM629 79.5
q25 26.5 25 64.5t-25 64t-61 26t-61 -26t-25 -64t25 -64.5t61 -26.5t61 26.5z" />
    <glyph glyph-name="ampersand" unicode="&#x26;" horiz-adv-x="587" 
d="M548 7q0 -7 -10 -7h-99q-9 0 -15 7l-29 39q-3 3 -7 1q-72 -56 -166 -56q-85 0 -134.5 44t-49.5 128q0 66 29.5 112.5t81.5 87.5q4 3 1 7q-48 67 -61.5 98.5t-13.5 68.5q0 78 46.5 124.5t122.5 46.5q78 0 127.5 -47.5t49.5 -124.5q0 -62 -31.5 -106.5t-85.5 -85.5
q-4 -3 -1 -7q4 -6 38 -52l53 -70q2 -2 4 -2t3 2q29 42 45 75q6 11 17 5l68 -39q10 -7 4 -16q-36 -69 -69 -113q-3 -3 0 -7l79 -105q3 -4 3 -8zM206.5 584q-15.5 -19 -15.5 -51q0 -22 7.5 -40t35.5 -60q3 -5 7 -2q31 25 47.5 50t16.5 54q0 30 -16 49t-41 19q-26 0 -41.5 -19z
M326 130q4 3 1 7l-37 48l-69 91q-3 3 -7 1q-29 -25 -44.5 -50.5t-15.5 -54.5q0 -35 20.5 -58t59.5 -23q45 0 92 39z" />
    <glyph glyph-name="quotesingle" unicode="'" horiz-adv-x="152" 
d="M32 483.5q-4 3.5 -4 8.5l-10 195q0 12 11 12h93q11 0 11 -12l-11 -195q0 -5 -4 -8.5t-9 -3.5h-68q-5 0 -9 3.5z" />
    <glyph glyph-name="parenleft" unicode="(" horiz-adv-x="279" 
d="M102 -88q-46 76 -74 183t-28 235q0 129 28.5 238t74.5 184q4 8 14 8h90q7 0 9.5 -4t0.5 -10q-37 -82 -62 -188t-25 -228q0 -120 24.5 -225t62.5 -187q1 -2 1 -5q0 -4 -3 -6.5t-8 -2.5h-91q-10 0 -14 8z" />
    <glyph glyph-name="parenright" unicode=")" horiz-adv-x="279" 
d="M163 -96h-91q-7 0 -9.5 4t-0.5 10q38 82 62.5 187t24.5 225q0 122 -25 228t-62 188q-1 2 -1 5q0 4 3 6.5t8 2.5h90q10 0 14 -8q46 -75 74.5 -184t28.5 -238q0 -128 -28 -235t-74 -183q-4 -8 -14 -8z" />
    <glyph glyph-name="asterisk" unicode="*" horiz-adv-x="361" 
d="M150.5 398.5q-3.5 3.5 -3.5 8.5v95q0 3 -2 4t-4 -1l-81 -48q-4 -2 -6 -2q-6 0 -10 7l-21 39q-2 4 -2 6q0 6 6 10l85 50q2 2 2 4t-2 3l-85 49q-9 6 -4 16l21 41q2 5 7 6.5t10 -1.5l80 -49q2 -2 4 -1t2 4v95q0 5 3.5 8.5t8.5 3.5h44q5 0 8.5 -3.5t3.5 -8.5l-1 -95
q0 -3 2 -4t4 1l80 49q4 2 6 2q7 0 11 -7l21 -41q2 -4 2 -6q0 -5 -6 -10l-84 -49q-2 -1 -2 -3t2 -4l84 -50q10 -6 5 -16l-22 -41q-3 -5 -7.5 -6t-9.5 2l-80 49q-2 2 -4 1t-2 -4l1 -95q0 -5 -3.5 -8.5t-8.5 -3.5h-44q-5 0 -8.5 3.5z" />
    <glyph glyph-name="plus" unicode="+" 
d="M409.5 354.5q3.5 -3.5 3.5 -8.5v-64q0 -5 -3.5 -8.5t-8.5 -3.5h-132q-5 0 -5 -5v-132q0 -5 -3.5 -8.5t-8.5 -3.5h-64q-5 0 -8.5 3.5t-3.5 8.5v132q0 5 -5 5h-132q-5 0 -8.5 3.5t-3.5 8.5v64q0 5 3.5 8.5t8.5 3.5h132q5 0 5 5v132q0 5 3.5 8.5t8.5 3.5h64q5 0 8.5 -3.5
t3.5 -8.5v-132q0 -5 5 -5h132q5 0 8.5 -3.5z" />
    <glyph glyph-name="comma" unicode="," horiz-adv-x="199" 
d="M35.5 -87.5q-3.5 3.5 -2.5 9.5l26 224q1 11 12 11h80q13 0 10 -13l-49 -224q-2 -11 -13 -11h-54q-6 0 -9.5 3.5z" />
    <glyph glyph-name="hyphen" unicode="-" horiz-adv-x="325" 
d="M30.5 254.5q-3.5 3.5 -3.5 8.5v76q0 5 3.5 8.5t8.5 3.5h247q5 0 8.5 -3.5t3.5 -8.5v-76q0 -5 -3.5 -8.5t-8.5 -3.5h-247q-5 0 -8.5 3.5z" />
    <glyph glyph-name="period" unicode="." horiz-adv-x="246" 
d="M67 21q-21 22 -21 55q0 31 23 53.5t51 22.5q29 0 52 -22.5t23 -53.5q0 -32 -21.5 -54.5t-53.5 -22.5t-53 22z" />
    <glyph glyph-name="slash" unicode="/" horiz-adv-x="361" 
d="M22 4q-3 4 -1 10l205 676q3 10 13 10h92q6 0 9 -4t1 -10l-205 -676q-3 -10 -13 -10h-92q-6 0 -9 4z" />
    <glyph glyph-name="zero" unicode="0" horiz-adv-x="430" 
d="M79 42.5q-51 53.5 -51 140.5v334q0 87 51 140.5t135 53.5q85 0 136.5 -53.5t51.5 -140.5v-334q0 -87 -51.5 -140.5t-136.5 -53.5q-84 0 -135 53.5zM266.5 113.5q19.5 23.5 19.5 62.5v348q0 39 -19.5 62.5t-52.5 23.5q-32 0 -51 -23.5t-19 -62.5v-348q0 -39 19 -62.5
t51 -23.5q33 0 52.5 23.5z" />
    <glyph glyph-name="one" unicode="1" horiz-adv-x="265" 
d="M116 700h96q5 0 8.5 -3.5t3.5 -8.5v-676q0 -5 -3.5 -8.5t-8.5 -3.5h-92q-5 0 -8.5 3.5t-3.5 8.5v572q0 2 -2 3.5t-4 0.5l-71 -21q-2 -1 -5 -1q-9 0 -9 11v66q0 10 9 14l75 39q10 4 15 4z" />
    <glyph glyph-name="two" unicode="2" horiz-adv-x="425" 
d="M34.5 3.5q-3.5 3.5 -3.5 8.5v80q0 9 5 15l39 53q39 52 76.5 106t63.5 97q58 96 58 159q0 40 -17.5 63t-46.5 23t-46 -22.5t-16 -59.5v-39q0 -5 -3.5 -8.5t-8.5 -3.5h-94q-5 0 -8.5 3.5t-3.5 8.5v43q4 80 54.5 129t130.5 49q79 0 127.5 -51.5t48.5 -135.5q0 -50 -17 -99
t-54 -105q-29 -46 -107 -157q-11 -16 -20.5 -29.5t-16.5 -24.5q-2 -2 -1 -4t4 -2h214q5 0 8.5 -3.5t3.5 -8.5v-76q0 -5 -3.5 -8.5t-8.5 -3.5h-349q-5 0 -8.5 3.5z" />
    <glyph glyph-name="three" unicode="3" horiz-adv-x="461" 
d="M421 249v-31v-30q0 -25 -1 -37q-6 -71 -58.5 -115t-133.5 -44q-83 0 -137 44t-60 115q-3 27 -3 56q0 12 12 12h92q12 0 12 -12q0 -29 2 -41q5 -34 26.5 -54t55.5 -20q33 0 55.5 20.5t27.5 53.5q1 15 0.5 35.5t-0.5 28.5t0.5 30t-0.5 35q-5 33 -27.5 53.5t-55.5 20.5
q-18 0 -31 -10q-5 -3 -8 -3q-5 0 -9 4l-45 48q-8 10 -1 17l146 170q5 6 -3 6h-228q-5 0 -8.5 3.5t-3.5 8.5v75q0 5 3.5 8.5t8.5 3.5h356q5 0 8.5 -3.5t3.5 -8.5v-79q0 -10 -5 -15l-118 -145q-3 -4 3 -6q51 -11 84.5 -56.5t38.5 -101.5q1 -11 1 -36z" />
    <glyph glyph-name="four" unicode="4" horiz-adv-x="451" 
d="M430.5 283.5q3.5 -3.5 3.5 -8.5v-81q0 -5 -3.5 -8.5t-8.5 -3.5h-30q-5 0 -5 -5v-165q0 -5 -3.5 -8.5t-8.5 -3.5h-92q-5 0 -8.5 3.5t-3.5 8.5v165q0 5 -5 5h-237q-5 0 -8.5 3.5t-3.5 8.5v65q0 9 2 15l139 416q3 10 13 10h100q6 0 9 -3.5t1 -10.5l-128 -393q-1 -6 4 -6h109
q5 0 5 5v120q0 5 3.5 8.5t8.5 3.5h92q5 0 8.5 -3.5t3.5 -8.5v-120q0 -5 5 -5h30q5 0 8.5 -3.5z" />
    <glyph glyph-name="five" unicode="5" horiz-adv-x="428" 
d="M400 216q0 -41 -4 -70q-5 -74 -52 -114t-125 -40q-74 0 -120 38t-56 114l-3 28q0 12 12 12h92q12 0 13 -12q0 -6 2 -18q12 -62 60 -62q25 0 40.5 16t20.5 45q4 25 4 64q0 37 -6 64q-5 26 -20.5 40.5t-38.5 14.5q-48 0 -62 -46q-3 -11 -13 -11h-93q-5 0 -8.5 3.5t-3.5 8.5
v397q0 5 3.5 8.5t8.5 3.5h326q5 0 8.5 -3.5t3.5 -8.5v-76q0 -5 -3.5 -8.5t-8.5 -3.5h-217q-5 0 -5 -5v-195q0 -3 2 -3.5t4 1.5q17 18 41.5 28.5t51.5 10.5q60 0 96.5 -38.5t43.5 -108.5q6 -31 6 -74z" />
    <glyph glyph-name="six" unicode="6" horiz-adv-x="429" 
d="M401 216q0 -23 -2 -65q-5 -76 -52.5 -117.5t-125.5 -41.5q-74 0 -120 38.5t-55 113.5q-6 27 -6 63l-1 325q0 81 49.5 128.5t130.5 47.5q76 0 124 -48t48 -128v-25q0 -5 -3.5 -8.5t-8.5 -3.5h-92q-5 0 -8.5 3.5t-3.5 8.5v19q0 34 -16.5 56.5t-39.5 22.5q-28 0 -45.5 -22
t-17.5 -57v-103q0 -3 2 -4t4 1q29 27 72 27q69 0 112 -44t50 -117q5 -33 5 -70zM284 224q0 26 -5 71q-12 58 -59 58q-24 0 -39.5 -15.5t-20.5 -45.5q-4 -35 -4 -68q0 -29 3 -67q5 -32 20.5 -49t40.5 -17t40.5 18t20.5 51q3 36 3 64z" />
    <glyph glyph-name="seven" unicode="7" horiz-adv-x="392" 
d="M90 13l165 581q2 6 -4 6h-135q-5 0 -5 -5v-36q0 -5 -3.5 -8.5t-8.5 -3.5h-71q-5 0 -8.5 3.5t-3.5 8.5l1 129q0 5 3.5 8.5t8.5 3.5h339q5 0 8.5 -3.5t3.5 -8.5v-81q0 -4 -2 -14l-167 -583q-3 -10 -14 -10h-97q-13 0 -10 13z" />
    <glyph glyph-name="eight" unicode="8" horiz-adv-x="434" 
d="M325 364q33 -19 50 -58q21 -47 21 -106q0 -51 -15 -94q-20 -53 -63 -83.5t-102 -30.5q-58 0 -101 30t-63 84q-14 44 -14 94q0 59 18 101q15 41 53 62q4 3 0 6q-35 22 -52 59q-19 43 -19 96q0 57 19 96q20 43 62 67.5t97 24.5q54 0 96 -23.5t63 -68.5q21 -39 21 -97
q0 -56 -20 -94q-18 -37 -51 -58q-6 -4 0 -7zM152 513q0 -31 7 -49l5 -14q7 -19 20.5 -29t31.5 -10q21 0 36 12.5t21 35.5q9 23 9 54t-11 55q-7 20 -21 32t-34 12t-34 -12t-21 -33q-9 -24 -9 -54zM281 207q0 39 -9 64q-6 24 -20.5 37.5t-35.5 13.5t-35.5 -14t-20.5 -40
q-7 -24 -7 -60t5 -57q6 -28 21 -43.5t37 -15.5q23 0 39 16.5t21 45.5q5 25 5 53z" />
    <glyph glyph-name="nine" unicode="9" horiz-adv-x="423" 
d="M384 168q0 -81 -49.5 -128.5t-130.5 -47.5q-76 0 -124 48t-48 128v25q0 5 3.5 8.5t8.5 3.5h92q5 0 8.5 -3.5t3.5 -8.5v-19q0 -34 16.5 -56.5t39.5 -22.5q28 0 45.5 22t17.5 57v103q0 3 -2 4t-4 -1q-29 -27 -72 -27q-69 0 -112 44t-50 117q-5 33 -5 70q0 23 2 65
q5 76 52.5 117.5t125.5 41.5q74 0 120 -38.5t55 -113.5q6 -27 6 -63zM267 476q0 30 -3 67q-5 32 -20.5 49t-40.5 17t-40.5 -18t-20.5 -51q-3 -36 -3 -64q0 -26 5 -71q12 -58 59 -58q24 0 39.5 15.5t20.5 45.5q4 35 4 68z" />
    <glyph glyph-name="colon" unicode=":" horiz-adv-x="252" 
d="M74 356q-21 22 -21 55q0 31 22.5 53.5t51.5 22.5t51.5 -22.5t22.5 -53.5q0 -33 -21 -55t-53 -22t-53 22zM74 25q-21 22 -21 55q0 32 22.5 54.5t51.5 22.5t51.5 -22.5t22.5 -54.5q0 -33 -21 -55t-53 -22t-53 22z" />
    <glyph glyph-name="semicolon" unicode=";" horiz-adv-x="218" 
d="M56 347.5q-21 22.5 -21 55.5q0 31 22.5 53.5t51.5 22.5t51.5 -22.5t22.5 -53.5q0 -33 -21 -55.5t-53 -22.5t-53 22.5zM42.5 -85.5q-3.5 3.5 -2.5 9.5l19 219q2 11 12 11h81q13 0 10 -13l-43 -219q-1 -11 -13 -11h-54q-6 0 -9.5 3.5z" />
    <glyph glyph-name="less" unicode="&#x3c;" 
d="M408 58.5q-4 -2.5 -10 0.5l-363 170q-9 5 -9 14v81q0 10 9 14l363 171q4 2 6 2q8 0 8 -11v-85q0 -9 -9 -14l-259 -114q-6 -3 0 -6l259 -114q9 -4 9 -14v-85q0 -7 -4 -9.5z" />
    <glyph glyph-name="equal" unicode="=" 
d="M30.5 375.5q-3.5 3.5 -3.5 8.5v64q0 5 3.5 8.5t8.5 3.5h362q5 0 8.5 -3.5t3.5 -8.5v-64q0 -5 -3.5 -8.5t-8.5 -3.5h-362q-5 0 -8.5 3.5zM30.5 184.5q-3.5 3.5 -3.5 8.5v64q0 5 3.5 8.5t8.5 3.5h362q5 0 8.5 -3.5t3.5 -8.5v-64q0 -5 -3.5 -8.5t-8.5 -3.5h-362
q-5 0 -8.5 3.5z" />
    <glyph glyph-name="greater" unicode="&#x3e;" 
d="M35 57q-8 0 -8 11v85q0 10 9 14l259 114q6 3 0 6l-259 114q-9 5 -9 14v85q0 7 4 9.5t10 -0.5l363 -171q9 -4 9 -14v-81q0 -9 -9 -14l-363 -170q-4 -2 -6 -2z" />
    <glyph glyph-name="question" unicode="?" horiz-adv-x="413" 
d="M138.5 217.5q-3.5 3.5 -3.5 8.5v41q0 48 19 77t56 63q32 29 48 52.5t16 58.5q0 39 -18 62.5t-48 23.5q-33 0 -52 -24.5t-19 -64.5v-21q0 -11 -12 -11l-92 4q-5 0 -8.5 4t-3.5 9v15q0 57 24 101.5t67 69t99 24.5q82 0 131 -51.5t49 -136.5q0 -45 -12 -76.5t-29 -51.5
t-44 -45q-28 -25 -41.5 -43.5t-13.5 -45.5v-34q0 -5 -3.5 -8.5t-8.5 -3.5h-92q-5 0 -8.5 3.5zM150 20q-20 21 -20 51t20 51t48 21t48.5 -21t20.5 -51t-20 -51t-49 -21q-28 0 -48 21z" />
    <glyph glyph-name="at" unicode="@" horiz-adv-x="759" 
d="M578 605q68 -36 106 -101.5t38 -151.5q0 -25 -3 -51q-13 -97 -64 -151.5t-126 -54.5q-64 0 -98 40q-4 3 -7 -1q-15 -21 -37 -30.5t-44 -9.5q-51 0 -80.5 30t-29.5 77q0 17 5 49l4 33q2 24 8 64q18 114 117 114q13 0 27.5 -5t26.5 -16q3 -2 5 -2.5t2 1.5v5q1 11 13 11h56
q12 0 11 -13l-24 -184q-1 -6 -1 -18q0 -34 16 -52t42 -18q36 0 60.5 36.5t32.5 96.5q3 23 3 43q0 67 -28 117t-78.5 77t-116.5 27q-72 0 -135 -37.5t-105 -104t-52 -150.5q-3 -24 -3 -46q0 -73 30 -125.5t79 -79.5t105 -27q75 0 135 42q5 3 8 3q6 0 9 -6l26 -42q2 -3 2 -8
t-5 -9q-36 -25 -84.5 -40t-104.5 -15q-80 0 -144 36.5t-100.5 104t-36.5 158.5q0 32 4 59q13 104 67 186.5t136.5 128.5t176.5 46q88 0 156 -36zM382.5 175q13.5 14 17.5 37l3 21l1 10l10 83l2 17q3 22 -7.5 36t-29.5 14t-33 -14t-17 -36l-3 -21q-6 -39 -6 -46l-8 -64
q-1 -24 9 -37.5t29 -13.5t32.5 14z" />
    <glyph glyph-name="A" unicode="A" horiz-adv-x="484" 
d="M339 11l-19 105q0 5 -6 5h-145q-6 0 -6 -4l-20 -106q-1 -11 -13 -11h-92q-13 0 -10 13l147 676q2 11 13 11h107q11 0 13 -11l148 -676v-4q0 -9 -11 -9h-93q-12 0 -13 11zM188 212h109q6 0 5 5l-55 302q-1 3 -3 3t-3 -3l-58 -302q-1 -5 5 -5z" />
    <glyph glyph-name="B" unicode="B" horiz-adv-x="462" 
d="M381.5 50q-53.5 -50 -139.5 -50h-176q-5 0 -8.5 3.5t-3.5 8.5v676q0 5 3.5 8.5t8.5 3.5h158q95 0 149 -48t54 -140q0 -103 -73 -147q-5 -3 -2 -6q39 -25 61 -67t22 -100q0 -92 -53.5 -142zM170 595v-186q0 -5 5 -5h51q41 0 64 25t23 71q0 48 -23 74t-64 26h-51
q-5 0 -5 -5zM296 129q23 28 23 79q0 52 -23 81.5t-63 29.5h-58q-5 0 -5 -5v-208q0 -5 5 -5h58q40 0 63 28z" />
    <glyph glyph-name="C" unicode="C" horiz-adv-x="457" 
d="M93.5 43.5q-51.5 51.5 -51.5 136.5v341q0 86 51.5 136.5t136.5 50.5q86 0 138 -50.5t52 -136.5v-12q0 -5 -3.5 -9t-8.5 -4l-93 -4q-12 0 -12 12v25q0 35 -20 57t-53 22q-32 0 -52 -22t-20 -57v-358q0 -35 20 -57t52 -22q33 0 53 22t20 57v25q0 5 3.5 8.5t8.5 3.5l93 -4
q5 0 8.5 -3.5t3.5 -8.5v-12q0 -85 -52 -136.5t-138 -51.5q-85 0 -136.5 51.5z" />
    <glyph glyph-name="D" unicode="D" horiz-adv-x="472" 
d="M57.5 3.5q-3.5 3.5 -3.5 8.5v676q0 5 3.5 8.5t8.5 3.5h171q86 0 137.5 -52t51.5 -139v-318q0 -87 -51.5 -139t-137.5 -52h-171q-5 0 -8.5 3.5zM175 100l60 1q33 0 53.5 26.5t21.5 70.5v304q0 45 -20.5 71.5t-55.5 26.5h-59q-5 0 -5 -5v-490q0 -5 5 -5z" />
    <glyph glyph-name="E" unicode="E" horiz-adv-x="435" 
d="M399.5 603.5q-3.5 -3.5 -8.5 -3.5h-216q-5 0 -5 -5v-189q0 -5 5 -5h128q5 0 8.5 -3.5t3.5 -8.5v-77q0 -5 -3.5 -8.5t-8.5 -3.5h-128q-5 0 -5 -5v-190q0 -5 5 -5h216q5 0 8.5 -3.5t3.5 -8.5v-76q0 -5 -3.5 -8.5t-8.5 -3.5h-325q-5 0 -8.5 3.5t-3.5 8.5v676q0 5 3.5 8.5
t8.5 3.5h325q5 0 8.5 -3.5t3.5 -8.5v-76q0 -5 -3.5 -8.5z" />
    <glyph glyph-name="F" unicode="F" horiz-adv-x="415" 
d="M398.5 603.5q-3.5 -3.5 -8.5 -3.5h-215q-5 0 -5 -5v-189q0 -5 5 -5h127q5 0 8.5 -3.5t3.5 -8.5v-77q0 -5 -3.5 -8.5t-8.5 -3.5h-127q-5 0 -5 -5v-283q0 -5 -3.5 -8.5t-8.5 -3.5h-92q-5 0 -8.5 3.5t-3.5 8.5v676q0 5 3.5 8.5t8.5 3.5h324q5 0 8.5 -3.5t3.5 -8.5v-76
q0 -5 -3.5 -8.5z" />
    <glyph glyph-name="G" unicode="G" horiz-adv-x="457" 
d="M93.5 41.5q-51.5 49.5 -51.5 131.5v354q0 82 51.5 131.5t136.5 49.5t137.5 -49.5t52.5 -132.5v-39q0 -5 -3.5 -8.5t-8.5 -3.5h-92q-5 0 -8.5 3.5t-3.5 8.5v41q0 36 -20.5 58t-53.5 22t-53 -22t-20 -58v-356q0 -36 20 -58t53 -22t53.5 22t20.5 58v96q0 5 -5 5h-61
q-5 0 -8.5 3.5t-3.5 8.5v73q0 5 3.5 8.5t8.5 3.5h170q5 0 8.5 -3.5t3.5 -8.5v-185q0 -82 -52.5 -131.5t-137.5 -49.5t-136.5 49.5z" />
    <glyph glyph-name="H" unicode="H" horiz-adv-x="477" 
d="M310.5 696.5q3.5 3.5 8.5 3.5h92q5 0 8.5 -3.5t3.5 -8.5v-676q0 -5 -3.5 -8.5t-8.5 -3.5h-92q-5 0 -8.5 3.5t-3.5 8.5v283q0 5 -5 5h-127q-5 0 -5 -5v-283q0 -5 -3.5 -8.5t-8.5 -3.5h-92q-5 0 -8.5 3.5t-3.5 8.5v676q0 5 3.5 8.5t8.5 3.5h92q5 0 8.5 -3.5t3.5 -8.5v-282
q0 -5 5 -5h127q5 0 5 5v282q0 5 3.5 8.5z" />
    <glyph glyph-name="I" unicode="I" horiz-adv-x="224" 
d="M57.5 3.5q-3.5 3.5 -3.5 8.5v676q0 5 3.5 8.5t8.5 3.5h92q5 0 8.5 -3.5t3.5 -8.5v-676q0 -5 -3.5 -8.5t-8.5 -3.5h-92q-5 0 -8.5 3.5z" />
    <glyph glyph-name="J" unicode="J" horiz-adv-x="443" 
d="M68 41.5q-51 49.5 -51 131.5v74q0 5 3.5 8.5t8.5 3.5h92q5 0 8.5 -3.5t3.5 -8.5v-76q0 -35 19 -57t50 -22t50.5 22t19.5 57v517q0 5 3.5 8.5t8.5 3.5h92q5 0 8.5 -3.5t3.5 -8.5v-515q0 -82 -51.5 -131.5t-134.5 -49.5t-134 49.5z" />
    <glyph glyph-name="K" unicode="K" horiz-adv-x="477" 
d="M57.5 3.5q-3.5 3.5 -3.5 8.5v676q0 5 3.5 8.5t8.5 3.5h92q5 0 8.5 -3.5t3.5 -8.5v-276q0 -4 2 -4.5t4 2.5l150 281q5 9 15 9h99q7 0 9 -4t-1 -10l-150 -281q-1 -4 -1 -6l162 -385q1 -2 1 -6q0 -8 -10 -8h-99q-11 0 -14 9l-118 289q-1 3 -3 2.5t-4 -2.5l-40 -67
q-2 -4 -2 -6v-213q0 -5 -3.5 -8.5t-8.5 -3.5h-92q-5 0 -8.5 3.5z" />
    <glyph glyph-name="L" unicode="L" horiz-adv-x="415" 
d="M57.5 3.5q-3.5 3.5 -3.5 8.5v676q0 5 3.5 8.5t8.5 3.5h92q5 0 8.5 -3.5t3.5 -8.5v-583q0 -5 5 -5h216q5 0 8.5 -3.5t3.5 -8.5v-76q0 -5 -3.5 -8.5t-8.5 -3.5h-325q-5 0 -8.5 3.5z" />
    <glyph glyph-name="M" unicode="M" horiz-adv-x="536" 
d="M55.5 3.5q-3.5 3.5 -3.5 8.5v676q0 5 3.5 8.5t8.5 3.5h91q10 0 14 -9l96 -216q3 -6 6 0l95 216q4 9 14 9h92q5 0 8.5 -3.5t3.5 -8.5v-676q0 -5 -3.5 -8.5t-8.5 -3.5h-92q-5 0 -8.5 3.5t-3.5 8.5v436q0 4 -2 4t-4 -3l-86 -175q-4 -9 -8 -9q-3 0 -8 9l-86 177q-2 3 -4 2.5
t-2 -4.5v-437q0 -5 -3.5 -8.5t-8.5 -3.5h-92q-5 0 -8.5 3.5z" />
    <glyph glyph-name="N" unicode="N" horiz-adv-x="507" 
d="M58.5 3.5q-3.5 3.5 -3.5 8.5v676q0 5 3.5 8.5t8.5 3.5h96q11 0 14 -9l155 -407q2 -3 4 -3t2 4v403q0 5 3.5 8.5t8.5 3.5h91q5 0 8.5 -3.5t3.5 -8.5v-676q0 -5 -3.5 -8.5t-8.5 -3.5h-97q-11 0 -14 9l-156 408q-1 3 -3.5 2.5t-2.5 -3.5l1 -404q0 -5 -3.5 -8.5t-8.5 -3.5
h-90q-5 0 -8.5 3.5z" />
    <glyph glyph-name="O" unicode="O" horiz-adv-x="467" 
d="M94.5 44q-52.5 52 -52.5 138v336q0 86 52.5 138t138.5 52t139 -52t53 -138v-336q0 -86 -53 -138t-139 -52t-138.5 52zM288 115.5q21 23.5 21 61.5v346q0 38 -21 61.5t-55 23.5t-54.5 -23.5t-20.5 -61.5v-346q0 -38 20.5 -61.5t54.5 -23.5t55 23.5z" />
    <glyph glyph-name="P" unicode="P" horiz-adv-x="457" 
d="M346.5 675q40.5 -26 63 -73t22.5 -107q0 -90 -47.5 -145t-125.5 -55h-85q-5 0 -5 -5v-278q0 -5 -3.5 -8.5t-8.5 -3.5h-92q-5 0 -8.5 3.5t-3.5 8.5v677q0 5 3.5 8.5t8.5 3.5h188q53 0 93.5 -26zM293.5 414.5q22.5 28.5 22.5 77.5q0 50 -22.5 79.5t-59.5 29.5h-60
q-5 0 -5 -5v-205q0 -5 5 -5h60q37 0 59.5 28.5z" />
    <glyph glyph-name="Q" unicode="Q" horiz-adv-x="455" 
d="M362 654q51 -54 51 -141v-326q0 -69 -33 -118.5t-91 -67.5q-4 -1 -4 -5v-88q0 -5 -3.5 -8.5t-8.5 -3.5h-92q-5 0 -8.5 3.5t-3.5 8.5v88q0 4 -4 5q-57 19 -90 68t-33 118v326q0 87 51 141t134 54q84 0 135 -54zM297 525q0 37 -19.5 60t-50.5 23t-50 -23t-19 -60v-350
q0 -37 19 -60t50 -23t50.5 23t19.5 60v350z" />
    <glyph glyph-name="R" unicode="R" horiz-adv-x="461" 
d="M318 10l-86 288q-2 4 -5 4h-52q-5 0 -5 -5v-285q0 -5 -3.5 -8.5t-8.5 -3.5h-92q-5 0 -8.5 3.5t-3.5 8.5v677q0 5 3.5 8.5t8.5 3.5h188q53 0 93.5 -25.5t63 -72t22.5 -106.5q0 -62 -24 -107.5t-67 -68.5q-4 -1 -3 -6l98 -301q1 -2 1 -5q0 -9 -11 -9h-96q-10 0 -13 10z
M170 596v-199q0 -5 5 -5h61q36 0 58.5 28t22.5 75q0 49 -22.5 77.5t-58.5 28.5h-61q-5 0 -5 -5z" />
    <glyph glyph-name="S" unicode="S" horiz-adv-x="440" 
d="M91 42.5q-51 50.5 -51 130.5v28q0 5 3.5 8.5t8.5 3.5h90q5 0 8.5 -3.5t3.5 -8.5v-22q0 -39 20 -63t50 -24q31 0 51 22.5t20 59.5q0 25 -11 44.5t-30.5 36.5t-63.5 49q-50 36 -80.5 64t-51 67.5t-20.5 91.5q0 83 50 132t131 49q84 0 135 -51.5t51 -136.5v-24
q0 -5 -3.5 -8.5t-8.5 -3.5h-91q-5 0 -8.5 3.5t-3.5 8.5v26q0 39 -19.5 62.5t-51.5 23.5q-29 0 -48 -21.5t-19 -59.5q0 -36 20.5 -61t80.5 -69q61 -46 92 -74t48 -62t17 -81q0 -85 -51.5 -136.5t-134.5 -51.5q-82 0 -133 50.5z" />
    <glyph glyph-name="T" unicode="T" horiz-adv-x="452" 
d="M421.5 696.5q3.5 -3.5 3.5 -8.5v-76q0 -5 -3.5 -8.5t-8.5 -3.5h-127q-5 0 -5 -5v-583q0 -5 -3.5 -8.5t-8.5 -3.5h-92q-5 0 -8.5 3.5t-3.5 8.5v583q0 5 -5 5h-120q-5 0 -8.5 3.5t-3.5 8.5v76q0 5 3.5 8.5t8.5 3.5h373q5 0 8.5 -3.5z" />
    <glyph glyph-name="U" unicode="U" horiz-adv-x="478" 
d="M101.5 47.5q-51.5 55.5 -51.5 146.5v494q0 5 3.5 8.5t8.5 3.5h92q5 0 8.5 -3.5t3.5 -8.5v-506q0 -40 20 -65t53 -25t53 25t20 65v506q0 5 3.5 8.5t8.5 3.5h92q5 0 8.5 -3.5t3.5 -8.5v-494q0 -91 -52 -146.5t-137 -55.5q-86 0 -137.5 55.5z" />
    <glyph glyph-name="V" unicode="V" horiz-adv-x="471" 
d="M171 11l-143 676l-1 4q0 9 11 9h101q12 0 13 -11l83 -481q1 -3 3 -3t3 3l81 481q1 11 13 11h98q13 0 10 -13l-144 -676q-2 -11 -13 -11h-102q-11 0 -13 11z" />
    <glyph glyph-name="W" unicode="W" horiz-adv-x="665" 
d="M157 11l-133 676l-1 4q0 9 11 9h96q12 0 13 -11l70 -417q1 -3 3 -3t3 3l63 417q1 11 13 11h80q12 0 13 -11l68 -417q1 -3 3 -3t3 3l63 417q1 11 13 11h93q13 0 11 -13l-127 -676q-1 -11 -13 -11h-85q-12 0 -13 11l-67 425q-1 4 -3 4t-3 -4l-62 -425q-1 -11 -13 -11h-86
q-12 0 -13 11z" />
    <glyph glyph-name="X" unicode="X" horiz-adv-x="460" 
d="M31 4q-2 4 0 10l137 333q1 3 0 6l-137 333q-1 2 -1 6q0 8 10 8h95q10 0 13 -10l80 -217q1 -3 3 -3t3 3l79 217q3 10 13 10h94q7 0 9 -4t0 -10l-137 -333q-1 -3 0 -6l137 -333q1 -2 1 -6q0 -8 -10 -8h-93q-11 0 -14 10l-79 216q-1 3 -3 3t-3 -3l-80 -216q-3 -10 -14 -10
h-94q-7 0 -9 4z" />
    <glyph glyph-name="Y" unicode="Y" horiz-adv-x="456" 
d="M173.5 4.5q-3.5 3.5 -3.5 8.5v273l-1 6l-139 394q-1 2 -1 5q0 9 11 9h96q11 0 14 -10l75 -257q1 -3 3 -3t3 3l75 257q3 10 14 10h96q6 0 9 -3.5t1 -10.5l-139 -394l-1 -6v-273q0 -5 -3.5 -8.5t-8.5 -3.5h-92q-5 0 -8.5 3.5z" />
    <glyph glyph-name="Z" unicode="Z" horiz-adv-x="406" 
d="M28.5 3.5q-3.5 3.5 -3.5 8.5v80q0 8 3 15l224 487q1 2 0 4t-3 2h-212q-5 0 -8.5 3.5t-3.5 8.5v76q0 5 3.5 8.5t8.5 3.5h328q5 0 8.5 -3.5t3.5 -8.5v-80q0 -7 -3 -15l-224 -487q-1 -2 0 -4t3 -2h212q5 0 8.5 -3.5t3.5 -8.5v-76q0 -5 -3.5 -8.5t-8.5 -3.5h-328
q-5 0 -8.5 3.5z" />
    <glyph glyph-name="bracketleft" unicode="[" horiz-adv-x="330" 
d="M30.5 -134.5q-3.5 3.5 -3.5 8.5v905q0 5 3.5 8.5t8.5 3.5h186q5 0 8.5 -3.5t3.5 -8.5v-76q0 -5 -3.5 -8.5t-8.5 -3.5h-77q-5 0 -5 -5v-718q0 -5 5 -5h77q5 0 8.5 -3.5t3.5 -8.5v-77q0 -5 -3.5 -8.5t-8.5 -3.5h-186q-5 0 -8.5 3.5z" />
    <glyph glyph-name="backslash" unicode="\" horiz-adv-x="361" 
d="M341 10q0 -10 -11 -10h-92q-10 0 -13 10l-205 676l-1 4q0 10 11 10h92q10 0 13 -10l205 -676z" />
    <glyph glyph-name="bracketright" unicode="]" horiz-adv-x="330" 
d="M299.5 -134.5q-3.5 -3.5 -8.5 -3.5h-186q-5 0 -8.5 3.5t-3.5 8.5v77q0 5 3.5 8.5t8.5 3.5h77q5 0 5 5v718q0 5 -5 5h-77q-5 0 -8.5 3.5t-3.5 8.5v76q0 5 3.5 8.5t8.5 3.5h186q5 0 8.5 -3.5t3.5 -8.5v-905q0 -5 -3.5 -8.5z" />
    <glyph glyph-name="asciicircum" unicode="^" horiz-adv-x="413" 
d="M32 304.5q-3 3.5 -1 10.5l123 375q3 10 13 10h78q10 0 13 -10l124 -375q1 -2 1 -5q0 -9 -11 -9h-74q-10 0 -13 10l-75 255q-1 3 -3 3.5t-3 -3.5l-76 -255q-3 -10 -13 -10h-74q-6 0 -9 3.5z" />
    <glyph glyph-name="underscore" unicode="_" horiz-adv-x="405" 
d="M20.5 3.5q-3.5 3.5 -3.5 8.5v65q0 5 3.5 8.5t8.5 3.5h347q5 0 8.5 -3.5t3.5 -8.5v-65q0 -5 -3.5 -8.5t-8.5 -3.5h-347q-5 0 -8.5 3.5z" />
    <glyph glyph-name="grave" unicode="`" horiz-adv-x="217" 
d="M195 583q0 -8 -11 -8h-69q-9 0 -14 7l-74 103q-3 5 -3 7q0 8 11 8h84q11 0 15 -8l59 -103z" />
    <glyph glyph-name="a" unicode="a" horiz-adv-x="433" 
d="M346 473q49 -46 49 -121v-340q0 -5 -3.5 -8.5t-8.5 -3.5h-92q-5 0 -8.5 3.5t-3.5 8.5v18q0 3 -2 4t-4 -2q-36 -40 -101 -40q-57 0 -100.5 32.5t-43.5 118.5q0 90 52.5 128t142.5 38h51q5 0 5 5v26q0 36 -18 57.5t-45 21.5q-21 0 -35 -13.5t-17 -36.5q-1 -12 -13 -12h-97
q-12 0 -11 12q5 68 53.5 109t121.5 41q79 0 128 -46zM256.5 107q22.5 19 22.5 53v57q0 5 -5 5h-51q-35 0 -55.5 -18.5t-20.5 -53.5q0 -31 16 -46.5t41 -15.5q30 0 52.5 19z" />
    <glyph glyph-name="b" unicode="b" horiz-adv-x="437" 
d="M360.5 476q36.5 -43 38.5 -118v-204q-2 -74 -38 -118t-101 -44q-57 0 -92 38q-2 2 -4 1.5t-2 -3.5v-16q0 -5 -3.5 -8.5t-8.5 -3.5h-92q-5 0 -8.5 3.5t-3.5 8.5v676q0 5 3.5 8.5t8.5 3.5h92q5 0 8.5 -3.5t3.5 -8.5v-205q0 -3 2.5 -3t5.5 3q33 36 90 36q64 0 100.5 -43z
M267 399q-17 20 -44 20t-44 -20t-17 -53v-181q0 -33 17 -53t44 -20t44 20.5t17 52.5v181q0 33 -17 53z" />
    <glyph glyph-name="c" unicode="c" horiz-adv-x="422" 
d="M85.5 36q-47.5 44 -47.5 119v202q0 73 47.5 117.5t129.5 44.5t130 -43.5t48 -110.5v-14q0 -5 -3.5 -8.5t-8.5 -3.5l-92 -4q-12 0 -12 11v11q0 25 -17.5 43.5t-44.5 18.5t-44 -20t-17 -51v-185q0 -31 17 -51t44 -20t44.5 18.5t17.5 44.5v10q0 5 3.5 8.5t8.5 3.5l92 -1
q5 0 8.5 -3.5t3.5 -8.5v-18q0 -69 -48 -111.5t-130 -42.5t-129.5 44z" />
    <glyph glyph-name="d" unicode="d" horiz-adv-x="437" 
d="M278.5 696.5q3.5 3.5 8.5 3.5h92q5 0 8.5 -3.5t3.5 -8.5v-676q0 -5 -3.5 -8.5t-8.5 -3.5h-92q-5 0 -8.5 3.5t-3.5 8.5v16q0 3 -2 3.5t-4 -1.5q-35 -38 -92 -38q-65 0 -101 44t-38 118v204q2 75 38.5 118t100.5 43q57 0 92 -38q2 -2 4 -1.5t2 3.5v205q0 5 3.5 8.5z
M258 112q17 20 17 53v181q0 33 -17 53t-44 20t-44 -20t-17 -53v-181q0 -32 17 -52.5t44 -20.5t44 20z" />
    <glyph glyph-name="e" unicode="e" horiz-adv-x="426" 
d="M389.5 215.5q-3.5 -3.5 -8.5 -3.5h-222q-5 0 -5 -5v-44q0 -32 17 -52t44 -20q23 0 39 15t22 38q3 11 13 10l90 -6q12 -2 11 -13q-8 -68 -52.5 -105.5t-122.5 -37.5q-82 0 -129.5 43.5t-47.5 118.5v203q0 73 47.5 117.5t129.5 44.5t130 -44.5t48 -117.5v-133
q0 -5 -3.5 -8.5zM171 399q-17 -20 -17 -51v-44q0 -5 5 -5h113q5 0 5 5v44q0 32 -17 51.5t-45 19.5q-27 0 -44 -20z" />
    <glyph glyph-name="f" unicode="f" horiz-adv-x="290" 
d="M261.5 507.5q3.5 -3.5 3.5 -8.5v-59q0 -5 -3.5 -8.5t-8.5 -3.5h-62q-5 0 -5 -5v-411q0 -5 -3.5 -8.5t-8.5 -3.5h-91q-5 0 -8.5 3.5t-3.5 8.5v411q0 5 -5 5h-32q-5 0 -8.5 3.5t-3.5 8.5v59q0 5 3.5 8.5t8.5 3.5h32q5 0 5 5v25q0 90 41 127t131 36h8q5 0 8.5 -3.5t3.5 -8.5
l-2 -68q0 -12 -8 -12h-9q-30 -1 -44 -19.5t-14 -56.5v-20q0 -5 5 -5h62q5 0 8.5 -3.5z" />
    <glyph glyph-name="g" unicode="g" horiz-adv-x="431" 
d="M278.5 507.5q3.5 3.5 8.5 3.5h92q5 0 8.5 -3.5t3.5 -8.5v-480q0 -108 -49 -166.5t-175 -58.5q-22 0 -33 1q-12 1 -12 13v77q0 13 13 11q57 -1 87.5 14t41.5 44t11 76v11q0 3 -2 3.5t-4 -2.5q-33 -43 -94 -43q-67 0 -102 43.5t-35 118.5v196q0 77 35.5 119.5t101.5 42.5
q61 0 94 -43q2 -3 4 -2.5t2 3.5v22q0 5 3.5 8.5zM258.5 118.5q16.5 19.5 16.5 50.5v179q0 32 -16.5 51.5t-43.5 19.5t-44 -20t-17 -51v-179q0 -31 17 -50.5t44 -19.5t43.5 19.5z" />
    <glyph glyph-name="h" unicode="h" 
d="M363.5 475.5q33.5 -43.5 33.5 -123.5v-340q0 -5 -3.5 -8.5t-8.5 -3.5h-92q-5 0 -8.5 3.5t-3.5 8.5v331q0 36 -15 56t-43 20q-29 0 -45 -21t-16 -58v-328q0 -5 -3.5 -8.5t-8.5 -3.5h-92q-5 0 -8.5 3.5t-3.5 8.5v676q0 5 3.5 8.5t8.5 3.5h92q5 0 8.5 -3.5t3.5 -8.5v-209
q0 -3 2.5 -3.5t5.5 3.5q34 40 95 40q65 0 98.5 -43.5z" />
    <glyph glyph-name="i" unicode="i" horiz-adv-x="218" 
d="M58.5 595q-19.5 20 -19.5 52t19.5 52t50.5 20t50.5 -20t19.5 -52t-19.5 -52t-50.5 -20t-50.5 20zM54.5 3.5q-3.5 3.5 -3.5 8.5v487q0 5 3.5 8.5t8.5 3.5h92q5 0 8.5 -3.5t3.5 -8.5v-487q0 -5 -3.5 -8.5t-8.5 -3.5h-92q-5 0 -8.5 3.5z" />
    <glyph glyph-name="j" unicode="j" horiz-adv-x="208" 
d="M53.5 596.5q-19.5 20.5 -19.5 51.5q0 30 21 51t49 21t49 -21t21 -51q0 -31 -19.5 -51.5t-50.5 -20.5t-50.5 20.5zM-47 -193v75q0 12 12 12q44 1 62.5 24t18.5 66v515q0 5 3.5 8.5t8.5 3.5h92q5 0 8.5 -3.5t3.5 -8.5v-515q0 -67 -13 -106.5t-56 -61.5t-128 -21
q-12 0 -12 12z" />
    <glyph glyph-name="k" unicode="k" horiz-adv-x="433" 
d="M49.5 3.5q-3.5 3.5 -3.5 8.5v676q0 5 3.5 8.5t8.5 3.5h92q5 0 8.5 -3.5t3.5 -8.5v-356q0 -4 2 -4t4 3l109 172q4 8 14 8h96q7 0 9 -4.5t-2 -10.5l-104 -157q-2 -4 -1 -7l120 -318q1 -2 1 -5q0 -9 -11 -9h-95q-10 0 -13 10l-74 226q-1 3 -3 3.5t-3 -2.5l-47 -70
q-2 -4 -2 -6v-149q0 -5 -3.5 -8.5t-8.5 -3.5h-92q-5 0 -8.5 3.5z" />
    <glyph glyph-name="l" unicode="l" horiz-adv-x="199" 
d="M45.5 3.5q-3.5 3.5 -3.5 8.5v676q0 5 3.5 8.5t8.5 3.5h92q5 0 8.5 -3.5t3.5 -8.5v-676q0 -5 -3.5 -8.5t-8.5 -3.5h-92q-5 0 -8.5 3.5z" />
    <glyph glyph-name="m" unicode="m" horiz-adv-x="665" 
d="M589.5 473.5q33.5 -45.5 33.5 -126.5v-335q0 -5 -3.5 -8.5t-8.5 -3.5h-91q-5 0 -8.5 3.5t-3.5 8.5v327q0 38 -15 59t-41 21q-28 0 -44 -21t-16 -58v-328q0 -5 -3.5 -8.5t-8.5 -3.5h-91q-5 0 -8.5 3.5t-3.5 8.5v327q0 38 -15.5 59t-40.5 21q-28 0 -44 -21t-16 -58v-328
q0 -5 -3.5 -8.5t-8.5 -3.5h-91q-5 0 -8.5 3.5t-3.5 8.5v487q0 5 3.5 8.5t8.5 3.5h91q5 0 8.5 -3.5t3.5 -8.5v-16q0 -3 2 -4t4 2q20 20 45 29t49 9q74 0 109 -63q3 -4 9 3q20 32 50.5 46t61.5 14q65 0 98.5 -45.5z" />
    <glyph glyph-name="n" unicode="n" 
d="M363.5 475.5q33.5 -43.5 33.5 -123.5v-340q0 -5 -3.5 -8.5t-8.5 -3.5h-92q-5 0 -8.5 3.5t-3.5 8.5v331q0 36 -15 56t-43 20q-29 0 -45 -21t-16 -58v-328q0 -5 -3.5 -8.5t-8.5 -3.5h-92q-5 0 -8.5 3.5t-3.5 8.5v487q0 5 3.5 8.5t8.5 3.5h92q5 0 8.5 -3.5t3.5 -8.5v-20
q0 -3 2.5 -3.5t5.5 3.5q34 40 95 40q65 0 98.5 -43.5z" />
    <glyph glyph-name="o" unicode="o" horiz-adv-x="432" 
d="M85.5 35.5q-47.5 43.5 -47.5 118.5v203q0 73 48 117.5t130 44.5q83 0 131 -44.5t48 -117.5v-203q0 -75 -47.5 -118.5t-131.5 -43.5q-83 0 -130.5 43.5zM261.5 112q17.5 20 17.5 51v185q0 31 -17.5 51t-45.5 20t-45 -19.5t-17 -51.5v-185q0 -32 17 -51.5t45 -19.5t45.5 20
z" />
    <glyph glyph-name="p" unicode="p" horiz-adv-x="441" 
d="M365 475q36 -44 38 -118v-204q-2 -75 -38.5 -118t-100.5 -43q-57 0 -92 38q-2 2 -4 1.5t-2 -3.5v-205q0 -5 -3.5 -8.5t-8.5 -3.5h-92q-5 0 -8.5 3.5t-3.5 8.5v676q0 5 3.5 8.5t8.5 3.5h92q5 0 8.5 -3.5t3.5 -8.5v-16q0 -3 2.5 -3t5.5 3q18 19 42 27.5t48 8.5
q65 0 101 -44zM271 398.5q-17 20.5 -44 20.5t-44 -20t-17 -53v-181q0 -33 17 -53t44 -20t44 20t17 53v181q0 32 -17 52.5z" />
    <glyph glyph-name="q" unicode="q" horiz-adv-x="441" 
d="M278.5 507.5q3.5 3.5 8.5 3.5h92q5 0 8.5 -3.5t3.5 -8.5v-676q0 -5 -3.5 -8.5t-8.5 -3.5h-92q-5 0 -8.5 3.5t-3.5 8.5v205q0 3 -2 3.5t-4 -1.5q-35 -38 -92 -38q-64 0 -100.5 43t-38.5 118v204q2 74 38 118t101 44q57 0 92 -38q2 -2 4 -1.5t2 3.5v16q0 5 3.5 8.5z
M258 112q17 20 17 53v181q0 33 -17 53t-44 20t-44 -20.5t-17 -52.5v-181q0 -33 17 -53t44 -20t44 20z" />
    <glyph glyph-name="r" unicode="r" horiz-adv-x="313" 
d="M297 507q8 -5 6 -15l-16 -93q-1 -12 -14 -7q-14 4 -26 4t-22 -3q-28 -4 -45.5 -31.5t-17.5 -65.5v-284q0 -5 -3.5 -8.5t-8.5 -3.5h-92q-5 0 -8.5 3.5t-3.5 8.5v487q0 5 3.5 8.5t8.5 3.5h92q5 0 8.5 -3.5t3.5 -8.5v-46q0 -4 2 -4.5t3 3.5q27 65 88 65q27 0 42 -10z" />
    <glyph glyph-name="s" unicode="s" horiz-adv-x="398" 
d="M77 32q-47 38 -47 103v7q0 5 3.5 8.5t8.5 3.5h86q12 0 12 -8v-9q0 -24 18.5 -40t45.5 -16q26 0 41 15t15 38q0 20 -13 33.5t-28 20.5t-54 23q-57 22 -93.5 56t-36.5 101q0 70 44.5 109.5t120.5 39.5q78 0 123.5 -41.5t45.5 -111.5q0 -5 -3.5 -8.5t-8.5 -3.5h-84
q-5 0 -8.5 2.5t-3.5 6.5v9q0 24 -16.5 40t-41.5 16q-26 0 -41.5 -16.5t-15.5 -39.5q0 -19 12 -32t27 -20.5t50 -22.5q42 -17 70.5 -33.5t50 -47t21.5 -75.5q0 -67 -47 -106t-127 -39q-79 0 -126 38z" />
    <glyph glyph-name="t" unicode="t" horiz-adv-x="282" 
d="M256.5 432.5q-3.5 -3.5 -8.5 -3.5h-62q-5 0 -5 -5v-262q0 -35 13 -48.5t39 -12.5h7q5 0 8.5 -3.5t3.5 -8.5v-77q0 -5 -3.5 -8.5t-8.5 -3.5h-34q-68 0 -102.5 25t-34.5 94v305q0 5 -5 5h-35q-5 0 -8.5 3.5t-3.5 8.5v58q0 5 3.5 8.5t8.5 3.5h35q5 0 5 5v110q0 5 3.5 8.5
t8.5 3.5h88q5 0 8.5 -3.5t3.5 -8.5v-110q0 -5 5 -5h62q5 0 8.5 -3.5t3.5 -8.5v-58q0 -5 -3.5 -8.5z" />
    <glyph glyph-name="u" unicode="u" horiz-adv-x="438" 
d="M280.5 507.5q3.5 3.5 8.5 3.5h92q5 0 8.5 -3.5t3.5 -8.5v-487q0 -5 -3.5 -8.5t-8.5 -3.5h-92q-5 0 -8.5 3.5t-3.5 8.5v22q0 3 -2 4t-4 -2q-29 -43 -93 -43q-61 0 -98.5 36.5t-37.5 112.5v357q0 5 3.5 8.5t8.5 3.5h92q5 0 8.5 -3.5t3.5 -8.5v-332q0 -75 58 -75
q29 0 45 21.5t16 58.5v327q0 5 3.5 8.5z" />
    <glyph glyph-name="v" unicode="v" horiz-adv-x="415" 
d="M141 10l-121 488v4q0 9 11 9h101q12 0 13 -11l60 -325q1 -3 3 -3t3 3l59 325q1 11 13 11l102 -1q14 0 11 -13l-121 -487q-3 -10 -14 -10h-106q-11 0 -14 10z" />
    <glyph glyph-name="w" unicode="w" horiz-adv-x="592" 
d="M126 11l-106 487l-1 4q0 9 11 9h88q12 0 13 -11l53 -326q1 -3 3 -3t3 3l54 326q1 11 13 11h78q12 0 13 -11l56 -326q1 -3 3 -3t3 3l53 326q1 11 13 11l87 -1q13 0 10 -13l-107 -486q-2 -11 -13 -11h-90q-12 0 -13 11l-53 292q-1 3 -3 3t-3 -3l-52 -292q-1 -11 -13 -11
h-87q-11 0 -13 11z" />
    <glyph glyph-name="x" unicode="x" horiz-adv-x="417" 
d="M19.5 3.5q-2.5 3.5 0.5 10.5l116 239q1 3 0 6l-116 238q-2 4 -2 6q0 8 11 8h100q10 0 14 -9l62 -136q3 -6 6 0l63 136q4 9 14 9h100q7 0 9.5 -3.5t-0.5 -10.5l-116 -238q-1 -3 0 -6l116 -239q2 -4 2 -6q0 -8 -11 -8h-100q-10 0 -14 9l-63 139q-3 6 -6 -1l-62 -138
q-4 -9 -14 -9h-100q-7 0 -9.5 3.5z" />
    <glyph glyph-name="y" unicode="y" horiz-adv-x="403" 
d="M34 -187v72q0 12 5 12h5q33 0 52 8t30.5 29.5t16.5 62.5l-1 6l-126 495v4q0 9 11 9h98q12 0 13 -11l61 -330q1 -3 3 -3t3 3l59 330q1 11 13 11l99 -1q14 0 11 -13l-134 -525q-19 -71 -40 -106t-59 -50t-108 -15h-6q-6 0 -6 12z" />
    <glyph glyph-name="z" unicode="z" horiz-adv-x="368" 
d="M27.5 3.5q-3.5 3.5 -3.5 8.5v85q0 8 4 15l172 288q3 6 -3 6h-157q-5 0 -8.5 3.5t-3.5 8.5v81q0 5 3.5 8.5t8.5 3.5h289q5 0 8.5 -3.5t3.5 -8.5v-85q0 -8 -4 -15l-177 -288q-3 -6 3 -6h171q5 0 8.5 -3.5t3.5 -8.5v-81q0 -5 -3.5 -8.5t-8.5 -3.5h-298q-5 0 -8.5 3.5z" />
    <glyph glyph-name="braceleft" unicode="{" horiz-adv-x="319" 
d="M122.5 -107.5q-29.5 30.5 -29.5 89.5v211q0 81 -55 90q-11 2 -11 12v69q0 11 11 13q55 9 55 88v206q0 59 29.5 89.5t85.5 30.5h71q5 0 8.5 -3.5t3.5 -8.5v-76q0 -5 -3.5 -8.5t-8.5 -3.5h-20q-23 0 -36.5 -18t-13.5 -49v-173q0 -91 -53 -118q-4 -3 0 -6q53 -29 53 -120
v-177q0 -32 13.5 -49.5t36.5 -17.5h20q5 0 8.5 -3.5t3.5 -8.5v-77q0 -5 -3.5 -8.5t-8.5 -3.5h-71q-56 0 -85.5 30.5z" />
    <glyph glyph-name="bar" unicode="|" horiz-adv-x="171" 
d="M30.5 -76.5q-3.5 3.5 -3.5 8.5v816q0 5 3.5 8.5t8.5 3.5h92q5 0 8.5 -3.5t3.5 -8.5v-816q0 -5 -3.5 -8.5t-8.5 -3.5h-92q-5 0 -8.5 3.5z" />
    <glyph glyph-name="braceright" unicode="}" horiz-adv-x="319" 
d="M40 -138q-5 0 -8.5 3.5t-3.5 8.5v77q0 5 3.5 8.5t8.5 3.5h20q23 0 36.5 17.5t13.5 49.5v177q0 91 53 120q4 3 0 6q-53 27 -53 118v173q0 31 -13.5 49t-36.5 18h-20q-5 0 -8.5 3.5t-3.5 8.5v76q0 5 3.5 8.5t8.5 3.5h71q56 0 85.5 -30.5t29.5 -89.5v-206q0 -79 55 -88
q11 -2 11 -13v-69q0 -10 -11 -12q-55 -9 -55 -90v-211q0 -59 -29.5 -89.5t-85.5 -30.5h-71z" />
    <glyph glyph-name="asciitilde" unicode="~" horiz-adv-x="480" 
d="M282.5 220q-18.5 7 -44.5 22q-25 15 -39 22t-31 7q-39 0 -67 -38q-7 -10 -16 -4l-49 30q-9 6 -6 16q16 43 51 70t77 27q22 0 40 -7t39 -19q27 -17 44 -24.5t37 -7.5q18 0 31 9.5t25 26.5q7 10 17 4l52 -33q10 -7 5 -16q-23 -41 -54 -66.5t-69 -25.5q-24 0 -42.5 7z" />
    <glyph glyph-name="uni00A0" unicode="&#xa0;" horiz-adv-x="200" 
 />
    <glyph glyph-name="exclamdown" unicode="&#xa1;" horiz-adv-x="273" 
d="M188 685.5q21 -22.5 21 -54.5t-22.5 -54.5t-51.5 -22.5t-51.5 22.5t-22.5 54.5t21 54.5t53 22.5t53 -22.5zM93.5 470.5q3.5 3.5 8.5 3.5h69q5 0 8.5 -3.5t3.5 -8.5l12 -440q0 -5 -3.5 -8.5t-8.5 -3.5h-92q-5 0 -8.5 3.5t-3.5 8.5l11 440q0 5 3.5 8.5z" />
    <glyph glyph-name="cent" unicode="&#xa2;" horiz-adv-x="422" 
d="M389.5 432.5q-3.5 -3.5 -8.5 -3.5l-92 -4q-12 0 -12 11v11q0 25 -17.5 43.5t-44.5 18.5t-44 -20t-17 -51v-185q0 -31 17 -51t44 -20t44.5 18.5t17.5 44.5v10q0 5 3.5 8.5t8.5 3.5l92 -1q5 0 8.5 -3.5t3.5 -8.5v-18q0 -58 -33.5 -97.5t-93.5 -51.5q-5 -2 -5 -6l3 -68
q0 -5 -3.5 -8.5t-8.5 -3.5h-74q-5 0 -8.5 3.5t-3.5 8.5l3 68q0 4 -5 6q-59 12 -92.5 54t-33.5 104v202q0 60 33.5 102t92.5 55q5 2 5 6l-3 68q0 5 3.5 8.5t8.5 3.5h74q5 0 8.5 -3.5t3.5 -8.5l-3 -68q0 -4 5 -6q59 -13 93 -53t34 -96v-14q0 -5 -3.5 -8.5z" />
    <glyph glyph-name="sterling" unicode="&#xa3;" horiz-adv-x="512" 
d="M212 102q1 -2 4 -2h259q5 0 8.5 -3.5t3.5 -8.5v-76q0 -5 -3.5 -8.5t-8.5 -3.5h-378q-5 0 -8.5 3.5t-3.5 8.5v79q0 8 7 15q32 32 32 103v81q0 5 -5 5h-53q-5 0 -8.5 3.5t-3.5 8.5v70q0 5 3.5 8.5t8.5 3.5h53q5 0 5 5v104q0 99 48.5 154.5t131.5 55.5q69 0 113.5 -39.5
t60.5 -114.5l1 -4q0 -8 -10 -10l-89 -11h-2q-10 0 -12 11q-14 68 -63 68q-64 0 -64 -105v-109q0 -5 5 -5h134q5 0 8.5 -3.5t3.5 -8.5v-70q0 -5 -3.5 -8.5t-8.5 -3.5h-134q-5 0 -5 -5v-80q0 -33 -7.5 -60t-18.5 -44q-2 -2 -1 -4z" />
    <glyph glyph-name="currency" unicode="&#xa4;" horiz-adv-x="547" 
d="M454 196q-1 -4 1 -7l64 -64q4 -4 4 -9q0 -4 -4 -8l-57 -50q-4 -4 -9 -4q-4 0 -8 4l-62 61q-2 3 -7 1q-47 -29 -106 -29q-56 0 -102 26q-4 2 -7 -1l-59 -58q-4 -4 -8 -4q-5 0 -9 4l-57 50q-4 4 -4 8q0 5 4 9l60 59q3 3 1 7q-33 50 -33 111q0 58 30 107q2 5 -1 7l-63 64
q-4 4 -4 9q0 4 4 8l56 49q4 4 9 4q4 0 8 -4l60 -60q3 -2 7 -1q49 29 108 29q62 0 111 -32q5 -1 7 1l63 63q4 4 9 4t8 -4l57 -49q4 -3 4 -8t-4 -9l-68 -68q-2 -2 -1 -7q27 -48 27 -103q0 -59 -29 -106zM190.5 222.5q33.5 -33.5 79.5 -33.5q47 0 80 33t33 80t-33.5 80.5
t-79.5 33.5q-47 0 -80 -33.5t-33 -80.5q0 -46 33.5 -79.5z" />
    <glyph glyph-name="yen" unicode="&#xa5;" horiz-adv-x="528" 
d="M459 696.5q3 -3.5 1 -10.5l-121 -343q-1 -6 4 -6h104q5 0 8.5 -3.5t3.5 -8.5v-42q0 -5 -3.5 -8.5t-8.5 -3.5h-122q-5 0 -5 -5v-47q0 -5 5 -5h122q5 0 8.5 -3.5t3.5 -8.5v-42q0 -5 -3.5 -8.5t-8.5 -3.5h-122q-5 0 -5 -5v-130q0 -5 -3.5 -8.5t-8.5 -3.5h-92q-5 0 -8.5 3.5
t-3.5 8.5v130q0 5 -5 5h-121q-5 0 -8.5 3.5t-3.5 8.5v42q0 5 3.5 8.5t8.5 3.5h121q5 0 5 5v47q0 5 -5 5h-121q-5 0 -8.5 3.5t-3.5 8.5v42q0 5 3.5 8.5t8.5 3.5h103q6 0 4 6l-121 343q-1 2 -1 5q0 9 11 9h96q11 0 14 -10l75 -257q1 -3 3 -3t3 3l75 257q3 10 14 10h96
q6 0 9 -3.5z" />
    <glyph glyph-name="brokenbar" unicode="&#xa6;" horiz-adv-x="171" 
d="M30.5 388.5q-3.5 3.5 -3.5 8.5v351q0 5 3.5 8.5t8.5 3.5h92q5 0 8.5 -3.5t3.5 -8.5v-351q0 -5 -3.5 -8.5t-8.5 -3.5h-92q-5 0 -8.5 3.5zM30.5 -76.5q-3.5 3.5 -3.5 8.5v347q0 5 3.5 8.5t8.5 3.5h92q5 0 8.5 -3.5t3.5 -8.5v-347q0 -5 -3.5 -8.5t-8.5 -3.5h-92
q-5 0 -8.5 3.5z" />
    <glyph glyph-name="section" unicode="&#xa7;" horiz-adv-x="425" 
d="M90.5 -159.5q-47.5 44.5 -47.5 117.5v15q0 5 3.5 8.5t8.5 3.5h92q5 0 8.5 -3t3.5 -7v-9q1 -31 16.5 -50.5t40.5 -19.5q26 0 42 19.5t16 48.5q0 36 -28 58t-81 49q-44 23 -70 45t-40 55q-14 32 -14 76q0 52 26 92q23 34 55 50q6 4 1 7q-83 61 -83 149q0 47 22 84t61.5 58
t91.5 21q77 0 124.5 -46.5t48.5 -121.5v-11q0 -5 -3.5 -8.5t-8.5 -3.5h-93q-5 0 -8.5 2.5t-3.5 6.5v9q0 32 -16 52.5t-41 20.5q-26 0 -41.5 -20.5t-15.5 -50.5q0 -36 22 -58t71 -46q47 -24 73 -40.5t44 -41.5q27 -37 27 -91q0 -51 -20 -88q-22 -46 -63 -63q-2 -1 -2 -3t2 -4
q38 -26 58.5 -60t20.5 -83q0 -73 -48.5 -118t-125.5 -45q-78 0 -125.5 44.5zM269 203q10 22 10 49q0 31 -16 54q-19 24 -47 24q-17 0 -29.5 -9.5t-19.5 -22.5q-10 -20 -10 -48q0 -27 11 -48q15 -31 50 -31t51 32z" />
    <glyph glyph-name="dieresis" unicode="&#xa8;" horiz-adv-x="309" 
d="M34.5 594.5q-17.5 17.5 -17.5 45.5q0 27 17.5 44.5t43.5 17.5t42.5 -17.5t16.5 -44.5q0 -28 -16.5 -45.5t-42.5 -17.5t-43.5 17.5zM189 594.5q-17 17.5 -17 45.5q0 27 17 44.5t44 17.5q26 0 42.5 -17.5t16.5 -44.5q0 -28 -16.5 -45.5t-42.5 -17.5q-27 0 -44 17.5z" />
    <glyph glyph-name="copyright" unicode="&#xa9;" horiz-adv-x="807" 
d="M218.5 39q-82.5 47 -129.5 129.5t-47 183.5q0 100 47 181.5t129.5 128t184.5 46.5t184.5 -46.5t130 -128t47.5 -181.5q0 -101 -47.5 -183.5t-130 -129.5t-184.5 -47t-184.5 47zM553 96.5q67 38.5 105.5 106t38.5 149.5q0 81 -38.5 147.5t-105.5 104.5t-150 38t-150 -38
t-105.5 -104.5t-38.5 -147.5q0 -82 38 -149.5t105.5 -106t150.5 -38.5t150 38.5zM335.5 205q-25.5 25 -25.5 66v155q0 41 25.5 65.5t68.5 24.5t69.5 -24.5t26.5 -65.5v-1q0 -5 -3.5 -9t-8.5 -4l-38 -2q-12 0 -12 11v10q0 13 -9.5 22t-24.5 9q-14 0 -23 -9t-9 -22v-165
q0 -14 9 -22.5t23 -8.5q16 0 25 8.5t9 22.5v8q0 5 3.5 8.5t8.5 3.5l38 -2q12 0 12 -6v-7q0 -41 -26.5 -66t-69.5 -25t-68.5 25z" />
    <glyph glyph-name="ordfeminine" unicode="&#xaa;" horiz-adv-x="284" 
d="M175 565q5 0 5 5v21q0 24 -10.5 37.5t-30.5 13.5q-13 0 -23.5 -7.5t-14.5 -19.5q-3 -10 -13 -10l-54 2q-5 0 -8.5 3.5t-2.5 9.5q5 40 36.5 64t77.5 24q55 0 87 -29.5t32 -79.5v-221q0 -5 -3.5 -8.5t-8.5 -3.5h-52q-12 0 -12 11v2q0 3 -2 4t-4 -2q-21 -20 -58 -20
q-40 0 -70.5 22t-30.5 79t33.5 80t93.5 23h33zM165.5 434.5q14.5 11.5 14.5 33.5v31q0 5 -5 5h-32q-23 0 -37 -11t-14 -32q0 -38 39 -38q20 0 34.5 11.5zM17.5 314.5q3.5 3.5 8.5 3.5h227q5 0 8.5 -3.5t3.5 -8.5v-39q0 -5 -3.5 -8.5t-8.5 -3.5h-227q-5 0 -8.5 3.5t-3.5 8.5
v39q0 5 3.5 8.5z" />
    <glyph glyph-name="guillemotleft" unicode="&#xab;" horiz-adv-x="463" 
d="M246 115q0 -8 -11 -8h-79q-10 0 -15 8l-87 158q-2 6 -2 8q0 4 2 8l87 158q5 8 15 8h79q7 0 10 -4t-1 -10l-89 -157q-1 -3 0 -6l89 -157zM403 115q0 -8 -11 -8h-79q-10 0 -15 8l-87 158q-2 6 -2 8q0 4 2 8l87 158q5 8 15 8h79q7 0 10 -4t-1 -10l-89 -157q-1 -3 0 -6
l89 -157z" />
    <glyph glyph-name="logicalnot" unicode="&#xac;" 
d="M409.5 352.5q3.5 -3.5 3.5 -8.5v-69v-7h-1v-88q0 -5 -3.5 -8.5t-8.5 -3.5h-65q-5 0 -8.5 3.5t-3.5 8.5v83q0 5 -5 5h-279q-5 0 -8.5 3.5t-3.5 8.5v64q0 5 3.5 8.5t8.5 3.5h362q5 0 8.5 -3.5z" />
    <glyph glyph-name="uni00AD" unicode="&#xad;" horiz-adv-x="325" 
d="M30.5 254.5q-3.5 3.5 -3.5 8.5v76q0 5 3.5 8.5t8.5 3.5h247q5 0 8.5 -3.5t3.5 -8.5v-76q0 -5 -3.5 -8.5t-8.5 -3.5h-247q-5 0 -8.5 3.5z" />
    <glyph glyph-name="registered" unicode="&#xae;" horiz-adv-x="435" 
d="M320 685q46 -26 72.5 -70.5t26.5 -99.5q0 -57 -26.5 -103t-72.5 -72.5t-102 -26.5t-102 26.5t-72.5 72.5t-26.5 103q0 55 26.5 99.5t72.5 70.5t102 26t102 -26zM295 381q35 20 55 55.5t20 78.5q0 41 -20 75.5t-55 54t-77 19.5t-77 -19.5t-55 -54t-20 -75.5
q0 -43 20 -78.5t55 -55.5t77 -20t77 20zM261 501q-3 -2 -2 -6l23 -59q1 -2 1 -5q0 -9 -11 -9h-19q-10 0 -13 10l-22 58q-2 4 -5 4h-6q-5 0 -5 -5v-55q0 -5 -3.5 -8.5t-8.5 -3.5h-17q-5 0 -8.5 3.5t-3.5 8.5v159q0 5 3.5 8.5t8.5 3.5h56q26 0 41.5 -16t15.5 -41
q0 -33 -25 -47zM202 565v-35q0 -5 5 -5h16q10 0 16 6.5t6 15.5q0 10 -6 16.5t-16 6.5h-16q-5 0 -5 -5z" />
    <glyph glyph-name="macron" unicode="&#xaf;" horiz-adv-x="391" 
d="M91.5 589.5q-3.5 3.5 -3.5 8.5v56q0 5 3.5 8.5t8.5 3.5h190q5 0 8.5 -3.5t3.5 -8.5v-56q0 -5 -3.5 -8.5t-8.5 -3.5h-190q-5 0 -8.5 3.5z" />
    <glyph glyph-name="degree" unicode="&#xb0;" horiz-adv-x="359" 
d="M97 500q-37 22 -58.5 60t-21.5 84q0 45 21.5 82.5t58.5 59.5t82 22t82.5 -22t59 -59.5t21.5 -82.5q0 -46 -21.5 -84t-59 -60t-82.5 -22t-82 22zM239.5 581.5q24.5 25.5 24.5 62.5t-24.5 62.5t-60.5 25.5q-35 0 -60 -25.5t-25 -62.5t25 -62.5t60 -25.5q36 0 60.5 25.5z
" />
    <glyph glyph-name="plusminus" unicode="&#xb1;" 
d="M409.5 415.5q3.5 -3.5 3.5 -8.5v-64q0 -5 -3.5 -8.5t-8.5 -3.5h-132q-5 0 -5 -5v-132q0 -5 -3.5 -8.5t-8.5 -3.5h-64q-5 0 -8.5 3.5t-3.5 8.5v132q0 5 -5 5h-132q-5 0 -8.5 3.5t-3.5 8.5v64q0 5 3.5 8.5t8.5 3.5h132q5 0 5 5v132q0 5 3.5 8.5t8.5 3.5h64q5 0 8.5 -3.5
t3.5 -8.5v-132q0 -5 5 -5h132q5 0 8.5 -3.5zM30.5 21.5q-3.5 3.5 -3.5 8.5v64q0 5 3.5 8.5t8.5 3.5h362q5 0 8.5 -3.5t3.5 -8.5v-64q0 -5 -3.5 -8.5t-8.5 -3.5h-362q-5 0 -8.5 3.5z" />
    <glyph glyph-name="uni00B2" unicode="&#xb2;" horiz-adv-x="258" 
d="M20.5 428.5q-3.5 3.5 -3.5 8.5v46q0 9 5 15l27 35q8 11 35 47t45 65q33 55 33 91q0 23 -10 35.5t-25 12.5t-24.5 -12.5t-9.5 -32.5v-19q0 -5 -3.5 -8.5t-8.5 -3.5h-53q-5 0 -8.5 3.5t-3.5 8.5v22q2 51 32.5 79.5t80.5 28.5t80 -29.5t30 -88.5q0 -30 -8 -56t-24 -55
q-14 -23 -67 -103l-15 -21q-2 -2 -1 -4t4 -2h107q5 0 8.5 -3.5t3.5 -8.5v-42q0 -5 -3.5 -8.5t-8.5 -3.5h-206q-5 0 -8.5 3.5z" />
    <glyph glyph-name="uni00B3" unicode="&#xb3;" horiz-adv-x="275" 
d="M250 557q0 -28 -5 -51q-5 -40 -33 -63t-72 -23q-48 0 -78.5 27t-33.5 71q-1 9 -1 27q0 12 12 12h52q12 0 12 -12q0 -10 1 -15q2 -21 11.5 -32.5t24.5 -11.5q26 0 34 33q5 25 5 46q0 22 -3 41q-8 37 -36 37q-8 0 -13 -4q-5 -3 -9 -3t-8 4l-25 27q-4 4 -4 9t3 8l72 89
q2 2 1 4t-4 2h-108q-5 0 -8.5 3.5t-3.5 8.5v42q0 5 3.5 8.5t8.5 3.5h190q5 0 8.5 -3.5t3.5 -8.5v-46q0 -8 -5 -15l-58 -76q-3 -5 1 -6q25 -7 41.5 -32t20.5 -57q3 -21 3 -44z" />
    <glyph glyph-name="acute" unicode="&#xb4;" horiz-adv-x="217" 
d="M24 579q-3 4 1 10l59 103q4 8 15 8h84q8 0 10 -4.5t-2 -10.5l-74 -103q-5 -7 -14 -7h-69q-7 0 -10 4z" />
    <glyph glyph-name="uni00B5" unicode="&#xb5;" horiz-adv-x="443" 
d="M284.5 507.5q3.5 3.5 8.5 3.5h92q5 0 8.5 -3.5t3.5 -8.5v-487q0 -5 -3.5 -8.5t-8.5 -3.5h-92q-5 0 -8.5 3.5t-3.5 8.5v22q0 3 -2 4t-4 -2q-29 -43 -93 -43h-15q-5 2 -5 -4v-177q0 -5 -3.5 -8.5t-8.5 -3.5h-92q-5 0 -8.5 3.5t-3.5 8.5v687q0 5 3.5 8.5t8.5 3.5h92
q5 0 8.5 -3.5t3.5 -8.5v-332q0 -75 58 -75q29 0 45 21.5t16 58.5v327q0 5 3.5 8.5z" />
    <glyph glyph-name="paragraph" unicode="&#xb6;" horiz-adv-x="498" 
d="M432 700q5 0 8.5 -3.5t3.5 -8.5v-876q0 -5 -3.5 -8.5t-8.5 -3.5h-73q-5 0 -8.5 3.5t-3.5 8.5v788q0 5 -5 5h-57q-5 0 -5 -5v-788q0 -5 -3.5 -8.5t-8.5 -3.5h-74q-5 0 -8.5 3.5t-3.5 8.5v435q0 4 -5 6q-70 13 -111 73t-41 149q0 64 23 115.5t65.5 80.5t98.5 29h220z" />
    <glyph glyph-name="periodcentered" unicode="&#xb7;" horiz-adv-x="148" 
d="M21 21q-21 22 -21 55q0 31 23 53.5t51 22.5q29 0 52 -22.5t23 -53.5q0 -32 -21.5 -54.5t-53.5 -22.5t-53 22z" />
    <glyph glyph-name="cedilla" unicode="&#xb8;" horiz-adv-x="140" 
d="M6 -169l5 36q1 11 14 9q14 -2 24.5 5t14.5 23q6 38 -37 81q-5 5 -5 9q0 2 3 4t7 2h48q9 0 15 -6q46 -45 46 -97q0 -47 -24.5 -66.5t-60.5 -19.5q-20 0 -42 6q-9 3 -8 14z" />
    <glyph glyph-name="uni00B9" unicode="&#xb9;" horiz-adv-x="153" 
d="M61 845h57q5 0 8.5 -3.5t3.5 -8.5v-396q0 -5 -3.5 -8.5t-8.5 -3.5h-53q-5 0 -8.5 3.5t-3.5 8.5v334q0 2 -1.5 4t-3.5 1l-15 -3l-4 -1q-9 0 -9 11v33q0 10 8 15l18 10q7 4 15 4z" />
    <glyph glyph-name="ordmasculine" unicode="&#xba;" horiz-adv-x="290" 
d="M57 389q-32 29 -32 79v133q0 48 32 77.5t87 29.5t86.5 -29.5t31.5 -77.5v-133q0 -50 -31.5 -79t-86.5 -29t-87 29zM174 439.5q12 13.5 12 33.5v121q0 21 -12 34.5t-30 13.5t-30 -13.5t-12 -34.5v-121q0 -20 12 -33.5t30 -13.5t30 13.5zM23.5 258.5q-3.5 3.5 -3.5 8.5v39
q0 5 3.5 8.5t8.5 3.5h227q5 0 8.5 -3.5t3.5 -8.5v-39q0 -5 -3.5 -8.5t-8.5 -3.5h-227q-5 0 -8.5 3.5z" />
    <glyph glyph-name="guillemotright" unicode="&#xbb;" horiz-adv-x="463" 
d="M61 111q-3 4 1 10l89 157q2 3 0 6l-89 157l-2 6q0 8 11 8h79q10 0 15 -8l87 -158q2 -2 2 -8q0 -5 -2 -8l-87 -158q-5 -8 -15 -8h-79q-7 0 -10 4zM218 111q-3 4 1 10l89 157q2 3 0 6l-89 157l-2 6q0 8 11 8h79q10 0 15 -8l87 -158q2 -2 2 -8q0 -5 -2 -8l-87 -158
q-5 -8 -15 -8h-79q-7 0 -10 4z" />
    <glyph glyph-name="onequarter" unicode="&#xbc;" horiz-adv-x="697" 
d="M61 700h57q5 0 8.5 -3.5t3.5 -8.5v-396q0 -5 -3.5 -8.5t-8.5 -3.5h-53q-5 0 -8.5 3.5t-3.5 8.5v334q0 2 -1.5 4t-3.5 1l-15 -3l-4 -1q-9 0 -9 11v33q0 10 8 15l18 10q7 4 15 4zM64.5 3.5q-2.5 3.5 1.5 10.5l414 678q4 8 14 8h59q7 0 9.5 -3.5t-1.5 -10.5l-415 -678
q-4 -8 -14 -8h-58q-7 0 -9.5 3.5zM684.5 173.5q3.5 -3.5 3.5 -8.5v-45q0 -5 -3.5 -8.5t-8.5 -3.5h-12q-5 0 -5 -5v-91q0 -5 -3.5 -8.5t-8.5 -3.5h-52q-5 0 -8.5 3.5t-3.5 8.5v91q0 5 -5 5h-138q-5 0 -8.5 3.5t-3.5 8.5v36q0 9 2 15l80 239q3 10 13 10h57q6 0 9 -3.5t1 -10.5
l-71 -223q-1 -6 4 -6h55q5 0 5 5v61q0 5 3.5 8.5t8.5 3.5h52q5 0 8.5 -3.5t3.5 -8.5v-61q0 -5 5 -5h12q5 0 8.5 -3.5z" />
    <glyph glyph-name="onehalf" unicode="&#xbd;" horiz-adv-x="681" 
d="M61 700h57q5 0 8.5 -3.5t3.5 -8.5v-396q0 -5 -3.5 -8.5t-8.5 -3.5h-53q-5 0 -8.5 3.5t-3.5 8.5v334q0 2 -1.5 4t-3.5 1l-15 -3l-4 -1q-9 0 -9 11v33q0 10 8 15l18 10q7 4 15 4zM64.5 3.5q-2.5 3.5 1.5 10.5l414 678q4 8 14 8h59q7 0 9.5 -3.5t-1.5 -10.5l-415 -678
q-4 -8 -14 -8h-58q-7 0 -9.5 3.5zM443.5 3.5q-3.5 3.5 -3.5 8.5v46q0 9 5 15l27 35q8 11 35 47t45 65q33 55 33 91q0 23 -10 35.5t-25 12.5t-24.5 -12.5t-9.5 -32.5v-19q0 -5 -3.5 -8.5t-8.5 -3.5h-53q-5 0 -8.5 3.5t-3.5 8.5v22q2 51 32.5 79.5t80.5 28.5t80 -29.5
t30 -88.5q0 -30 -8 -56t-24 -55q-14 -23 -67 -103l-15 -21q-2 -2 -1 -4t4 -2h107q5 0 8.5 -3.5t3.5 -8.5v-42q0 -5 -3.5 -8.5t-8.5 -3.5h-206q-5 0 -8.5 3.5z" />
    <glyph glyph-name="threequarters" unicode="&#xbe;" horiz-adv-x="771" 
d="M250 411q0 -28 -5 -51q-5 -40 -33 -63t-72 -23q-48 0 -78.5 27t-33.5 71q-1 9 -1 27q0 12 12 12h52q12 0 12 -12q0 -10 1 -15q2 -21 11.5 -32.5t24.5 -11.5q26 0 34 33q5 25 5 46q0 22 -3 41q-8 37 -36 37q-8 0 -13 -4q-5 -3 -9 -3t-8 4l-25 27q-4 4 -4 9t3 8l72 89
q2 2 1 4t-4 2h-108q-5 0 -8.5 3.5t-3.5 8.5v42q0 5 3.5 8.5t8.5 3.5h190q5 0 8.5 -3.5t3.5 -8.5v-46q0 -8 -5 -15l-58 -76q-3 -5 1 -6q25 -7 41.5 -32t20.5 -57q3 -21 3 -44zM138.5 3.5q-2.5 3.5 1.5 10.5l414 678q4 8 14 8h59q7 0 9.5 -3.5t-1.5 -10.5l-415 -678
q-4 -8 -14 -8h-58q-7 0 -9.5 3.5zM758.5 173.5q3.5 -3.5 3.5 -8.5v-45q0 -5 -3.5 -8.5t-8.5 -3.5h-12q-5 0 -5 -5v-91q0 -5 -3.5 -8.5t-8.5 -3.5h-52q-5 0 -8.5 3.5t-3.5 8.5v91q0 5 -5 5h-138q-5 0 -8.5 3.5t-3.5 8.5v36q0 9 2 15l80 239q3 10 13 10h57q6 0 9 -3.5t1 -10.5
l-71 -223q-1 -6 4 -6h55q5 0 5 5v61q0 5 3.5 8.5t8.5 3.5h52q5 0 8.5 -3.5t3.5 -8.5v-61q0 -5 5 -5h12q5 0 8.5 -3.5z" />
    <glyph glyph-name="questiondown" unicode="&#xbf;" horiz-adv-x="413" 
d="M263 480q20 -21 20 -51t-20 -51t-48 -21t-48.5 21t-20.5 51t20 51t49 21q28 0 48 -21zM274.5 282.5q3.5 -3.5 3.5 -8.5v-41q0 -48 -19 -77t-56 -63q-32 -29 -48 -52.5t-16 -58.5q0 -39 18 -62.5t48 -23.5q33 0 52 24.5t19 64.5v21q0 11 12 11l92 -4q5 0 8.5 -4t3.5 -9
v-15q0 -57 -24 -101.5t-67 -69t-99 -24.5q-82 0 -131 51.5t-49 136.5q0 45 12 76.5t29 51.5t44 45q28 25 41.5 43.5t13.5 45.5v34q0 5 3.5 8.5t8.5 3.5h92q5 0 8.5 -3.5z" />
    <glyph glyph-name="Agrave" unicode="&#xc0;" horiz-adv-x="484" 
d="M339 11l-19 105q0 5 -6 5h-145q-6 0 -6 -4l-20 -106q-1 -11 -13 -11h-92q-13 0 -10 13l147 676q2 11 13 11h107q11 0 13 -11l148 -676v-4q0 -9 -11 -9h-93q-12 0 -13 11zM188 212h109q6 0 5 5l-55 302q-1 3 -3 3t-3 -3l-58 -302q-1 -5 5 -5zM285 772q0 -8 -11 -8h-69
q-9 0 -14 7l-74 103q-3 5 -3 7q0 8 11 8h84q11 0 15 -8l59 -103z" />
    <glyph glyph-name="Aacute" unicode="&#xc1;" horiz-adv-x="484" 
d="M339 11l-19 105q0 5 -6 5h-145q-6 0 -6 -4l-20 -106q-1 -11 -13 -11h-92q-13 0 -10 13l147 676q2 11 13 11h107q11 0 13 -11l148 -676v-4q0 -9 -11 -9h-93q-12 0 -13 11zM188 212h109q6 0 5 5l-55 302q-1 3 -3 3t-3 -3l-58 -302q-1 -5 5 -5zM180 768q-3 4 1 10l59 103
q4 8 15 8h84q8 0 10 -4.5t-2 -10.5l-74 -103q-5 -7 -14 -7h-69q-7 0 -10 4z" />
    <glyph glyph-name="Acircumflex" unicode="&#xc2;" horiz-adv-x="484" 
d="M339 11l-19 105q0 5 -6 5h-145q-6 0 -6 -4l-20 -106q-1 -11 -13 -11h-92q-13 0 -10 13l147 676q2 11 13 11h107q11 0 13 -11l148 -676v-4q0 -9 -11 -9h-93q-12 0 -13 11zM188 212h109q6 0 5 5l-55 302q-1 3 -3 3t-3 -3l-58 -302q-1 -5 5 -5zM109.5 763.5
q-2.5 3.5 1.5 10.5l65 102q5 8 14 8h98q9 0 14 -8l67 -101q2 -3 2 -7q0 -8 -9 -8h-69q-10 0 -15 8l-34 62q-3 5 -6 0l-35 -62q-5 -8 -15 -8h-69q-7 0 -9.5 3.5z" />
    <glyph glyph-name="Atilde" unicode="&#xc3;" horiz-adv-x="484" 
d="M339 11l-19 105q0 5 -6 5h-145q-6 0 -6 -4l-20 -106q-1 -11 -13 -11h-92q-13 0 -10 13l147 676q2 11 13 11h107q11 0 13 -11l148 -676v-4q0 -9 -11 -9h-93q-12 0 -13 11zM188 212h109q6 0 5 5l-55 302q-1 3 -3 3t-3 -3l-58 -302q-1 -5 5 -5zM282 778.5q-12 4.5 -29 14.5
q-5 3 -13.5 8.5t-15 8t-14.5 2.5q-24 0 -38 -23q-7 -10 -17 -4l-32 24q-9 7 -5 16q14 32 35.5 47t47.5 15q16 0 30.5 -5.5t31.5 -16.5q3 -2 11 -8t16 -9t16 -3q24 0 38 23q6 11 16 4l32 -21q5 -3 5 -10q0 -6 -4 -14q-17 -28 -40 -40.5t-46 -12.5q-13 0 -25 4.5z" />
    <glyph glyph-name="Adieresis" unicode="&#xc4;" horiz-adv-x="484" 
d="M339 11l-19 105q0 5 -6 5h-145q-6 0 -6 -4l-20 -106q-1 -11 -13 -11h-92q-13 0 -10 13l147 676q2 11 13 11h107q11 0 13 -11l148 -676v-4q0 -9 -11 -9h-93q-12 0 -13 11zM188 212h109q6 0 5 5l-55 302q-1 3 -3 3t-3 -3l-58 -302q-1 -5 5 -5zM122.5 783.5
q-17.5 17.5 -17.5 45.5q0 27 17.5 44.5t43.5 17.5t42.5 -17.5t16.5 -44.5q0 -28 -16.5 -45.5t-42.5 -17.5t-43.5 17.5zM277 783.5q-17 17.5 -17 45.5q0 27 17 44.5t44 17.5q26 0 42.5 -17.5t16.5 -44.5q0 -28 -16.5 -45.5t-42.5 -17.5q-27 0 -44 17.5z" />
    <glyph glyph-name="Aring" unicode="&#xc5;" horiz-adv-x="484" 
d="M339 11l-19 105q0 5 -6 5h-145q-6 0 -6 -4l-20 -106q-1 -11 -13 -11h-92q-13 0 -10 13l147 676q2 11 13 11h107q11 0 13 -11l148 -676v-4q0 -9 -11 -9h-93q-12 0 -13 11zM188 212h109q6 0 5 5l-55 302q-1 3 -3 3t-3 -3l-58 -302q-1 -5 5 -5zM166 785.5q-31 31.5 -31 77.5
q0 45 31 76t76 31t76 -31t31 -76q0 -46 -31 -77.5t-76 -31.5t-76 31.5zM279 824.5q15 15.5 15 38.5t-15 38.5t-37 15.5t-37 -15.5t-15 -38.5t15 -38.5t37 -15.5t37 15.5z" />
    <glyph glyph-name="AE" unicode="&#xc6;" horiz-adv-x="749" 
d="M713.5 603.5q-3.5 -3.5 -8.5 -3.5h-216q-5 0 -5 -5v-189q0 -5 5 -5h128q5 0 8.5 -3.5t3.5 -8.5v-77q0 -5 -3.5 -8.5t-8.5 -3.5h-128q-5 0 -5 -5v-190q0 -5 5 -5h216q5 0 8.5 -3.5t3.5 -8.5v-76q0 -5 -3.5 -8.5t-8.5 -3.5h-325q-5 0 -8.5 3.5t-3.5 8.5v104q0 5 -5 5h-163
q-4 0 -6 -4l-43 -108q-3 -9 -14 -9h-97q-7 0 -9 4t0 10l286 677q4 9 14 9h374q5 0 8.5 -3.5t3.5 -8.5v-76q0 -5 -3.5 -8.5zM234.5 214q1.5 -2 3.5 -2h125q5 0 5 5v319q0 4 -2 4t-4 -3l-128 -319q-1 -2 0.5 -4z" />
    <glyph glyph-name="Ccedilla" unicode="&#xc7;" horiz-adv-x="457" 
d="M416.5 500q-3.5 -4 -8.5 -4l-93 -4q-12 0 -12 12v25q0 35 -20 57t-53 22q-32 0 -52 -22t-20 -57v-358q0 -35 20 -57t52 -22q33 0 53 22t20 57v25q0 5 3.5 8.5t8.5 3.5l93 -4q5 0 8.5 -3.5t3.5 -8.5v-12q0 -73 -39 -122t-106 -62q-6 -2 -2 -6q38 -44 38 -89
q0 -47 -24.5 -66.5t-60.5 -19.5q-20 0 -42 6q-9 3 -8 14l5 36q1 11 14 9q14 -2 24.5 5t14.5 23q1 3 1 10q0 35 -42 75l-5 3q-67 12 -106.5 61t-39.5 123v341q0 86 51.5 136.5t136.5 50.5q86 0 138 -50.5t52 -136.5v-12q0 -5 -3.5 -9z" />
    <glyph glyph-name="Egrave" unicode="&#xc8;" horiz-adv-x="435" 
d="M399.5 603.5q-3.5 -3.5 -8.5 -3.5h-216q-5 0 -5 -5v-189q0 -5 5 -5h128q5 0 8.5 -3.5t3.5 -8.5v-77q0 -5 -3.5 -8.5t-8.5 -3.5h-128q-5 0 -5 -5v-190q0 -5 5 -5h216q5 0 8.5 -3.5t3.5 -8.5v-76q0 -5 -3.5 -8.5t-8.5 -3.5h-325q-5 0 -8.5 3.5t-3.5 8.5v676q0 5 3.5 8.5
t8.5 3.5h325q5 0 8.5 -3.5t3.5 -8.5v-76q0 -5 -3.5 -8.5zM272 784q0 -8 -11 -8h-69q-9 0 -14 7l-74 103q-3 5 -3 7q0 8 11 8h84q11 0 15 -8l59 -103z" />
    <glyph glyph-name="Eacute" unicode="&#xc9;" horiz-adv-x="435" 
d="M399.5 603.5q-3.5 -3.5 -8.5 -3.5h-216q-5 0 -5 -5v-189q0 -5 5 -5h128q5 0 8.5 -3.5t3.5 -8.5v-77q0 -5 -3.5 -8.5t-8.5 -3.5h-128q-5 0 -5 -5v-190q0 -5 5 -5h216q5 0 8.5 -3.5t3.5 -8.5v-76q0 -5 -3.5 -8.5t-8.5 -3.5h-325q-5 0 -8.5 3.5t-3.5 8.5v676q0 5 3.5 8.5
t8.5 3.5h325q5 0 8.5 -3.5t3.5 -8.5v-76q0 -5 -3.5 -8.5zM167 780q-3 4 1 10l59 103q4 8 15 8h84q8 0 10 -4.5t-2 -10.5l-74 -103q-5 -7 -14 -7h-69q-7 0 -10 4z" />
    <glyph glyph-name="Ecircumflex" unicode="&#xca;" horiz-adv-x="435" 
d="M399.5 603.5q-3.5 -3.5 -8.5 -3.5h-216q-5 0 -5 -5v-189q0 -5 5 -5h128q5 0 8.5 -3.5t3.5 -8.5v-77q0 -5 -3.5 -8.5t-8.5 -3.5h-128q-5 0 -5 -5v-190q0 -5 5 -5h216q5 0 8.5 -3.5t3.5 -8.5v-76q0 -5 -3.5 -8.5t-8.5 -3.5h-325q-5 0 -8.5 3.5t-3.5 8.5v676q0 5 3.5 8.5
t8.5 3.5h325q5 0 8.5 -3.5t3.5 -8.5v-76q0 -5 -3.5 -8.5zM96.5 775.5q-2.5 3.5 1.5 10.5l65 102q5 8 14 8h98q9 0 14 -8l67 -101q2 -3 2 -7q0 -8 -9 -8h-69q-10 0 -15 8l-34 62q-3 5 -6 0l-35 -62q-5 -8 -15 -8h-69q-7 0 -9.5 3.5z" />
    <glyph glyph-name="Edieresis" unicode="&#xcb;" horiz-adv-x="435" 
d="M399.5 603.5q-3.5 -3.5 -8.5 -3.5h-216q-5 0 -5 -5v-189q0 -5 5 -5h128q5 0 8.5 -3.5t3.5 -8.5v-77q0 -5 -3.5 -8.5t-8.5 -3.5h-128q-5 0 -5 -5v-190q0 -5 5 -5h216q5 0 8.5 -3.5t3.5 -8.5v-76q0 -5 -3.5 -8.5t-8.5 -3.5h-325q-5 0 -8.5 3.5t-3.5 8.5v676q0 5 3.5 8.5
t8.5 3.5h325q5 0 8.5 -3.5t3.5 -8.5v-76q0 -5 -3.5 -8.5zM109.5 795.5q-17.5 17.5 -17.5 45.5q0 27 17.5 44.5t43.5 17.5t42.5 -17.5t16.5 -44.5q0 -28 -16.5 -45.5t-42.5 -17.5t-43.5 17.5zM264 795.5q-17 17.5 -17 45.5q0 27 17 44.5t44 17.5q26 0 42.5 -17.5t16.5 -44.5
q0 -28 -16.5 -45.5t-42.5 -17.5q-27 0 -44 17.5z" />
    <glyph glyph-name="Igrave" unicode="&#xcc;" horiz-adv-x="224" 
d="M57.5 3.5q-3.5 3.5 -3.5 8.5v676q0 5 3.5 8.5t8.5 3.5h92q5 0 8.5 -3.5t3.5 -8.5v-676q0 -5 -3.5 -8.5t-8.5 -3.5h-92q-5 0 -8.5 3.5zM155 784q0 -8 -11 -8h-69q-9 0 -14 7l-74 103q-3 5 -3 7q0 8 11 8h84q11 0 15 -8l59 -103z" />
    <glyph glyph-name="Iacute" unicode="&#xcd;" horiz-adv-x="224" 
d="M57.5 3.5q-3.5 3.5 -3.5 8.5v676q0 5 3.5 8.5t8.5 3.5h92q5 0 8.5 -3.5t3.5 -8.5v-676q0 -5 -3.5 -8.5t-8.5 -3.5h-92q-5 0 -8.5 3.5zM50 780q-3 4 1 10l59 103q4 8 15 8h84q8 0 10 -4.5t-2 -10.5l-74 -103q-5 -7 -14 -7h-69q-7 0 -10 4z" />
    <glyph glyph-name="Icircumflex" unicode="&#xce;" horiz-adv-x="224" 
d="M57.5 3.5q-3.5 3.5 -3.5 8.5v676q0 5 3.5 8.5t8.5 3.5h92q5 0 8.5 -3.5t3.5 -8.5v-676q0 -5 -3.5 -8.5t-8.5 -3.5h-92q-5 0 -8.5 3.5zM-20.5 775.5q-2.5 3.5 1.5 10.5l65 102q5 8 14 8h98q9 0 14 -8l67 -101q2 -3 2 -7q0 -8 -9 -8h-69q-10 0 -15 8l-34 62q-3 5 -6 0
l-35 -62q-5 -8 -15 -8h-69q-7 0 -9.5 3.5z" />
    <glyph glyph-name="Idieresis" unicode="&#xcf;" horiz-adv-x="224" 
d="M57.5 3.5q-3.5 3.5 -3.5 8.5v676q0 5 3.5 8.5t8.5 3.5h92q5 0 8.5 -3.5t3.5 -8.5v-676q0 -5 -3.5 -8.5t-8.5 -3.5h-92q-5 0 -8.5 3.5zM-7.5 795.5q-17.5 17.5 -17.5 45.5q0 27 17.5 44.5t43.5 17.5t42.5 -17.5t16.5 -44.5q0 -28 -16.5 -45.5t-42.5 -17.5t-43.5 17.5z
M147 795.5q-17 17.5 -17 45.5q0 27 17 44.5t44 17.5q26 0 42.5 -17.5t16.5 -44.5q0 -28 -16.5 -45.5t-42.5 -17.5q-27 0 -44 17.5z" />
    <glyph glyph-name="Eth" unicode="&#xd0;" horiz-adv-x="507" 
d="M409.5 648q51.5 -52 51.5 -139v-318q0 -87 -51.5 -139t-137.5 -52h-171q-5 0 -8.5 3.5t-3.5 8.5v315q0 5 -5 5h-18q-5 0 -8.5 3.5t-3.5 8.5v44q0 5 3.5 8.5t8.5 3.5h18q5 0 5 5v283q0 5 3.5 8.5t8.5 3.5h171q86 0 137.5 -52zM345 502q0 45 -20.5 71.5t-55.5 26.5h-59
q-5 0 -5 -5v-190q0 -5 5 -5h50q5 0 8.5 -3.5t3.5 -8.5v-44q0 -5 -3.5 -8.5t-8.5 -3.5h-50q-5 0 -5 -5v-222q0 -5 5 -5l60 1q33 0 53.5 26.5t21.5 70.5v304z" />
    <glyph glyph-name="Ntilde" unicode="&#xd1;" horiz-adv-x="507" 
d="M58.5 3.5q-3.5 3.5 -3.5 8.5v676q0 5 3.5 8.5t8.5 3.5h96q11 0 14 -9l155 -407q2 -3 4 -3t2 4v403q0 5 3.5 8.5t8.5 3.5h91q5 0 8.5 -3.5t3.5 -8.5v-676q0 -5 -3.5 -8.5t-8.5 -3.5h-97q-11 0 -14 9l-156 408q-1 3 -3.5 2.5t-2.5 -3.5l1 -404q0 -5 -3.5 -8.5t-8.5 -3.5
h-90q-5 0 -8.5 3.5zM293 790.5q-12 4.5 -29 14.5q-5 3 -13.5 8.5t-15 8t-14.5 2.5q-24 0 -38 -23q-7 -10 -17 -4l-32 24q-9 7 -5 16q14 32 35.5 47t47.5 15q16 0 30.5 -5.5t31.5 -16.5q3 -2 11 -8t16 -9t16 -3q24 0 38 23q6 11 16 4l32 -21q5 -3 5 -10q0 -6 -4 -14
q-17 -28 -40 -40.5t-46 -12.5q-13 0 -25 4.5z" />
    <glyph glyph-name="Ograve" unicode="&#xd2;" horiz-adv-x="467" 
d="M94.5 44q-52.5 52 -52.5 138v336q0 86 52.5 138t138.5 52t139 -52t53 -138v-336q0 -86 -53 -138t-139 -52t-138.5 52zM288 115.5q21 23.5 21 61.5v346q0 38 -21 61.5t-55 23.5t-54.5 -23.5t-20.5 -61.5v-346q0 -38 20.5 -61.5t54.5 -23.5t55 23.5zM276 776q0 -8 -11 -8
h-69q-9 0 -14 7l-74 103q-3 5 -3 7q0 8 11 8h84q11 0 15 -8l59 -103z" />
    <glyph glyph-name="Oacute" unicode="&#xd3;" horiz-adv-x="467" 
d="M94.5 44q-52.5 52 -52.5 138v336q0 86 52.5 138t138.5 52t139 -52t53 -138v-336q0 -86 -53 -138t-139 -52t-138.5 52zM288 115.5q21 23.5 21 61.5v346q0 38 -21 61.5t-55 23.5t-54.5 -23.5t-20.5 -61.5v-346q0 -38 20.5 -61.5t54.5 -23.5t55 23.5zM171 772q-3 4 1 10
l59 103q4 8 15 8h84q8 0 10 -4.5t-2 -10.5l-74 -103q-5 -7 -14 -7h-69q-7 0 -10 4z" />
    <glyph glyph-name="Ocircumflex" unicode="&#xd4;" horiz-adv-x="467" 
d="M94.5 44q-52.5 52 -52.5 138v336q0 86 52.5 138t138.5 52t139 -52t53 -138v-336q0 -86 -53 -138t-139 -52t-138.5 52zM288 115.5q21 23.5 21 61.5v346q0 38 -21 61.5t-55 23.5t-54.5 -23.5t-20.5 -61.5v-346q0 -38 20.5 -61.5t54.5 -23.5t55 23.5zM100.5 767.5
q-2.5 3.5 1.5 10.5l65 102q5 8 14 8h98q9 0 14 -8l67 -101q2 -3 2 -7q0 -8 -9 -8h-69q-10 0 -15 8l-34 62q-3 5 -6 0l-35 -62q-5 -8 -15 -8h-69q-7 0 -9.5 3.5z" />
    <glyph glyph-name="Otilde" unicode="&#xd5;" horiz-adv-x="467" 
d="M94.5 44q-52.5 52 -52.5 138v336q0 86 52.5 138t138.5 52t139 -52t53 -138v-336q0 -86 -53 -138t-139 -52t-138.5 52zM288 115.5q21 23.5 21 61.5v346q0 38 -21 61.5t-55 23.5t-54.5 -23.5t-20.5 -61.5v-346q0 -38 20.5 -61.5t54.5 -23.5t55 23.5zM273 782.5
q-12 4.5 -29 14.5q-5 3 -13.5 8.5t-15 8t-14.5 2.5q-24 0 -38 -23q-7 -10 -17 -4l-32 24q-9 7 -5 16q14 32 35.5 47t47.5 15q16 0 30.5 -5.5t31.5 -16.5q3 -2 11 -8t16 -9t16 -3q24 0 38 23q6 11 16 4l32 -21q5 -3 5 -10q0 -6 -4 -14q-17 -28 -40 -40.5t-46 -12.5
q-13 0 -25 4.5z" />
    <glyph glyph-name="Odieresis" unicode="&#xd6;" horiz-adv-x="467" 
d="M94.5 44q-52.5 52 -52.5 138v336q0 86 52.5 138t138.5 52t139 -52t53 -138v-336q0 -86 -53 -138t-139 -52t-138.5 52zM288 115.5q21 23.5 21 61.5v346q0 38 -21 61.5t-55 23.5t-54.5 -23.5t-20.5 -61.5v-346q0 -38 20.5 -61.5t54.5 -23.5t55 23.5zM113.5 787.5
q-17.5 17.5 -17.5 45.5q0 27 17.5 44.5t43.5 17.5t42.5 -17.5t16.5 -44.5q0 -28 -16.5 -45.5t-42.5 -17.5t-43.5 17.5zM268 787.5q-17 17.5 -17 45.5q0 27 17 44.5t44 17.5q26 0 42.5 -17.5t16.5 -44.5q0 -28 -16.5 -45.5t-42.5 -17.5q-27 0 -44 17.5z" />
    <glyph glyph-name="multiply" unicode="&#xd7;" horiz-adv-x="389" 
d="M358 416q0 -4 -4 -8l-93 -93q-2 -2 -2 -4t2 -4l93 -93q4 -4 4 -9q0 -4 -4 -8l-45 -45q-4 -4 -9 -4t-8 4l-93 93q-2 2 -4 2t-4 -2l-94 -94q-4 -4 -8 -4q-2 0 -8 4l-46 46q-4 6 -4 8q0 4 4 8l94 94q2 2 2 4t-2 4l-93 93q-4 4 -4 8q0 5 4 9l45 45q4 4 9 4q4 0 8 -4l93 -93
q2 -2 4 -2t4 2l93 93q4 4 8 4q5 0 8 -4l46 -46q4 -3 4 -8z" />
    <glyph glyph-name="Oslash" unicode="&#xd8;" horiz-adv-x="500" 
d="M449 741q2 -4 0 -10l-44 -102q-1 -4 0 -7q26 -44 26 -104v-336q0 -86 -53 -138t-139 -52q-54 0 -95 21q-5 3 -7 -2l-19 -43q-4 -9 -14 -9h-45q-7 0 -9 4t0 10l35 82q2 4 0 7q-37 49 -37 120v336q0 86 52.5 138t138.5 52q64 0 110 -29q5 -3 7 2l24 55q4 9 14 9h46
q7 0 9 -4zM164 251q0 -4 2 -4t4 3l135 312q1 4 -1 6q-9 19 -26 29.5t-39 10.5q-34 0 -54.5 -23.5t-20.5 -61.5v-272zM315 407q0 4 -2 4.5t-4 -2.5l-124 -287q-2 -4 1 -7q18 -23 53 -23q34 0 55 23.5t21 61.5v230z" />
    <glyph glyph-name="Ugrave" unicode="&#xd9;" horiz-adv-x="478" 
d="M101.5 47.5q-51.5 55.5 -51.5 146.5v494q0 5 3.5 8.5t8.5 3.5h92q5 0 8.5 -3.5t3.5 -8.5v-506q0 -40 20 -65t53 -25t53 25t20 65v506q0 5 3.5 8.5t8.5 3.5h92q5 0 8.5 -3.5t3.5 -8.5v-494q0 -91 -52 -146.5t-137 -55.5q-86 0 -137.5 55.5zM282 784q0 -8 -11 -8h-69
q-9 0 -14 7l-74 103q-3 5 -3 7q0 8 11 8h84q11 0 15 -8l59 -103z" />
    <glyph glyph-name="Uacute" unicode="&#xda;" horiz-adv-x="478" 
d="M101.5 47.5q-51.5 55.5 -51.5 146.5v494q0 5 3.5 8.5t8.5 3.5h92q5 0 8.5 -3.5t3.5 -8.5v-506q0 -40 20 -65t53 -25t53 25t20 65v506q0 5 3.5 8.5t8.5 3.5h92q5 0 8.5 -3.5t3.5 -8.5v-494q0 -91 -52 -146.5t-137 -55.5q-86 0 -137.5 55.5zM177 780q-3 4 1 10l59 103
q4 8 15 8h84q8 0 10 -4.5t-2 -10.5l-74 -103q-5 -7 -14 -7h-69q-7 0 -10 4z" />
    <glyph glyph-name="Ucircumflex" unicode="&#xdb;" horiz-adv-x="478" 
d="M101.5 47.5q-51.5 55.5 -51.5 146.5v494q0 5 3.5 8.5t8.5 3.5h92q5 0 8.5 -3.5t3.5 -8.5v-506q0 -40 20 -65t53 -25t53 25t20 65v506q0 5 3.5 8.5t8.5 3.5h92q5 0 8.5 -3.5t3.5 -8.5v-494q0 -91 -52 -146.5t-137 -55.5q-86 0 -137.5 55.5zM106.5 775.5q-2.5 3.5 1.5 10.5
l65 102q5 8 14 8h98q9 0 14 -8l67 -101q2 -3 2 -7q0 -8 -9 -8h-69q-10 0 -15 8l-34 62q-3 5 -6 0l-35 -62q-5 -8 -15 -8h-69q-7 0 -9.5 3.5z" />
    <glyph glyph-name="Udieresis" unicode="&#xdc;" horiz-adv-x="478" 
d="M101.5 47.5q-51.5 55.5 -51.5 146.5v494q0 5 3.5 8.5t8.5 3.5h92q5 0 8.5 -3.5t3.5 -8.5v-506q0 -40 20 -65t53 -25t53 25t20 65v506q0 5 3.5 8.5t8.5 3.5h92q5 0 8.5 -3.5t3.5 -8.5v-494q0 -91 -52 -146.5t-137 -55.5q-86 0 -137.5 55.5zM119.5 795.5
q-17.5 17.5 -17.5 45.5q0 27 17.5 44.5t43.5 17.5t42.5 -17.5t16.5 -44.5q0 -28 -16.5 -45.5t-42.5 -17.5t-43.5 17.5zM274 795.5q-17 17.5 -17 45.5q0 27 17 44.5t44 17.5q26 0 42.5 -17.5t16.5 -44.5q0 -28 -16.5 -45.5t-42.5 -17.5q-27 0 -44 17.5z" />
    <glyph glyph-name="Yacute" unicode="&#xdd;" horiz-adv-x="456" 
d="M173.5 4.5q-3.5 3.5 -3.5 8.5v273l-1 6l-139 394q-1 2 -1 5q0 9 11 9h96q11 0 14 -10l75 -257q1 -3 3 -3t3 3l75 257q3 10 14 10h96q6 0 9 -3.5t1 -10.5l-139 -394l-1 -6v-273q0 -5 -3.5 -8.5t-8.5 -3.5h-92q-5 0 -8.5 3.5zM166 767q-3 4 1 10l59 103q4 8 15 8h84
q8 0 10 -4.5t-2 -10.5l-74 -103q-5 -7 -14 -7h-69q-7 0 -10 4z" />
    <glyph glyph-name="Thorn" unicode="&#xde;" horiz-adv-x="457" 
d="M346 529q41 -26 63.5 -73t22.5 -108q0 -91 -48 -146t-126 -55h-84q-5 0 -5 -5v-130q0 -5 -3.5 -8.5t-8.5 -3.5h-92q-5 0 -8.5 3.5t-3.5 8.5v676q0 5 3.5 8.5t8.5 3.5h92q5 0 8.5 -3.5t3.5 -8.5v-128q0 -5 5 -5h79q52 0 93 -26zM293.5 268.5q22.5 28.5 22.5 77.5
q0 50 -22.5 79t-59.5 29h-60q-5 0 -5 -5v-204q0 -5 5 -5h60q37 0 59.5 28.5z" />
    <glyph glyph-name="germandbls" unicode="&#xdf;" horiz-adv-x="450" 
d="M49.5 4.5q-3.5 3.5 -3.5 8.5v480q0 103 46 159t129 56q84 0 132 -50.5t50 -136.5q0 -101 -65 -142q-6 -3 0 -6q35 -23 54.5 -67t19.5 -105q0 -95 -50.5 -148t-142.5 -53h-12q-5 0 -8.5 3.5t-3.5 8.5v75q0 5 3.5 8.5t8.5 3.5l12 1q38 0 59 29.5t21 83.5t-19 83.5t-52 31.5
h-14q-5 0 -8.5 3.5t-3.5 8.5v67q0 5 3.5 8.5t8.5 3.5h12q29 0 46 23.5t17 66.5q0 47 -18 73.5t-49 26.5q-29 0 -44.5 -25.5t-15.5 -72.5v-499q0 -5 -3.5 -8.5t-8.5 -3.5l-92 1q-5 0 -8.5 3.5z" />
    <glyph glyph-name="agrave" unicode="&#xe0;" horiz-adv-x="433" 
d="M346 473q49 -46 49 -121v-340q0 -5 -3.5 -8.5t-8.5 -3.5h-92q-5 0 -8.5 3.5t-3.5 8.5v18q0 3 -2 4t-4 -2q-36 -40 -101 -40q-57 0 -100.5 32.5t-43.5 118.5q0 90 52.5 128t142.5 38h51q5 0 5 5v26q0 36 -18 57.5t-45 21.5q-21 0 -35 -13.5t-17 -36.5q-1 -12 -13 -12h-97
q-12 0 -11 12q5 68 53.5 109t121.5 41q79 0 128 -46zM256.5 107q22.5 19 22.5 53v57q0 5 -5 5h-51q-35 0 -55.5 -18.5t-20.5 -53.5q0 -31 16 -46.5t41 -15.5q30 0 52.5 19zM261 591q0 -8 -11 -8h-69q-9 0 -14 7l-74 103q-3 5 -3 7q0 8 11 8h84q11 0 15 -8l59 -103z" />
    <glyph glyph-name="aacute" unicode="&#xe1;" horiz-adv-x="433" 
d="M346 473q49 -46 49 -121v-340q0 -5 -3.5 -8.5t-8.5 -3.5h-92q-5 0 -8.5 3.5t-3.5 8.5v18q0 3 -2 4t-4 -2q-36 -40 -101 -40q-57 0 -100.5 32.5t-43.5 118.5q0 90 52.5 128t142.5 38h51q5 0 5 5v26q0 36 -18 57.5t-45 21.5q-21 0 -35 -13.5t-17 -36.5q-1 -12 -13 -12h-97
q-12 0 -11 12q5 68 53.5 109t121.5 41q79 0 128 -46zM256.5 107q22.5 19 22.5 53v57q0 5 -5 5h-51q-35 0 -55.5 -18.5t-20.5 -53.5q0 -31 16 -46.5t41 -15.5q30 0 52.5 19zM156 587q-3 4 1 10l59 103q4 8 15 8h84q8 0 10 -4.5t-2 -10.5l-74 -103q-5 -7 -14 -7h-69
q-7 0 -10 4z" />
    <glyph glyph-name="acircumflex" unicode="&#xe2;" horiz-adv-x="433" 
d="M346 473q49 -46 49 -121v-340q0 -5 -3.5 -8.5t-8.5 -3.5h-92q-5 0 -8.5 3.5t-3.5 8.5v18q0 3 -2 4t-4 -2q-36 -40 -101 -40q-57 0 -100.5 32.5t-43.5 118.5q0 90 52.5 128t142.5 38h51q5 0 5 5v26q0 36 -18 57.5t-45 21.5q-21 0 -35 -13.5t-17 -36.5q-1 -12 -13 -12h-97
q-12 0 -11 12q5 68 53.5 109t121.5 41q79 0 128 -46zM256.5 107q22.5 19 22.5 53v57q0 5 -5 5h-51q-35 0 -55.5 -18.5t-20.5 -53.5q0 -31 16 -46.5t41 -15.5q30 0 52.5 19zM85.5 582.5q-2.5 3.5 1.5 10.5l65 102q5 8 14 8h98q9 0 14 -8l67 -101q2 -3 2 -7q0 -8 -9 -8h-69
q-10 0 -15 8l-34 62q-3 5 -6 0l-35 -62q-5 -8 -15 -8h-69q-7 0 -9.5 3.5z" />
    <glyph glyph-name="atilde" unicode="&#xe3;" horiz-adv-x="433" 
d="M346 473q49 -46 49 -121v-340q0 -5 -3.5 -8.5t-8.5 -3.5h-92q-5 0 -8.5 3.5t-3.5 8.5v18q0 3 -2 4t-4 -2q-36 -40 -101 -40q-57 0 -100.5 32.5t-43.5 118.5q0 90 52.5 128t142.5 38h51q5 0 5 5v26q0 36 -18 57.5t-45 21.5q-21 0 -35 -13.5t-17 -36.5q-1 -12 -13 -12h-97
q-12 0 -11 12q5 68 53.5 109t121.5 41q79 0 128 -46zM256.5 107q22.5 19 22.5 53v57q0 5 -5 5h-51q-35 0 -55.5 -18.5t-20.5 -53.5q0 -31 16 -46.5t41 -15.5q30 0 52.5 19zM258 597.5q-12 4.5 -29 14.5q-5 3 -13.5 8.5t-15 8t-14.5 2.5q-24 0 -38 -23q-7 -10 -17 -4l-32 24
q-9 7 -5 16q14 32 35.5 47t47.5 15q16 0 30.5 -5.5t31.5 -16.5q3 -2 11 -8t16 -9t16 -3q24 0 38 23q6 11 16 4l32 -21q5 -3 5 -10q0 -6 -4 -14q-17 -28 -40 -40.5t-46 -12.5q-13 0 -25 4.5z" />
    <glyph glyph-name="adieresis" unicode="&#xe4;" horiz-adv-x="433" 
d="M346 473q49 -46 49 -121v-340q0 -5 -3.5 -8.5t-8.5 -3.5h-92q-5 0 -8.5 3.5t-3.5 8.5v18q0 3 -2 4t-4 -2q-36 -40 -101 -40q-57 0 -100.5 32.5t-43.5 118.5q0 90 52.5 128t142.5 38h51q5 0 5 5v26q0 36 -18 57.5t-45 21.5q-21 0 -35 -13.5t-17 -36.5q-1 -12 -13 -12h-97
q-12 0 -11 12q5 68 53.5 109t121.5 41q79 0 128 -46zM256.5 107q22.5 19 22.5 53v57q0 5 -5 5h-51q-35 0 -55.5 -18.5t-20.5 -53.5q0 -31 16 -46.5t41 -15.5q30 0 52.5 19zM98.5 602.5q-17.5 17.5 -17.5 45.5q0 27 17.5 44.5t43.5 17.5t42.5 -17.5t16.5 -44.5
q0 -28 -16.5 -45.5t-42.5 -17.5t-43.5 17.5zM253 602.5q-17 17.5 -17 45.5q0 27 17 44.5t44 17.5q26 0 42.5 -17.5t16.5 -44.5q0 -28 -16.5 -45.5t-42.5 -17.5q-27 0 -44 17.5z" />
    <glyph glyph-name="aring" unicode="&#xe5;" horiz-adv-x="433" 
d="M346 473q49 -46 49 -121v-340q0 -5 -3.5 -8.5t-8.5 -3.5h-92q-5 0 -8.5 3.5t-3.5 8.5v18q0 3 -2 4t-4 -2q-36 -40 -101 -40q-57 0 -100.5 32.5t-43.5 118.5q0 90 52.5 128t142.5 38h51q5 0 5 5v26q0 36 -18 57.5t-45 21.5q-21 0 -35 -13.5t-17 -36.5q-1 -12 -13 -12h-97
q-12 0 -11 12q5 68 53.5 109t121.5 41q79 0 128 -46zM256.5 107q22.5 19 22.5 53v57q0 5 -5 5h-51q-35 0 -55.5 -18.5t-20.5 -53.5q0 -31 16 -46.5t41 -15.5q30 0 52.5 19zM142 604.5q-31 31.5 -31 77.5q0 45 31 76t76 31t76 -31t31 -76q0 -46 -31 -77.5t-76 -31.5t-76 31.5
zM255 643.5q15 15.5 15 38.5t-15 38.5t-37 15.5t-37 -15.5t-15 -38.5t15 -38.5t37 -15.5t37 15.5z" />
    <glyph glyph-name="ae" unicode="&#xe6;" horiz-adv-x="672" 
d="M28 142q0 88 47.5 122.5t137.5 34.5h59q5 0 5 5v36q0 37 -16.5 58t-46.5 21q-23 0 -40.5 -13.5t-21.5 -35.5q-1 -12 -13 -12l-92 3q-12 0 -11 12q5 67 54 106.5t121 39.5q40 0 69 -13.5t51 -41.5q3 -3 7 0q45 55 127 55q78 0 126 -45t48 -117v-134q0 -5 -3.5 -8.5
t-8.5 -3.5h-223q-5 0 -5 -5v-43q0 -27 18 -46.5t45 -19.5q22 0 37 13.5t22 34.5q5 11 14 10l90 -10q12 -2 11 -13q-8 -67 -51 -103.5t-115 -36.5q-50 0 -87 19t-47 44q-1 6 -3 3q-12 -28 -56 -47t-103 -19q-146 0 -146 150zM404 299h114q5 0 5 5v44q0 31 -17 51t-44 20
q-28 0 -45.5 -20t-17.5 -51v-44q0 -5 5 -5zM255 99.5q22 17.5 22 48.5v57q0 5 -5 5h-51q-34 0 -55 -17.5t-21 -48.5t16.5 -46.5t42.5 -15.5q29 0 51 17.5z" />
    <glyph glyph-name="ccedilla" unicode="&#xe7;" horiz-adv-x="422" 
d="M389.5 342.5q-3.5 -3.5 -8.5 -3.5l-92 -4q-12 0 -12 11v11q0 25 -17.5 43.5t-44.5 18.5t-44 -20t-17 -51v-185q0 -31 17 -51t44 -20t44.5 18.5t17.5 44.5v10q0 5 3.5 8.5t8.5 3.5l92 -1q5 0 8.5 -3.5t3.5 -8.5v-18q0 -59 -35 -99t-97 -51q-6 -2 -2 -6q37 -41 37 -89
q0 -47 -24.5 -66.5t-60.5 -19.5q-20 0 -42 6q-9 3 -8 14l5 36q1 11 14 9q14 -2 24.5 5t14.5 23q1 3 1 10q0 33 -42 75l-5 3q-64 11 -99.5 52.5t-35.5 106.5v202q0 73 47.5 117.5t129.5 44.5t130 -43.5t48 -110.5v-14q0 -5 -3.5 -8.5z" />
    <glyph glyph-name="egrave" unicode="&#xe8;" horiz-adv-x="426" 
d="M389.5 215.5q-3.5 -3.5 -8.5 -3.5h-222q-5 0 -5 -5v-44q0 -32 17 -52t44 -20q23 0 39 15t22 38q3 11 13 10l90 -6q12 -2 11 -13q-8 -68 -52.5 -105.5t-122.5 -37.5q-82 0 -129.5 43.5t-47.5 118.5v203q0 73 47.5 117.5t129.5 44.5t130 -44.5t48 -117.5v-133
q0 -5 -3.5 -8.5zM171 399q-17 -20 -17 -51v-44q0 -5 5 -5h113q5 0 5 5v44q0 32 -17 51.5t-45 19.5q-27 0 -44 -20zM258 591q0 -8 -11 -8h-69q-9 0 -14 7l-74 103q-3 5 -3 7q0 8 11 8h84q11 0 15 -8l59 -103z" />
    <glyph glyph-name="eacute" unicode="&#xe9;" horiz-adv-x="426" 
d="M389.5 215.5q-3.5 -3.5 -8.5 -3.5h-222q-5 0 -5 -5v-44q0 -32 17 -52t44 -20q23 0 39 15t22 38q3 11 13 10l90 -6q12 -2 11 -13q-8 -68 -52.5 -105.5t-122.5 -37.5q-82 0 -129.5 43.5t-47.5 118.5v203q0 73 47.5 117.5t129.5 44.5t130 -44.5t48 -117.5v-133
q0 -5 -3.5 -8.5zM171 399q-17 -20 -17 -51v-44q0 -5 5 -5h113q5 0 5 5v44q0 32 -17 51.5t-45 19.5q-27 0 -44 -20zM153 587q-3 4 1 10l59 103q4 8 15 8h84q8 0 10 -4.5t-2 -10.5l-74 -103q-5 -7 -14 -7h-69q-7 0 -10 4z" />
    <glyph glyph-name="ecircumflex" unicode="&#xea;" horiz-adv-x="426" 
d="M389.5 215.5q-3.5 -3.5 -8.5 -3.5h-222q-5 0 -5 -5v-44q0 -32 17 -52t44 -20q23 0 39 15t22 38q3 11 13 10l90 -6q12 -2 11 -13q-8 -68 -52.5 -105.5t-122.5 -37.5q-82 0 -129.5 43.5t-47.5 118.5v203q0 73 47.5 117.5t129.5 44.5t130 -44.5t48 -117.5v-133
q0 -5 -3.5 -8.5zM171 399q-17 -20 -17 -51v-44q0 -5 5 -5h113q5 0 5 5v44q0 32 -17 51.5t-45 19.5q-27 0 -44 -20zM82.5 582.5q-2.5 3.5 1.5 10.5l65 102q5 8 14 8h98q9 0 14 -8l67 -101q2 -3 2 -7q0 -8 -9 -8h-69q-10 0 -15 8l-34 62q-3 5 -6 0l-35 -62q-5 -8 -15 -8h-69
q-7 0 -9.5 3.5z" />
    <glyph glyph-name="edieresis" unicode="&#xeb;" horiz-adv-x="426" 
d="M389.5 215.5q-3.5 -3.5 -8.5 -3.5h-222q-5 0 -5 -5v-44q0 -32 17 -52t44 -20q23 0 39 15t22 38q3 11 13 10l90 -6q12 -2 11 -13q-8 -68 -52.5 -105.5t-122.5 -37.5q-82 0 -129.5 43.5t-47.5 118.5v203q0 73 47.5 117.5t129.5 44.5t130 -44.5t48 -117.5v-133
q0 -5 -3.5 -8.5zM171 399q-17 -20 -17 -51v-44q0 -5 5 -5h113q5 0 5 5v44q0 32 -17 51.5t-45 19.5q-27 0 -44 -20zM95.5 602.5q-17.5 17.5 -17.5 45.5q0 27 17.5 44.5t43.5 17.5t42.5 -17.5t16.5 -44.5q0 -28 -16.5 -45.5t-42.5 -17.5t-43.5 17.5zM250 602.5
q-17 17.5 -17 45.5q0 27 17 44.5t44 17.5q26 0 42.5 -17.5t16.5 -44.5q0 -28 -16.5 -45.5t-42.5 -17.5q-27 0 -44 17.5z" />
    <glyph glyph-name="igrave" unicode="&#xec;" horiz-adv-x="207" 
d="M47.5 3.5q-3.5 3.5 -3.5 8.5v487q0 5 3.5 8.5t8.5 3.5h92q5 0 8.5 -3.5t3.5 -8.5v-487q0 -5 -3.5 -8.5t-8.5 -3.5h-92q-5 0 -8.5 3.5zM145 595q0 -8 -11 -8h-69q-9 0 -14 7l-74 103q-3 5 -3 7q0 8 11 8h84q11 0 15 -8l59 -103z" />
    <glyph glyph-name="iacute" unicode="&#xed;" horiz-adv-x="207" 
d="M47.5 3.5q-3.5 3.5 -3.5 8.5v487q0 5 3.5 8.5t8.5 3.5h92q5 0 8.5 -3.5t3.5 -8.5v-487q0 -5 -3.5 -8.5t-8.5 -3.5h-92q-5 0 -8.5 3.5zM40 591q-3 4 1 10l59 103q4 8 15 8h84q8 0 10 -4.5t-2 -10.5l-74 -103q-5 -7 -14 -7h-69q-7 0 -10 4z" />
    <glyph glyph-name="icircumflex" unicode="&#xee;" horiz-adv-x="207" 
d="M47.5 3.5q-3.5 3.5 -3.5 8.5v487q0 5 3.5 8.5t8.5 3.5h92q5 0 8.5 -3.5t3.5 -8.5v-487q0 -5 -3.5 -8.5t-8.5 -3.5h-92q-5 0 -8.5 3.5zM-30.5 586.5q-2.5 3.5 1.5 10.5l65 102q5 8 14 8h98q9 0 14 -8l67 -101q2 -3 2 -7q0 -8 -9 -8h-69q-10 0 -15 8l-34 62q-3 5 -6 0
l-35 -62q-5 -8 -15 -8h-69q-7 0 -9.5 3.5z" />
    <glyph glyph-name="idieresis" unicode="&#xef;" horiz-adv-x="207" 
d="M47.5 3.5q-3.5 3.5 -3.5 8.5v487q0 5 3.5 8.5t8.5 3.5h92q5 0 8.5 -3.5t3.5 -8.5v-487q0 -5 -3.5 -8.5t-8.5 -3.5h-92q-5 0 -8.5 3.5zM-17.5 606.5q-17.5 17.5 -17.5 45.5q0 27 17.5 44.5t43.5 17.5t42.5 -17.5t16.5 -44.5q0 -28 -16.5 -45.5t-42.5 -17.5t-43.5 17.5z
M137 606.5q-17 17.5 -17 45.5q0 27 17 44.5t44 17.5q26 0 42.5 -17.5t16.5 -44.5q0 -28 -16.5 -45.5t-42.5 -17.5q-27 0 -44 17.5z" />
    <glyph glyph-name="eth" unicode="&#xf0;" horiz-adv-x="443" 
d="M403 614q0 -8 -10 -11l-58 -16q-6 -2 -3 -6q29 -54 45.5 -114t17.5 -133v-179q0 -75 -47.5 -119t-131.5 -44q-83 0 -130.5 44t-47.5 119v179q0 47 21 84t57 58t81 21q43 0 68 -23q4 -4 3 1q-10 40 -33 82q-2 4 -6 3l-74 -19l-4 -1q-8 0 -11 10l-7 26l-1 4q0 8 10 11
l57 15q2 1 3 3t0 4q-36 52 -52 72q-4 6 -4 8q0 7 11 7h86q9 0 15 -7l25 -35l15 -20q1 -2 2.5 -3t3.5 0l76 21l4 1q8 0 11 -10l7 -29zM261.5 376q-17.5 20 -45.5 20t-45 -19.5t-17 -51.5v-162q0 -32 17 -51.5t45 -19.5t45.5 20t17.5 51v162q0 31 -17.5 51z" />
    <glyph glyph-name="ntilde" unicode="&#xf1;" 
d="M157 604q-6 -12 -16 -4l-29 23q-8 7 -4 16q12 32 32 47t44 15q16 0 29 -5.5t29 -16.5q3 -2 10.5 -8t14.5 -9t14 -3q22 0 35 22q3 5 8 6.5t9 -2.5l27 -20q9 -6 5 -16q-14 -32 -37 -46.5t-46 -14.5q-12 0 -23 4.5t-27 14.5q-4 3 -12 8.5t-14 8t-13 2.5q-22 0 -36 -22z
M363.5 475.5q33.5 -43.5 33.5 -123.5v-340q0 -5 -3.5 -8.5t-8.5 -3.5h-92q-5 0 -8.5 3.5t-3.5 8.5v331q0 36 -15 56t-43 20q-29 0 -45 -21t-16 -58v-328q0 -5 -3.5 -8.5t-8.5 -3.5h-92q-5 0 -8.5 3.5t-3.5 8.5v487q0 5 3.5 8.5t8.5 3.5h92q5 0 8.5 -3.5t3.5 -8.5v-20
q0 -3 2.5 -3.5t5.5 3.5q34 40 95 40q65 0 98.5 -43.5z" />
    <glyph glyph-name="ograve" unicode="&#xf2;" horiz-adv-x="432" 
d="M85.5 35.5q-47.5 43.5 -47.5 118.5v203q0 73 48 117.5t130 44.5q83 0 131 -44.5t48 -117.5v-203q0 -75 -47.5 -118.5t-131.5 -43.5q-83 0 -130.5 43.5zM261.5 112q17.5 20 17.5 51v185q0 31 -17.5 51t-45.5 20t-45 -19.5t-17 -51.5v-185q0 -32 17 -51.5t45 -19.5t45.5 20
zM259 591q0 -8 -11 -8h-69q-9 0 -14 7l-74 103q-3 5 -3 7q0 8 11 8h84q11 0 15 -8l59 -103z" />
    <glyph glyph-name="oacute" unicode="&#xf3;" horiz-adv-x="432" 
d="M85.5 35.5q-47.5 43.5 -47.5 118.5v203q0 73 48 117.5t130 44.5q83 0 131 -44.5t48 -117.5v-203q0 -75 -47.5 -118.5t-131.5 -43.5q-83 0 -130.5 43.5zM261.5 112q17.5 20 17.5 51v185q0 31 -17.5 51t-45.5 20t-45 -19.5t-17 -51.5v-185q0 -32 17 -51.5t45 -19.5t45.5 20
zM154 587q-3 4 1 10l59 103q4 8 15 8h84q8 0 10 -4.5t-2 -10.5l-74 -103q-5 -7 -14 -7h-69q-7 0 -10 4z" />
    <glyph glyph-name="ocircumflex" unicode="&#xf4;" horiz-adv-x="432" 
d="M85.5 35.5q-47.5 43.5 -47.5 118.5v203q0 73 48 117.5t130 44.5q83 0 131 -44.5t48 -117.5v-203q0 -75 -47.5 -118.5t-131.5 -43.5q-83 0 -130.5 43.5zM261.5 112q17.5 20 17.5 51v185q0 31 -17.5 51t-45.5 20t-45 -19.5t-17 -51.5v-185q0 -32 17 -51.5t45 -19.5t45.5 20
zM83.5 582.5q-2.5 3.5 1.5 10.5l65 102q5 8 14 8h98q9 0 14 -8l67 -101q2 -3 2 -7q0 -8 -9 -8h-69q-10 0 -15 8l-34 62q-3 5 -6 0l-35 -62q-5 -8 -15 -8h-69q-7 0 -9.5 3.5z" />
    <glyph glyph-name="otilde" unicode="&#xf5;" horiz-adv-x="432" 
d="M85.5 35.5q-47.5 43.5 -47.5 118.5v203q0 73 48 117.5t130 44.5q83 0 131 -44.5t48 -117.5v-203q0 -75 -47.5 -118.5t-131.5 -43.5q-83 0 -130.5 43.5zM261.5 112q17.5 20 17.5 51v185q0 31 -17.5 51t-45.5 20t-45 -19.5t-17 -51.5v-185q0 -32 17 -51.5t45 -19.5t45.5 20
zM256 597.5q-12 4.5 -29 14.5q-5 3 -13.5 8.5t-15 8t-14.5 2.5q-24 0 -38 -23q-7 -10 -17 -4l-32 24q-9 7 -5 16q14 32 35.5 47t47.5 15q16 0 30.5 -5.5t31.5 -16.5q3 -2 11 -8t16 -9t16 -3q24 0 38 23q6 11 16 4l32 -21q5 -3 5 -10q0 -6 -4 -14q-17 -28 -40 -40.5
t-46 -12.5q-13 0 -25 4.5z" />
    <glyph glyph-name="odieresis" unicode="&#xf6;" horiz-adv-x="432" 
d="M85.5 35.5q-47.5 43.5 -47.5 118.5v203q0 73 48 117.5t130 44.5q83 0 131 -44.5t48 -117.5v-203q0 -75 -47.5 -118.5t-131.5 -43.5q-83 0 -130.5 43.5zM261.5 112q17.5 20 17.5 51v185q0 31 -17.5 51t-45.5 20t-45 -19.5t-17 -51.5v-185q0 -32 17 -51.5t45 -19.5t45.5 20
zM96.5 602.5q-17.5 17.5 -17.5 45.5q0 27 17.5 44.5t43.5 17.5t42.5 -17.5t16.5 -44.5q0 -28 -16.5 -45.5t-42.5 -17.5t-43.5 17.5zM251 602.5q-17 17.5 -17 45.5q0 27 17 44.5t44 17.5q26 0 42.5 -17.5t16.5 -44.5q0 -28 -16.5 -45.5t-42.5 -17.5q-27 0 -44 17.5z" />
    <glyph glyph-name="divide" unicode="&#xf7;" 
d="M175.5 435.5q-18.5 18.5 -18.5 44.5t18.5 44t44.5 18t44.5 -18.5t18.5 -43.5q0 -26 -18.5 -44.5t-44.5 -18.5t-44.5 18.5zM30.5 276.5q-3.5 3.5 -3.5 8.5v64q0 5 3.5 8.5t8.5 3.5h362q5 0 8.5 -3.5t3.5 -8.5v-64q0 -5 -3.5 -8.5t-8.5 -3.5h-362q-5 0 -8.5 3.5z
M175.5 112.5q-18.5 18.5 -18.5 44.5t18.5 44t44.5 18t44.5 -18.5t18.5 -43.5q0 -26 -18.5 -44.5t-44.5 -18.5t-44.5 18.5z" />
    <glyph glyph-name="oslash" unicode="&#xf8;" horiz-adv-x="453" 
d="M404 501l-24 -44q-2 -3 0 -7q27 -39 27 -93v-203q0 -75 -47.5 -118.5t-131.5 -43.5q-50 0 -89 17q-4 1 -6 -2l-19 -35q-3 -5 -7.5 -6.5t-9.5 1.5l-44 27q-10 7 -4 16l25 46q2 4 0 7q-24 39 -24 91v203q0 73 48 117.5t130 44.5q51 0 87 -16q4 -1 6 2l18 33q3 5 7.5 6.5
t9.5 -1.5l44 -26q10 -7 4 -16zM168 232q2 0 4 3l92 167q2 5 -2 7q-15 10 -34 10q-28 0 -45 -19.5t-17 -51.5v-112q0 -4 2 -4zM289 286q-2 0 -4 -3l-95 -172q-1 -4 1 -7q15 -12 37 -12q28 0 45.5 20t17.5 51v119q0 4 -2 4z" />
    <glyph glyph-name="ugrave" unicode="&#xf9;" horiz-adv-x="438" 
d="M280.5 507.5q3.5 3.5 8.5 3.5h92q5 0 8.5 -3.5t3.5 -8.5v-487q0 -5 -3.5 -8.5t-8.5 -3.5h-92q-5 0 -8.5 3.5t-3.5 8.5v22q0 3 -2 4t-4 -2q-29 -43 -93 -43q-61 0 -98.5 36.5t-37.5 112.5v357q0 5 3.5 8.5t8.5 3.5h92q5 0 8.5 -3.5t3.5 -8.5v-332q0 -75 58 -75
q29 0 45 21.5t16 58.5v327q0 5 3.5 8.5zM260 583q0 -8 -11 -8h-69q-9 0 -14 7l-74 103q-3 5 -3 7q0 8 11 8h84q11 0 15 -8l59 -103z" />
    <glyph glyph-name="uacute" unicode="&#xfa;" horiz-adv-x="438" 
d="M280.5 507.5q3.5 3.5 8.5 3.5h92q5 0 8.5 -3.5t3.5 -8.5v-487q0 -5 -3.5 -8.5t-8.5 -3.5h-92q-5 0 -8.5 3.5t-3.5 8.5v22q0 3 -2 4t-4 -2q-29 -43 -93 -43q-61 0 -98.5 36.5t-37.5 112.5v357q0 5 3.5 8.5t8.5 3.5h92q5 0 8.5 -3.5t3.5 -8.5v-332q0 -75 58 -75
q29 0 45 21.5t16 58.5v327q0 5 3.5 8.5zM155 579q-3 4 1 10l59 103q4 8 15 8h84q8 0 10 -4.5t-2 -10.5l-74 -103q-5 -7 -14 -7h-69q-7 0 -10 4z" />
    <glyph glyph-name="ucircumflex" unicode="&#xfb;" horiz-adv-x="438" 
d="M280.5 507.5q3.5 3.5 8.5 3.5h92q5 0 8.5 -3.5t3.5 -8.5v-487q0 -5 -3.5 -8.5t-8.5 -3.5h-92q-5 0 -8.5 3.5t-3.5 8.5v22q0 3 -2 4t-4 -2q-29 -43 -93 -43q-61 0 -98.5 36.5t-37.5 112.5v357q0 5 3.5 8.5t8.5 3.5h92q5 0 8.5 -3.5t3.5 -8.5v-332q0 -75 58 -75
q29 0 45 21.5t16 58.5v327q0 5 3.5 8.5zM84.5 574.5q-2.5 3.5 1.5 10.5l65 102q5 8 14 8h98q9 0 14 -8l67 -101q2 -3 2 -7q0 -8 -9 -8h-69q-10 0 -15 8l-34 62q-3 5 -6 0l-35 -62q-5 -8 -15 -8h-69q-7 0 -9.5 3.5z" />
    <glyph glyph-name="udieresis" unicode="&#xfc;" horiz-adv-x="438" 
d="M280.5 507.5q3.5 3.5 8.5 3.5h92q5 0 8.5 -3.5t3.5 -8.5v-487q0 -5 -3.5 -8.5t-8.5 -3.5h-92q-5 0 -8.5 3.5t-3.5 8.5v22q0 3 -2 4t-4 -2q-29 -43 -93 -43q-61 0 -98.5 36.5t-37.5 112.5v357q0 5 3.5 8.5t8.5 3.5h92q5 0 8.5 -3.5t3.5 -8.5v-332q0 -75 58 -75
q29 0 45 21.5t16 58.5v327q0 5 3.5 8.5zM97.5 594.5q-17.5 17.5 -17.5 45.5q0 27 17.5 44.5t43.5 17.5t42.5 -17.5t16.5 -44.5q0 -28 -16.5 -45.5t-42.5 -17.5t-43.5 17.5zM252 594.5q-17 17.5 -17 45.5q0 27 17 44.5t44 17.5q26 0 42.5 -17.5t16.5 -44.5q0 -28 -16.5 -45.5
t-42.5 -17.5q-27 0 -44 17.5z" />
    <glyph glyph-name="yacute" unicode="&#xfd;" horiz-adv-x="403" 
d="M34 -187v72q0 12 5 12h5q33 0 52 8t30.5 29.5t16.5 62.5l-1 6l-126 495v4q0 9 11 9h98q12 0 13 -11l61 -330q1 -3 3 -3t3 3l59 330q1 11 13 11l99 -1q14 0 11 -13l-134 -525q-19 -71 -40 -106t-59 -50t-108 -15h-6q-6 0 -6 12zM139 579q-3 4 1 10l59 103q4 8 15 8h84
q8 0 10 -4.5t-2 -10.5l-74 -103q-5 -7 -14 -7h-69q-7 0 -10 4z" />
    <glyph glyph-name="thorn" unicode="&#xfe;" horiz-adv-x="433" 
d="M356.5 476q36.5 -43 38.5 -118v-204q-2 -74 -38 -118t-101 -44q-57 0 -92 38q-2 2 -4 1.5t-2 -3.5v-216q0 -5 -3.5 -8.5t-8.5 -3.5h-92q-5 0 -8.5 3.5t-3.5 8.5v876q0 5 3.5 8.5t8.5 3.5h92q5 0 8.5 -3.5t3.5 -8.5v-205q0 -3 2.5 -3t5.5 3q33 36 90 36q64 0 100.5 -43z
M263 399q-17 20 -44 20t-44 -20t-17 -53v-181q0 -33 17 -53t44 -20t44 20.5t17 52.5v181q0 33 -17 53z" />
    <glyph glyph-name="ydieresis" unicode="&#xff;" horiz-adv-x="403" 
d="M34 -187v72q0 12 5 12h5q33 0 52 8t30.5 29.5t16.5 62.5l-1 6l-126 495v4q0 9 11 9h98q12 0 13 -11l61 -330q1 -3 3 -3t3 3l59 330q1 11 13 11l99 -1q14 0 11 -13l-134 -525q-19 -71 -40 -106t-59 -50t-108 -15h-6q-6 0 -6 12zM81.5 594.5q-17.5 17.5 -17.5 45.5
q0 27 17.5 44.5t43.5 17.5t42.5 -17.5t16.5 -44.5q0 -28 -16.5 -45.5t-42.5 -17.5t-43.5 17.5zM236 594.5q-17 17.5 -17 45.5q0 27 17 44.5t44 17.5q26 0 42.5 -17.5t16.5 -44.5q0 -28 -16.5 -45.5t-42.5 -17.5q-27 0 -44 17.5z" />
    <glyph glyph-name="Amacron" unicode="&#x100;" horiz-adv-x="484" 
d="M339 11l-19 105q0 5 -6 5h-145q-6 0 -6 -4l-20 -106q-1 -11 -13 -11h-92q-13 0 -10 13l147 676q2 11 13 11h107q11 0 13 -11l148 -676v-4q0 -9 -11 -9h-93q-12 0 -13 11zM188 212h109q6 0 5 5l-55 302q-1 3 -3 3t-3 -3l-58 -302q-1 -5 5 -5zM135.5 778.5
q-3.5 3.5 -3.5 8.5v56q0 5 3.5 8.5t8.5 3.5h190q5 0 8.5 -3.5t3.5 -8.5v-56q0 -5 -3.5 -8.5t-8.5 -3.5h-190q-5 0 -8.5 3.5z" />
    <glyph glyph-name="amacron" unicode="&#x101;" horiz-adv-x="433" 
d="M346 473q49 -46 49 -121v-340q0 -5 -3.5 -8.5t-8.5 -3.5h-92q-5 0 -8.5 3.5t-3.5 8.5v18q0 3 -2 4t-4 -2q-36 -40 -101 -40q-57 0 -100.5 32.5t-43.5 118.5q0 90 52.5 128t142.5 38h51q5 0 5 5v26q0 36 -18 57.5t-45 21.5q-21 0 -35 -13.5t-17 -36.5q-1 -12 -13 -12h-97
q-12 0 -11 12q5 68 53.5 109t121.5 41q79 0 128 -46zM256.5 107q22.5 19 22.5 53v57q0 5 -5 5h-51q-35 0 -55.5 -18.5t-20.5 -53.5q0 -31 16 -46.5t41 -15.5q30 0 52.5 19zM111.5 597.5q-3.5 3.5 -3.5 8.5v56q0 5 3.5 8.5t8.5 3.5h190q5 0 8.5 -3.5t3.5 -8.5v-56
q0 -5 -3.5 -8.5t-8.5 -3.5h-190q-5 0 -8.5 3.5z" />
    <glyph glyph-name="Abreve" unicode="&#x102;" horiz-adv-x="484" 
d="M339 11l-19 105q0 5 -6 5h-145q-6 0 -6 -4l-20 -106q-1 -11 -13 -11h-92q-13 0 -10 13l147 676q2 11 13 11h107q11 0 13 -11l148 -676v-4q0 -9 -11 -9h-93q-12 0 -13 11zM188 212h109q6 0 5 5l-55 302q-1 3 -3 3t-3 -3l-58 -302q-1 -5 5 -5zM163 769q-31 28 -35 74v2
q0 10 11 10h39q12 0 13 -12q3 -22 17 -35.5t34 -13.5t34 13.5t17 35.5q2 12 13 12h39q13 0 11 -12q-4 -46 -35.5 -74t-78.5 -28q-48 0 -79 28z" />
    <glyph glyph-name="abreve" unicode="&#x103;" horiz-adv-x="433" 
d="M346 473q49 -46 49 -121v-340q0 -5 -3.5 -8.5t-8.5 -3.5h-92q-5 0 -8.5 3.5t-3.5 8.5v18q0 3 -2 4t-4 -2q-36 -40 -101 -40q-57 0 -100.5 32.5t-43.5 118.5q0 90 52.5 128t142.5 38h51q5 0 5 5v26q0 36 -18 57.5t-45 21.5q-21 0 -35 -13.5t-17 -36.5q-1 -12 -13 -12h-97
q-12 0 -11 12q5 68 53.5 109t121.5 41q79 0 128 -46zM256.5 107q22.5 19 22.5 53v57q0 5 -5 5h-51q-35 0 -55.5 -18.5t-20.5 -53.5q0 -31 16 -46.5t41 -15.5q30 0 52.5 19zM139 588q-31 28 -35 74v2q0 10 11 10h39q12 0 13 -12q3 -22 17 -35.5t34 -13.5t34 13.5t17 35.5
q2 12 13 12h39q13 0 11 -12q-4 -46 -35.5 -74t-78.5 -28q-48 0 -79 28z" />
    <glyph glyph-name="Aogonek" unicode="&#x104;" horiz-adv-x="495" 
d="M339 11l-19 105q0 5 -6 5h-145q-6 0 -6 -4l-20 -106q-1 -11 -13 -11h-92q-13 0 -10 13l147 676q2 11 13 11h107q11 0 13 -11l148 -676v-4q0 -9 -11 -9h-93q-12 0 -13 11zM188 212h109q6 0 5 5l-55 302q-1 3 -3 3t-3 -3l-58 -302q-1 -5 5 -5zM459 -173q0 -7 -8 -10
q-22 -6 -41 -6q-37 0 -61.5 19.5t-24.5 66.5q0 52 46 97q6 6 15 6h48q4 0 7 -2t3 -4q0 -4 -5 -9q-38 -38 -38 -73l1 -8q4 -16 14.5 -23t24.5 -5h3q10 0 11 -9l5 -36v-4z" />
    <glyph glyph-name="aogonek" unicode="&#x105;" horiz-adv-x="600" 
d="M383 -124q10 0 11 -9l5 -36v-4q0 -7 -8 -10q-22 -6 -41 -6q-37 0 -61.5 19.5t-24.5 66.5q0 51 45 97q3 2 2 4t-4 2h-16q-5 0 -8.5 3.5t-3.5 8.5v18q0 3 -2 4t-4 -2q-36 -40 -101 -40q-57 0 -100.5 32.5t-43.5 118.5q0 90 52.5 128t142.5 38h51q5 0 5 5v26q0 36 -18 57.5
t-45 21.5q-21 0 -35 -13.5t-17 -36.5q-1 -12 -13 -12h-97q-12 0 -11 12q5 68 53.5 109t121.5 41q79 0 128 -46t49 -121v-343v-9h-1q-54 -46 -54 -87l1 -9q4 -17 14.5 -23.5t24.5 -4.5h3zM256.5 107q22.5 19 22.5 53v57q0 5 -5 5h-51q-35 0 -55.5 -18.5t-20.5 -53.5
q0 -31 16 -46.5t41 -15.5q30 0 52.5 19z" />
    <glyph glyph-name="Cacute" unicode="&#x106;" horiz-adv-x="457" 
d="M93.5 43.5q-51.5 51.5 -51.5 136.5v341q0 86 51.5 136.5t136.5 50.5q86 0 138 -50.5t52 -136.5v-12q0 -5 -3.5 -9t-8.5 -4l-93 -4q-12 0 -12 12v25q0 35 -20 57t-53 22q-32 0 -52 -22t-20 -57v-358q0 -35 20 -57t52 -22q33 0 53 22t20 57v25q0 5 3.5 8.5t8.5 3.5l93 -4
q5 0 8.5 -3.5t3.5 -8.5v-12q0 -85 -52 -136.5t-138 -51.5q-85 0 -136.5 51.5zM168 776q-3 4 1 10l59 103q4 8 15 8h84q8 0 10 -4.5t-2 -10.5l-74 -103q-5 -7 -14 -7h-69q-7 0 -10 4z" />
    <glyph glyph-name="cacute" unicode="&#x107;" horiz-adv-x="422" 
d="M85.5 36q-47.5 44 -47.5 119v202q0 73 47.5 117.5t129.5 44.5t130 -43.5t48 -110.5v-14q0 -5 -3.5 -8.5t-8.5 -3.5l-92 -4q-12 0 -12 11v11q0 25 -17.5 43.5t-44.5 18.5t-44 -20t-17 -51v-185q0 -31 17 -51t44 -20t44.5 18.5t17.5 44.5v10q0 5 3.5 8.5t8.5 3.5l92 -1
q5 0 8.5 -3.5t3.5 -8.5v-18q0 -69 -48 -111.5t-130 -42.5t-129.5 44zM153 590q-3 4 1 10l59 103q4 8 15 8h84q8 0 10 -4.5t-2 -10.5l-74 -103q-5 -7 -14 -7h-69q-7 0 -10 4z" />
    <glyph glyph-name="Cdotaccent" unicode="&#x10a;" horiz-adv-x="457" 
d="M93.5 43.5q-51.5 51.5 -51.5 136.5v341q0 86 51.5 136.5t136.5 50.5q86 0 138 -50.5t52 -136.5v-12q0 -5 -3.5 -9t-8.5 -4l-93 -4q-12 0 -12 12v25q0 35 -20 57t-53 22q-32 0 -52 -22t-20 -57v-358q0 -35 20 -57t52 -22q33 0 53 22t20 57v25q0 5 3.5 8.5t8.5 3.5l93 -4
q5 0 8.5 -3.5t3.5 -8.5v-12q0 -85 -52 -136.5t-138 -51.5q-85 0 -136.5 51.5zM189.5 782q-15.5 16 -15.5 42q0 25 15.5 41t40.5 16t39.5 -15.5t14.5 -41.5t-14.5 -42t-39.5 -16t-40.5 16z" />
    <glyph glyph-name="cdotaccent" unicode="&#x10b;" horiz-adv-x="422" 
d="M85.5 36q-47.5 44 -47.5 119v202q0 73 47.5 117.5t129.5 44.5t130 -43.5t48 -110.5v-14q0 -5 -3.5 -8.5t-8.5 -3.5l-92 -4q-12 0 -12 11v11q0 25 -17.5 43.5t-44.5 18.5t-44 -20t-17 -51v-185q0 -31 17 -51t44 -20t44.5 18.5t17.5 44.5v10q0 5 3.5 8.5t8.5 3.5l92 -1
q5 0 8.5 -3.5t3.5 -8.5v-18q0 -69 -48 -111.5t-130 -42.5t-129.5 44zM174.5 596q-15.5 16 -15.5 42q0 25 15.5 41t40.5 16t39.5 -15.5t14.5 -41.5t-14.5 -42t-39.5 -16t-40.5 16z" />
    <glyph glyph-name="Ccaron" unicode="&#x10c;" horiz-adv-x="457" 
d="M93.5 43.5q-51.5 51.5 -51.5 136.5v341q0 86 51.5 136.5t136.5 50.5q86 0 138 -50.5t52 -136.5v-12q0 -5 -3.5 -9t-8.5 -4l-93 -4q-12 0 -12 12v25q0 35 -20 57t-53 22q-32 0 -52 -22t-20 -57v-358q0 -35 20 -57t52 -22q33 0 53 22t20 57v25q0 5 3.5 8.5t8.5 3.5l93 -4
q5 0 8.5 -3.5t3.5 -8.5v-12q0 -85 -52 -136.5t-138 -51.5q-85 0 -136.5 51.5zM167 770l-65 103q-2 6 -2 7q0 7 10 7h67q10 0 14 -8l36 -62q2 -3 4 -3t3 3l35 62q5 8 15 8h62q7 0 9.5 -4.5t-1.5 -10.5l-67 -102q-5 -8 -14 -8h-92q-10 0 -14 8z" />
    <glyph glyph-name="ccaron" unicode="&#x10d;" horiz-adv-x="422" 
d="M85.5 36q-47.5 44 -47.5 119v202q0 73 47.5 117.5t129.5 44.5t130 -43.5t48 -110.5v-14q0 -5 -3.5 -8.5t-8.5 -3.5l-92 -4q-12 0 -12 11v11q0 25 -17.5 43.5t-44.5 18.5t-44 -20t-17 -51v-185q0 -31 17 -51t44 -20t44.5 18.5t17.5 44.5v10q0 5 3.5 8.5t8.5 3.5l92 -1
q5 0 8.5 -3.5t3.5 -8.5v-18q0 -69 -48 -111.5t-130 -42.5t-129.5 44zM152 584l-65 103q-2 6 -2 7q0 7 10 7h67q10 0 14 -8l36 -62q2 -3 4 -3t3 3l35 62q5 8 15 8h62q7 0 9.5 -4.5t-1.5 -10.5l-67 -102q-5 -8 -14 -8h-92q-10 0 -14 8z" />
    <glyph glyph-name="Dcaron" unicode="&#x10e;" horiz-adv-x="472" 
d="M57.5 3.5q-3.5 3.5 -3.5 8.5v676q0 5 3.5 8.5t8.5 3.5h171q86 0 137.5 -52t51.5 -139v-318q0 -87 -51.5 -139t-137.5 -52h-171q-5 0 -8.5 3.5zM175 100l60 1q33 0 53.5 26.5t21.5 70.5v304q0 45 -20.5 71.5t-55.5 26.5h-59q-5 0 -5 -5v-490q0 -5 5 -5zM168 763l-65 102
q-2 6 -2 7q0 7 10 7h67q10 0 14 -8l36 -61q1 -3 3 -3t4 3l35 61q5 8 15 8h62q7 0 9.5 -4.5t-1.5 -10.5l-67 -101q-5 -8 -14 -8h-92q-9 0 -14 8z" />
    <glyph glyph-name="dcaron" unicode="&#x10f;" horiz-adv-x="611" 
d="M278.5 696.5q3.5 3.5 8.5 3.5h92q5 0 8.5 -3.5t3.5 -8.5v-676q0 -5 -3.5 -8.5t-8.5 -3.5h-92q-5 0 -8.5 3.5t-3.5 8.5v16q0 3 -2 3.5t-4 -1.5q-35 -38 -92 -38q-65 0 -101 44t-38 118v204q2 75 38.5 118t100.5 43q57 0 92 -38q2 -2 4 -1.5t2 3.5v205q0 5 3.5 8.5z
M258 112q17 20 17 53v181q0 33 -17 53t-44 20t-44 -20t-17 -53v-181q0 -32 17 -52.5t44 -20.5t44 20zM434 579q-3 4 1 10l59 103q4 8 15 8h84q8 0 10 -4.5t-2 -10.5l-74 -103q-5 -7 -14 -7h-69q-7 0 -10 4z" />
    <glyph glyph-name="Dcroat" unicode="&#x110;" horiz-adv-x="507" 
d="M409.5 648q51.5 -52 51.5 -139v-318q0 -87 -51.5 -139t-137.5 -52h-171q-5 0 -8.5 3.5t-3.5 8.5v315q0 5 -5 5h-18q-5 0 -8.5 3.5t-3.5 8.5v44q0 5 3.5 8.5t8.5 3.5h18q5 0 5 5v283q0 5 3.5 8.5t8.5 3.5h171q86 0 137.5 -52zM345 502q0 45 -20.5 71.5t-55.5 26.5h-59
q-5 0 -5 -5v-190q0 -5 5 -5h50q5 0 8.5 -3.5t3.5 -8.5v-44q0 -5 -3.5 -8.5t-8.5 -3.5h-50q-5 0 -5 -5v-222q0 -5 5 -5l60 1q33 0 53.5 26.5t21.5 70.5v304z" />
    <glyph glyph-name="dcroat" unicode="&#x111;" horiz-adv-x="600" 
d="M438.5 627.5q3.5 -3.5 3.5 -8.5v-47q0 -5 -3.5 -8.5t-8.5 -3.5h-34q-5 0 -5 -5v-543q0 -5 -3.5 -8.5t-8.5 -3.5h-92q-5 0 -8.5 3.5t-3.5 8.5v16q0 3 -2 3.5t-4 -1.5q-35 -38 -92 -38q-65 0 -101 44t-38 118v204q2 75 38.5 118t100.5 43q57 0 92 -38q2 -2 4 -1.5t2 3.5v72
q0 5 -5 5h-105q-5 0 -8.5 3.5t-3.5 8.5v47q0 5 3.5 8.5t8.5 3.5h105q5 0 5 5v52q0 5 3.5 8.5t8.5 3.5h92q5 0 8.5 -3.5t3.5 -8.5v-52q0 -5 5 -5h34q5 0 8.5 -3.5zM258 112q17 20 17 53v181q0 33 -17 53t-44 20t-44 -20t-17 -53v-181q0 -32 17 -52.5t44 -20.5t44 20z" />
    <glyph glyph-name="Emacron" unicode="&#x112;" horiz-adv-x="435" 
d="M399.5 603.5q-3.5 -3.5 -8.5 -3.5h-216q-5 0 -5 -5v-189q0 -5 5 -5h128q5 0 8.5 -3.5t3.5 -8.5v-77q0 -5 -3.5 -8.5t-8.5 -3.5h-128q-5 0 -5 -5v-190q0 -5 5 -5h216q5 0 8.5 -3.5t3.5 -8.5v-76q0 -5 -3.5 -8.5t-8.5 -3.5h-325q-5 0 -8.5 3.5t-3.5 8.5v676q0 5 3.5 8.5
t8.5 3.5h325q5 0 8.5 -3.5t3.5 -8.5v-76q0 -5 -3.5 -8.5zM122.5 790.5q-3.5 3.5 -3.5 8.5v56q0 5 3.5 8.5t8.5 3.5h190q5 0 8.5 -3.5t3.5 -8.5v-56q0 -5 -3.5 -8.5t-8.5 -3.5h-190q-5 0 -8.5 3.5z" />
    <glyph glyph-name="emacron" unicode="&#x113;" horiz-adv-x="426" 
d="M389.5 215.5q-3.5 -3.5 -8.5 -3.5h-222q-5 0 -5 -5v-44q0 -32 17 -52t44 -20q23 0 39 15t22 38q3 11 13 10l90 -6q12 -2 11 -13q-8 -68 -52.5 -105.5t-122.5 -37.5q-82 0 -129.5 43.5t-47.5 118.5v203q0 73 47.5 117.5t129.5 44.5t130 -44.5t48 -117.5v-133
q0 -5 -3.5 -8.5zM171 399q-17 -20 -17 -51v-44q0 -5 5 -5h113q5 0 5 5v44q0 32 -17 51.5t-45 19.5q-27 0 -44 -20zM108.5 597.5q-3.5 3.5 -3.5 8.5v56q0 5 3.5 8.5t8.5 3.5h190q5 0 8.5 -3.5t3.5 -8.5v-56q0 -5 -3.5 -8.5t-8.5 -3.5h-190q-5 0 -8.5 3.5z" />
    <glyph glyph-name="Edotaccent" unicode="&#x116;" horiz-adv-x="435" 
d="M399.5 603.5q-3.5 -3.5 -8.5 -3.5h-216q-5 0 -5 -5v-189q0 -5 5 -5h128q5 0 8.5 -3.5t3.5 -8.5v-77q0 -5 -3.5 -8.5t-8.5 -3.5h-128q-5 0 -5 -5v-190q0 -5 5 -5h216q5 0 8.5 -3.5t3.5 -8.5v-76q0 -5 -3.5 -8.5t-8.5 -3.5h-325q-5 0 -8.5 3.5t-3.5 8.5v676q0 5 3.5 8.5
t8.5 3.5h325q5 0 8.5 -3.5t3.5 -8.5v-76q0 -5 -3.5 -8.5zM188.5 786q-15.5 16 -15.5 42q0 25 15.5 41t40.5 16t39.5 -15.5t14.5 -41.5t-14.5 -42t-39.5 -16t-40.5 16z" />
    <glyph glyph-name="edotaccent" unicode="&#x117;" horiz-adv-x="426" 
d="M389.5 215.5q-3.5 -3.5 -8.5 -3.5h-222q-5 0 -5 -5v-44q0 -32 17 -52t44 -20q23 0 39 15t22 38q3 11 13 10l90 -6q12 -2 11 -13q-8 -68 -52.5 -105.5t-122.5 -37.5q-82 0 -129.5 43.5t-47.5 118.5v203q0 73 47.5 117.5t129.5 44.5t130 -44.5t48 -117.5v-133
q0 -5 -3.5 -8.5zM171 399q-17 -20 -17 -51v-44q0 -5 5 -5h113q5 0 5 5v44q0 32 -17 51.5t-45 19.5q-27 0 -44 -20zM174.5 593q-15.5 16 -15.5 42q0 25 15.5 41t40.5 16t39.5 -15.5t14.5 -41.5t-14.5 -42t-39.5 -16t-40.5 16z" />
    <glyph glyph-name="Eogonek" unicode="&#x118;" horiz-adv-x="435" 
d="M399.5 603.5q-3.5 -3.5 -8.5 -3.5h-216q-5 0 -5 -5v-189q0 -5 5 -5h128q5 0 8.5 -3.5t3.5 -8.5v-77q0 -5 -3.5 -8.5t-8.5 -3.5h-128q-5 0 -5 -5v-190q0 -5 5 -5h216q5 0 8.5 -3.5t3.5 -8.5v-76q0 -5 -3.5 -8.5t-8.5 -3.5h-125q-4 0 -7 -3q-42 -40 -42 -75q0 -22 12 -31.5
t28 -6.5h3q10 0 11 -9l5 -36v-4q0 -7 -8 -10q-22 -6 -41 -6q-37 0 -61.5 19.5t-24.5 66.5t38 89q2 2 1.5 4t-3.5 2h-111q-5 0 -8.5 3.5t-3.5 8.5v676q0 5 3.5 8.5t8.5 3.5h325q5 0 8.5 -3.5t3.5 -8.5v-76q0 -5 -3.5 -8.5z" />
    <glyph glyph-name="eogonek" unicode="&#x119;" horiz-adv-x="426" 
d="M389.5 215.5q-3.5 -3.5 -8.5 -3.5h-222q-5 0 -5 -5v-44q0 -32 17 -52t44 -20q23 0 39 15t22 38q3 11 13 10l90 -6q12 -2 11 -13q-7 -57 -39.5 -93t-89.5 -46l-6 -3q-46 -43 -46 -80q0 -22 12 -31t28 -6h3q10 0 11 -9l5 -36v-4q0 -7 -8 -10q-22 -6 -41 -6
q-37 0 -61.5 19.5t-24.5 66.5q0 48 41 92q4 4 -2 6q-63 11 -98.5 52.5t-35.5 106.5v203q0 73 47.5 117.5t129.5 44.5t130 -44.5t48 -117.5v-133q0 -5 -3.5 -8.5zM171 399q-17 -20 -17 -51v-44q0 -5 5 -5h113q5 0 5 5v44q0 32 -17 51.5t-45 19.5q-27 0 -44 -20z" />
    <glyph glyph-name="Ecaron" unicode="&#x11a;" horiz-adv-x="435" 
d="M399.5 603.5q-3.5 -3.5 -8.5 -3.5h-216q-5 0 -5 -5v-189q0 -5 5 -5h128q5 0 8.5 -3.5t3.5 -8.5v-77q0 -5 -3.5 -8.5t-8.5 -3.5h-128q-5 0 -5 -5v-190q0 -5 5 -5h216q5 0 8.5 -3.5t3.5 -8.5v-76q0 -5 -3.5 -8.5t-8.5 -3.5h-325q-5 0 -8.5 3.5t-3.5 8.5v676q0 5 3.5 8.5
t8.5 3.5h325q5 0 8.5 -3.5t3.5 -8.5v-76q0 -5 -3.5 -8.5zM166 774l-65 103q-2 6 -2 7q0 7 10 7h67q10 0 14 -8l36 -62q2 -3 4 -3t3 3l35 62q5 8 15 8h62q7 0 9.5 -4.5t-1.5 -10.5l-67 -102q-5 -8 -14 -8h-92q-10 0 -14 8z" />
    <glyph glyph-name="ecaron" unicode="&#x11b;" horiz-adv-x="426" 
d="M389.5 215.5q-3.5 -3.5 -8.5 -3.5h-222q-5 0 -5 -5v-44q0 -32 17 -52t44 -20q23 0 39 15t22 38q3 11 13 10l90 -6q12 -2 11 -13q-8 -68 -52.5 -105.5t-122.5 -37.5q-82 0 -129.5 43.5t-47.5 118.5v203q0 73 47.5 117.5t129.5 44.5t130 -44.5t48 -117.5v-133
q0 -5 -3.5 -8.5zM171 399q-17 -20 -17 -51v-44q0 -5 5 -5h113q5 0 5 5v44q0 32 -17 51.5t-45 19.5q-27 0 -44 -20zM152 577l-65 102q-2 6 -2 7q0 7 10 7h67q10 0 14 -8l36 -61q1 -3 3 -3t4 3l35 61q5 8 15 8h62q7 0 9.5 -4.5t-1.5 -10.5l-67 -101q-5 -8 -14 -8h-92
q-9 0 -14 8z" />
    <glyph glyph-name="Gbreve" unicode="&#x11e;" horiz-adv-x="457" 
d="M93.5 41.5q-51.5 49.5 -51.5 131.5v354q0 82 51.5 131.5t136.5 49.5t137.5 -49.5t52.5 -132.5v-39q0 -5 -3.5 -8.5t-8.5 -3.5h-92q-5 0 -8.5 3.5t-3.5 8.5v41q0 36 -20.5 58t-53.5 22t-53 -22t-20 -58v-356q0 -36 20 -58t53 -22t53.5 22t20.5 58v96q0 5 -5 5h-61
q-5 0 -8.5 3.5t-3.5 8.5v73q0 5 3.5 8.5t8.5 3.5h170q5 0 8.5 -3.5t3.5 -8.5v-185q0 -82 -52.5 -131.5t-137.5 -49.5t-136.5 49.5zM151 777q-31 28 -35 74v2q0 10 11 10h39q12 0 13 -12q3 -22 17 -35.5t34 -13.5t34 13.5t17 35.5q2 12 13 12h39q13 0 11 -12
q-4 -46 -35.5 -74t-78.5 -28q-48 0 -79 28z" />
    <glyph glyph-name="gbreve" unicode="&#x11f;" horiz-adv-x="431" 
d="M278.5 507.5q3.5 3.5 8.5 3.5h92q5 0 8.5 -3.5t3.5 -8.5v-480q0 -108 -49 -166.5t-175 -58.5q-22 0 -33 1q-12 1 -12 13v77q0 13 13 11q57 -1 87.5 14t41.5 44t11 76v11q0 3 -2 3.5t-4 -2.5q-33 -43 -94 -43q-67 0 -102 43.5t-35 118.5v196q0 77 35.5 119.5t101.5 42.5
q61 0 94 -43q2 -3 4 -2.5t2 3.5v22q0 5 3.5 8.5zM258.5 118.5q16.5 19.5 16.5 50.5v179q0 32 -16.5 51.5t-43.5 19.5t-44 -20t-17 -51v-179q0 -31 17 -50.5t44 -19.5t43.5 19.5zM137 584q-31 28 -35 74v2q0 10 11 10h39q12 0 13 -12q3 -22 17 -35.5t34 -13.5t34 13.5
t17 35.5q2 12 13 12h39q13 0 11 -12q-4 -46 -35.5 -74t-78.5 -28q-48 0 -79 28z" />
    <glyph glyph-name="Gdotaccent" unicode="&#x120;" horiz-adv-x="457" 
d="M93.5 41.5q-51.5 49.5 -51.5 131.5v354q0 82 51.5 131.5t136.5 49.5t137.5 -49.5t52.5 -132.5v-39q0 -5 -3.5 -8.5t-8.5 -3.5h-92q-5 0 -8.5 3.5t-3.5 8.5v41q0 36 -20.5 58t-53.5 22t-53 -22t-20 -58v-356q0 -36 20 -58t53 -22t53.5 22t20.5 58v96q0 5 -5 5h-61
q-5 0 -8.5 3.5t-3.5 8.5v73q0 5 3.5 8.5t8.5 3.5h170q5 0 8.5 -3.5t3.5 -8.5v-185q0 -82 -52.5 -131.5t-137.5 -49.5t-136.5 49.5zM189.5 782q-15.5 16 -15.5 42q0 25 15.5 41t40.5 16t39.5 -15.5t14.5 -41.5t-14.5 -42t-39.5 -16t-40.5 16z" />
    <glyph glyph-name="gdotaccent" unicode="&#x121;" horiz-adv-x="431" 
d="M278.5 507.5q3.5 3.5 8.5 3.5h92q5 0 8.5 -3.5t3.5 -8.5v-480q0 -108 -49 -166.5t-175 -58.5q-22 0 -33 1q-12 1 -12 13v77q0 13 13 11q57 -1 87.5 14t41.5 44t11 76v11q0 3 -2 3.5t-4 -2.5q-33 -43 -94 -43q-67 0 -102 43.5t-35 118.5v196q0 77 35.5 119.5t101.5 42.5
q61 0 94 -43q2 -3 4 -2.5t2 3.5v22q0 5 3.5 8.5zM258.5 118.5q16.5 19.5 16.5 50.5v179q0 32 -16.5 51.5t-43.5 19.5t-44 -20t-17 -51v-179q0 -31 17 -50.5t44 -19.5t43.5 19.5zM175.5 589q-15.5 16 -15.5 42q0 25 15.5 41t40.5 16t39.5 -15.5t14.5 -41.5t-14.5 -42
t-39.5 -16t-40.5 16z" />
    <glyph glyph-name="uni0122" unicode="&#x122;" horiz-adv-x="457" 
d="M93.5 41.5q-51.5 49.5 -51.5 131.5v354q0 82 51.5 131.5t136.5 49.5t137.5 -49.5t52.5 -132.5v-39q0 -5 -3.5 -8.5t-8.5 -3.5h-92q-5 0 -8.5 3.5t-3.5 8.5v41q0 36 -20.5 58t-53.5 22t-53 -22t-20 -58v-356q0 -36 20 -58t53 -22t53.5 22t20.5 58v96q0 5 -5 5h-61
q-5 0 -8.5 3.5t-3.5 8.5v73q0 5 3.5 8.5t8.5 3.5h170q5 0 8.5 -3.5t3.5 -8.5v-185q0 -82 -52.5 -131.5t-137.5 -49.5t-136.5 49.5zM152 -183q-3 4 1 10l59 103q4 8 15 8h84q8 0 10 -4.5t-2 -10.5l-74 -103q-5 -7 -14 -7h-69q-7 0 -10 4z" />
    <glyph glyph-name="uni0123" unicode="&#x123;" horiz-adv-x="431" 
d="M290 690q3 -4 -1 -10l-59 -103q-4 -8 -15 -8h-84q-8 0 -10 4.5t2 10.5l74 103q5 7 14 7h69q7 0 10 -4zM278.5 507.5q3.5 3.5 8.5 3.5h92q5 0 8.5 -3.5t3.5 -8.5v-480q0 -108 -49 -166.5t-175 -58.5q-22 0 -33 1q-12 1 -12 13v77q0 13 13 11q57 -1 87.5 14t41.5 44t11 76
v11q0 3 -2 3.5t-4 -2.5q-33 -43 -94 -43q-67 0 -102 43.5t-35 118.5v196q0 77 35.5 119.5t101.5 42.5q61 0 94 -43q2 -3 4 -2.5t2 3.5v22q0 5 3.5 8.5zM258.5 118.5q16.5 19.5 16.5 50.5v179q0 32 -16.5 51.5t-43.5 19.5t-44 -20t-17 -51v-179q0 -31 17 -50.5t44 -19.5
t43.5 19.5z" />
    <glyph glyph-name="Hbar" unicode="&#x126;" horiz-adv-x="477" 
d="M467.5 582.5q3.5 -3.5 3.5 -8.5v-55q0 -5 -3.5 -8.5t-8.5 -3.5h-31q-5 0 -5 -5v-490q0 -5 -3.5 -8.5t-8.5 -3.5h-92q-5 0 -8.5 3.5t-3.5 8.5v283q0 5 -5 5h-127q-5 0 -5 -5v-283q0 -5 -3.5 -8.5t-8.5 -3.5h-92q-5 0 -8.5 3.5t-3.5 8.5v490q0 5 -5 5h-30q-5 0 -8.5 3.5
t-3.5 8.5v55q0 5 3.5 8.5t8.5 3.5h30q5 0 5 5v97q0 5 3.5 8.5t8.5 3.5h92q5 0 8.5 -3.5t3.5 -8.5v-97q0 -5 5 -5h127q5 0 5 5v97q0 5 3.5 8.5t8.5 3.5h92q5 0 8.5 -3.5t3.5 -8.5v-97q0 -5 5 -5h31q5 0 8.5 -3.5zM307 406v96q0 5 -5 5h-127q-5 0 -5 -5v-96q0 -5 5 -5h127
q5 0 5 5z" />
    <glyph glyph-name="hbar" unicode="&#x127;" 
d="M363.5 475.5q33.5 -43.5 33.5 -123.5v-340q0 -5 -3.5 -8.5t-8.5 -3.5h-92q-5 0 -8.5 3.5t-3.5 8.5v331q0 36 -15 56t-43 20q-29 0 -45 -21t-16 -58v-328q0 -5 -3.5 -8.5t-8.5 -3.5h-92q-5 0 -8.5 3.5t-3.5 8.5v534q0 5 -5 5h-35q-5 0 -8.5 3.5t-3.5 8.5v47q0 5 3.5 8.5
t8.5 3.5h35q5 0 5 5v61q0 5 3.5 8.5t8.5 3.5h92q5 0 8.5 -3.5t3.5 -8.5v-61q0 -5 5 -5h104q5 0 8.5 -3.5t3.5 -8.5v-47q0 -5 -3.5 -8.5t-8.5 -3.5h-104q-5 0 -5 -5v-67q0 -3 2.5 -3.5t5.5 3.5q34 40 95 40q65 0 98.5 -43.5z" />
    <glyph glyph-name="Imacron" unicode="&#x12a;" horiz-adv-x="224" 
d="M57.5 3.5q-3.5 3.5 -3.5 8.5v676q0 5 3.5 8.5t8.5 3.5h92q5 0 8.5 -3.5t3.5 -8.5v-676q0 -5 -3.5 -8.5t-8.5 -3.5h-92q-5 0 -8.5 3.5zM5.5 790.5q-3.5 3.5 -3.5 8.5v56q0 5 3.5 8.5t8.5 3.5h190q5 0 8.5 -3.5t3.5 -8.5v-56q0 -5 -3.5 -8.5t-8.5 -3.5h-190q-5 0 -8.5 3.5z
" />
    <glyph glyph-name="imacron" unicode="&#x12b;" horiz-adv-x="207" 
d="M47.5 3.5q-3.5 3.5 -3.5 8.5v487q0 5 3.5 8.5t8.5 3.5h92q5 0 8.5 -3.5t3.5 -8.5v-487q0 -5 -3.5 -8.5t-8.5 -3.5h-92q-5 0 -8.5 3.5zM-4.5 601.5q-3.5 3.5 -3.5 8.5v56q0 5 3.5 8.5t8.5 3.5h190q5 0 8.5 -3.5t3.5 -8.5v-56q0 -5 -3.5 -8.5t-8.5 -3.5h-190q-5 0 -8.5 3.5
z" />
    <glyph glyph-name="Iogonek" unicode="&#x12e;" horiz-adv-x="258" 
d="M80.5 3.5q-3.5 3.5 -3.5 8.5v676q0 5 3.5 8.5t8.5 3.5h92q5 0 8.5 -3.5t3.5 -8.5v-676q0 -5 -3.5 -8.5t-8.5 -3.5h-92q-5 0 -8.5 3.5zM198 -173q0 -7 -8 -10q-22 -6 -41 -6q-37 0 -61.5 19.5t-24.5 66.5q0 52 46 97q6 6 15 6h48q4 0 7 -2t3 -4q0 -4 -5 -9
q-38 -38 -38 -73l1 -8q4 -16 14.5 -23t24.5 -5h3q10 0 11 -9l5 -36v-4z" />
    <glyph glyph-name="iogonek" unicode="&#x12f;" horiz-adv-x="227" 
d="M65.5 3.5q-3.5 3.5 -3.5 8.5v487q0 5 3.5 8.5t8.5 3.5h92q5 0 8.5 -3.5t3.5 -8.5v-487q0 -5 -3.5 -8.5t-8.5 -3.5h-92q-5 0 -8.5 3.5zM79.5 596q-15.5 16 -15.5 42q0 25 15.5 41t40.5 16t39.5 -15.5t14.5 -41.5t-14.5 -42t-39.5 -16t-40.5 16zM182 -173q0 -7 -8 -10
q-22 -6 -41 -6q-37 0 -61.5 19.5t-24.5 66.5q0 52 46 97q6 6 15 6h48q4 0 7 -2t3 -4q0 -4 -5 -9q-38 -38 -38 -73l1 -8q4 -16 14.5 -23t24.5 -5h3q10 0 11 -9l5 -36v-4z" />
    <glyph glyph-name="Idotaccent" unicode="&#x130;" horiz-adv-x="224" 
d="M57.5 3.5q-3.5 3.5 -3.5 8.5v676q0 5 3.5 8.5t8.5 3.5h92q5 0 8.5 -3.5t3.5 -8.5v-676q0 -5 -3.5 -8.5t-8.5 -3.5h-92q-5 0 -8.5 3.5zM71.5 786q-15.5 16 -15.5 42q0 25 15.5 41t40.5 16t39.5 -15.5t14.5 -41.5t-14.5 -42t-39.5 -16t-40.5 16z" />
    <glyph glyph-name="dotlessi" unicode="&#x131;" horiz-adv-x="207" 
d="M47.5 3.5q-3.5 3.5 -3.5 8.5v487q0 5 3.5 8.5t8.5 3.5h92q5 0 8.5 -3.5t3.5 -8.5v-487q0 -5 -3.5 -8.5t-8.5 -3.5h-92q-5 0 -8.5 3.5z" />
    <glyph glyph-name="ij" unicode="&#x133;" horiz-adv-x="420" 
d="M58.5 595q-19.5 20 -19.5 52t19.5 52t50.5 20t50.5 -20t19.5 -52t-19.5 -52t-50.5 -20t-50.5 20zM54.5 3.5q-3.5 3.5 -3.5 8.5v487q0 5 3.5 8.5t8.5 3.5h92q5 0 8.5 -3.5t3.5 -8.5v-487q0 -5 -3.5 -8.5t-8.5 -3.5h-92q-5 0 -8.5 3.5zM265.5 596.5q-19.5 20.5 -19.5 51.5
q0 30 21 51t49 21t49 -21t21 -51q0 -31 -19.5 -51.5t-50.5 -20.5t-50.5 20.5zM165 -193v75q0 12 12 12q44 1 62.5 24t18.5 66v515q0 5 3.5 8.5t8.5 3.5h92q5 0 8.5 -3.5t3.5 -8.5v-515q0 -67 -13 -106.5t-56 -61.5t-128 -21q-12 0 -12 12z" />
    <glyph glyph-name="uni0136" unicode="&#x136;" horiz-adv-x="477" 
d="M57.5 3.5q-3.5 3.5 -3.5 8.5v676q0 5 3.5 8.5t8.5 3.5h92q5 0 8.5 -3.5t3.5 -8.5v-276q0 -4 2 -4.5t4 2.5l150 281q5 9 15 9h99q7 0 9 -4t-1 -10l-150 -281q-1 -4 -1 -6l162 -385q1 -2 1 -6q0 -8 -10 -8h-99q-11 0 -14 9l-118 289q-1 3 -3 2.5t-4 -2.5l-40 -67
q-2 -4 -2 -6v-213q0 -5 -3.5 -8.5t-8.5 -3.5h-92q-5 0 -8.5 3.5zM185 -175q-3 4 1 10l59 103q4 8 15 8h84q8 0 10 -4.5t-2 -10.5l-74 -103q-5 -7 -14 -7h-69q-7 0 -10 4z" />
    <glyph glyph-name="uni0137" unicode="&#x137;" horiz-adv-x="433" 
d="M49.5 3.5q-3.5 3.5 -3.5 8.5v676q0 5 3.5 8.5t8.5 3.5h92q5 0 8.5 -3.5t3.5 -8.5v-356q0 -4 2 -4t4 3l109 172q4 8 14 8h96q7 0 9 -4.5t-2 -10.5l-104 -157q-2 -4 -1 -7l120 -318q1 -2 1 -5q0 -9 -11 -9h-95q-10 0 -13 10l-74 226q-1 3 -3 3.5t-3 -2.5l-47 -70
q-2 -4 -2 -6v-149q0 -5 -3.5 -8.5t-8.5 -3.5h-92q-5 0 -8.5 3.5zM151 -175q-3 4 1 10l59 103q4 8 15 8h84q8 0 10 -4.5t-2 -10.5l-74 -103q-5 -7 -14 -7h-69q-7 0 -10 4z" />
    <glyph glyph-name="Lacute" unicode="&#x139;" horiz-adv-x="415" 
d="M57.5 3.5q-3.5 3.5 -3.5 8.5v676q0 5 3.5 8.5t8.5 3.5h92q5 0 8.5 -3.5t3.5 -8.5v-583q0 -5 5 -5h216q5 0 8.5 -3.5t3.5 -8.5v-76q0 -5 -3.5 -8.5t-8.5 -3.5h-325q-5 0 -8.5 3.5zM52 768q-3 4 1 10l59 103q4 8 15 8h84q8 0 10 -4.5t-2 -10.5l-74 -103q-5 -7 -14 -7h-69
q-7 0 -10 4z" />
    <glyph glyph-name="lacute" unicode="&#x13a;" horiz-adv-x="199" 
d="M45.5 3.5q-3.5 3.5 -3.5 8.5v676q0 5 3.5 8.5t8.5 3.5h92q5 0 8.5 -3.5t3.5 -8.5v-676q0 -5 -3.5 -8.5t-8.5 -3.5h-92q-5 0 -8.5 3.5zM39 768q-3 4 1 10l59 103q4 8 15 8h84q8 0 10 -4.5t-2 -10.5l-74 -103q-5 -7 -14 -7h-69q-7 0 -10 4z" />
    <glyph glyph-name="uni013B" unicode="&#x13b;" horiz-adv-x="415" 
d="M57.5 3.5q-3.5 3.5 -3.5 8.5v676q0 5 3.5 8.5t8.5 3.5h92q5 0 8.5 -3.5t3.5 -8.5v-583q0 -5 5 -5h216q5 0 8.5 -3.5t3.5 -8.5v-76q0 -5 -3.5 -8.5t-8.5 -3.5h-325q-5 0 -8.5 3.5zM128 -175q-3 4 1 10l59 103q4 8 15 8h84q8 0 10 -4.5t-2 -10.5l-74 -103q-5 -7 -14 -7h-69
q-7 0 -10 4z" />
    <glyph glyph-name="uni013C" unicode="&#x13c;" horiz-adv-x="199" 
d="M45.5 3.5q-3.5 3.5 -3.5 8.5v676q0 5 3.5 8.5t8.5 3.5h92q5 0 8.5 -3.5t3.5 -8.5v-676q0 -5 -3.5 -8.5t-8.5 -3.5h-92q-5 0 -8.5 3.5zM-24 -175q-3 4 1 10l59 103q4 8 15 8h84q8 0 10 -4.5t-2 -10.5l-74 -103q-5 -7 -14 -7h-69q-7 0 -10 4z" />
    <glyph glyph-name="Lcaron" unicode="&#x13d;" horiz-adv-x="415" 
d="M57.5 3.5q-3.5 3.5 -3.5 8.5v676q0 5 3.5 8.5t8.5 3.5h92q5 0 8.5 -3.5t3.5 -8.5v-583q0 -5 5 -5h216q5 0 8.5 -3.5t3.5 -8.5v-76q0 -5 -3.5 -8.5t-8.5 -3.5h-325q-5 0 -8.5 3.5zM51 758l-65 102q-2 6 -2 7q0 7 10 7h67q10 0 14 -8l36 -61q1 -3 3 -3t4 3l35 61q5 8 15 8
h62q7 0 9.5 -4.5t-1.5 -10.5l-67 -101q-5 -8 -14 -8h-92q-9 0 -14 8z" />
    <glyph glyph-name="lcaron" unicode="&#x13e;" horiz-adv-x="199" 
d="M45.5 3.5q-3.5 3.5 -3.5 8.5v676q0 5 3.5 8.5t8.5 3.5h92q5 0 8.5 -3.5t3.5 -8.5v-676q0 -5 -3.5 -8.5t-8.5 -3.5h-92q-5 0 -8.5 3.5zM38 758l-65 102q-2 6 -2 7q0 7 10 7h67q10 0 14 -8l36 -61q1 -3 3 -3t4 3l35 61q5 8 15 8h62q7 0 9.5 -4.5t-1.5 -10.5l-67 -101
q-5 -8 -14 -8h-92q-9 0 -14 8z" />
    <glyph glyph-name="Lslash" unicode="&#x141;" horiz-adv-x="415" 
d="M175 100h216q5 0 8.5 -3.5t3.5 -8.5v-76q0 -5 -3.5 -8.5t-8.5 -3.5h-325q-5 0 -8.5 3.5t-3.5 8.5v193q0 3 -2 4t-4 -1l-52 -41q-4 -3 -8 -3t-9 5l-41 50q-3 5 -3 8q0 4 5 9l111 88q3 2 3 6v358q0 5 3.5 8.5t8.5 3.5h92q5 0 8.5 -3.5t3.5 -8.5v-261q0 -3 2 -4t4 1l129 102
q5 3 8 3q4 0 9 -5l42 -50q3 -4 3 -8t-5 -9l-189 -150q-3 -1 -3 -6v-196q0 -5 5 -5z" />
    <glyph glyph-name="lslash" unicode="&#x142;" horiz-adv-x="199" 
d="M274 390q0 -5 -7 -10l-106 -59q-3 -2 -3 -6v-303q0 -5 -3.5 -8.5t-8.5 -3.5h-92q-5 0 -8.5 3.5t-3.5 8.5v235q0 3 -2 4t-4 0l-35 -20q-4 -2 -7 -2q-7 0 -10 7l-29 55q-1 2 -1 6q0 6 6 10l79 44q3 2 3 6v331q0 5 3.5 8.5t8.5 3.5h92q5 0 8.5 -3.5t3.5 -8.5v-262q0 -3 2 -4
t4 0l61 34q4 2 6 2q5 0 10 -6l31 -56q2 -4 2 -6z" />
    <glyph glyph-name="Nacute" unicode="&#x143;" horiz-adv-x="507" 
d="M58.5 3.5q-3.5 3.5 -3.5 8.5v676q0 5 3.5 8.5t8.5 3.5h96q11 0 14 -9l155 -407q2 -3 4 -3t2 4v403q0 5 3.5 8.5t8.5 3.5h91q5 0 8.5 -3.5t3.5 -8.5v-676q0 -5 -3.5 -8.5t-8.5 -3.5h-97q-11 0 -14 9l-156 408q-1 3 -3.5 2.5t-2.5 -3.5l1 -404q0 -5 -3.5 -8.5t-8.5 -3.5
h-90q-5 0 -8.5 3.5zM191 780q-3 4 1 10l59 103q4 8 15 8h84q8 0 10 -4.5t-2 -10.5l-74 -103q-5 -7 -14 -7h-69q-7 0 -10 4z" />
    <glyph glyph-name="nacute" unicode="&#x144;" 
d="M363.5 475.5q33.5 -43.5 33.5 -123.5v-340q0 -5 -3.5 -8.5t-8.5 -3.5h-92q-5 0 -8.5 3.5t-3.5 8.5v331q0 36 -15 56t-43 20q-29 0 -45 -21t-16 -58v-328q0 -5 -3.5 -8.5t-8.5 -3.5h-92q-5 0 -8.5 3.5t-3.5 8.5v487q0 5 3.5 8.5t8.5 3.5h92q5 0 8.5 -3.5t3.5 -8.5v-20
q0 -3 2.5 -3.5t5.5 3.5q34 40 95 40q65 0 98.5 -43.5zM161 582q-3 4 1 10l59 103q4 8 15 8h84q8 0 10 -4.5t-2 -10.5l-74 -103q-5 -7 -14 -7h-69q-7 0 -10 4z" />
    <glyph glyph-name="uni0145" unicode="&#x145;" horiz-adv-x="507" 
d="M58.5 3.5q-3.5 3.5 -3.5 8.5v676q0 5 3.5 8.5t8.5 3.5h96q11 0 14 -9l155 -407q2 -3 4 -3t2 4v403q0 5 3.5 8.5t8.5 3.5h91q5 0 8.5 -3.5t3.5 -8.5v-676q0 -5 -3.5 -8.5t-8.5 -3.5h-97q-11 0 -14 9l-156 408q-1 3 -3.5 2.5t-2.5 -3.5l1 -404q0 -5 -3.5 -8.5t-8.5 -3.5
h-90q-5 0 -8.5 3.5zM185 -175q-3 4 1 10l59 103q4 8 15 8h84q8 0 10 -4.5t-2 -10.5l-74 -103q-5 -7 -14 -7h-69q-7 0 -10 4z" />
    <glyph glyph-name="uni0146" unicode="&#x146;" 
d="M363.5 475.5q33.5 -43.5 33.5 -123.5v-340q0 -5 -3.5 -8.5t-8.5 -3.5h-92q-5 0 -8.5 3.5t-3.5 8.5v331q0 36 -15 56t-43 20q-29 0 -45 -21t-16 -58v-328q0 -5 -3.5 -8.5t-8.5 -3.5h-92q-5 0 -8.5 3.5t-3.5 8.5v487q0 5 3.5 8.5t8.5 3.5h92q5 0 8.5 -3.5t3.5 -8.5v-20
q0 -3 2.5 -3.5t5.5 3.5q34 40 95 40q65 0 98.5 -43.5zM150 -175q-3 4 1 10l59 103q4 8 15 8h84q8 0 10 -4.5t-2 -10.5l-74 -103q-5 -7 -14 -7h-69q-7 0 -10 4z" />
    <glyph glyph-name="Ncaron" unicode="&#x147;" horiz-adv-x="507" 
d="M58.5 3.5q-3.5 3.5 -3.5 8.5v676q0 5 3.5 8.5t8.5 3.5h96q11 0 14 -9l155 -407q2 -3 4 -3t2 4v403q0 5 3.5 8.5t8.5 3.5h91q5 0 8.5 -3.5t3.5 -8.5v-676q0 -5 -3.5 -8.5t-8.5 -3.5h-97q-11 0 -14 9l-156 408q-1 3 -3.5 2.5t-2.5 -3.5l1 -404q0 -5 -3.5 -8.5t-8.5 -3.5
h-90q-5 0 -8.5 3.5zM190 774l-65 103q-2 6 -2 7q0 7 10 7h67q10 0 14 -8l36 -62q2 -3 4 -3t3 3l35 62q5 8 15 8h62q7 0 9.5 -4.5t-1.5 -10.5l-67 -102q-5 -8 -14 -8h-92q-10 0 -14 8z" />
    <glyph glyph-name="ncaron" unicode="&#x148;" 
d="M363.5 475.5q33.5 -43.5 33.5 -123.5v-340q0 -5 -3.5 -8.5t-8.5 -3.5h-92q-5 0 -8.5 3.5t-3.5 8.5v331q0 36 -15 56t-43 20q-29 0 -45 -21t-16 -58v-328q0 -5 -3.5 -8.5t-8.5 -3.5h-92q-5 0 -8.5 3.5t-3.5 8.5v487q0 5 3.5 8.5t8.5 3.5h92q5 0 8.5 -3.5t3.5 -8.5v-20
q0 -3 2.5 -3.5t5.5 3.5q34 40 95 40q65 0 98.5 -43.5zM160 576l-65 103q-2 6 -2 7q0 7 10 7h67q10 0 14 -8l36 -62q2 -3 4 -3t3 3l35 62q5 8 15 8h62q7 0 9.5 -4.5t-1.5 -10.5l-67 -102q-5 -8 -14 -8h-92q-10 0 -14 8z" />
    <glyph glyph-name="Eng" unicode="&#x14a;" horiz-adv-x="507" 
d="M341.5 696.5q3.5 3.5 8.5 3.5h91q5 0 8.5 -3.5t3.5 -8.5v-688q0 -66 -10.5 -102t-49 -56t-121.5 -19q-12 0 -12 12l-1 76q0 12 13 12q28 0 39.5 10.5t13 25t1.5 53.5v6l-1 6l-151 393q-2 3 -4 3t-2 -4l1 -404q0 -5 -3.5 -8.5t-8.5 -3.5h-90q-5 0 -8.5 3.5t-3.5 8.5v676
q0 5 3.5 8.5t8.5 3.5h96q11 0 14 -9l143 -376q1 -3 3.5 -2.5t2.5 3.5v42q0 12 6 12h1q5 0 5 5v313q0 5 3.5 8.5z" />
    <glyph glyph-name="eng" unicode="&#x14b;" 
d="M363.5 475.5q33.5 -43.5 33.5 -123.5v-352q0 -61 -10.5 -97.5t-49 -59t-118.5 -22.5q-15 0 -15 12v74q0 12 12 12q41 1 53 22t12 65v337q0 36 -15 56t-43 20q-29 0 -45 -21t-16 -58v-328q0 -5 -3.5 -8.5t-8.5 -3.5h-92q-5 0 -8.5 3.5t-3.5 8.5v487q0 5 3.5 8.5t8.5 3.5
h92q5 0 8.5 -3.5t3.5 -8.5v-20q0 -3 2.5 -3.5t5.5 3.5q34 40 95 40q65 0 98.5 -43.5z" />
    <glyph glyph-name="Omacron" unicode="&#x14c;" horiz-adv-x="467" 
d="M94.5 44q-52.5 52 -52.5 138v336q0 86 52.5 138t138.5 52t139 -52t53 -138v-336q0 -86 -53 -138t-139 -52t-138.5 52zM288 115.5q21 23.5 21 61.5v346q0 38 -21 61.5t-55 23.5t-54.5 -23.5t-20.5 -61.5v-346q0 -38 20.5 -61.5t54.5 -23.5t55 23.5zM126.5 782.5
q-3.5 3.5 -3.5 8.5v56q0 5 3.5 8.5t8.5 3.5h190q5 0 8.5 -3.5t3.5 -8.5v-56q0 -5 -3.5 -8.5t-8.5 -3.5h-190q-5 0 -8.5 3.5z" />
    <glyph glyph-name="omacron" unicode="&#x14d;" horiz-adv-x="432" 
d="M85.5 35.5q-47.5 43.5 -47.5 118.5v203q0 73 48 117.5t130 44.5q83 0 131 -44.5t48 -117.5v-203q0 -75 -47.5 -118.5t-131.5 -43.5q-83 0 -130.5 43.5zM261.5 112q17.5 20 17.5 51v185q0 31 -17.5 51t-45.5 20t-45 -19.5t-17 -51.5v-185q0 -32 17 -51.5t45 -19.5t45.5 20
zM109.5 597.5q-3.5 3.5 -3.5 8.5v56q0 5 3.5 8.5t8.5 3.5h190q5 0 8.5 -3.5t3.5 -8.5v-56q0 -5 -3.5 -8.5t-8.5 -3.5h-190q-5 0 -8.5 3.5z" />
    <glyph glyph-name="Ohungarumlaut" unicode="&#x150;" horiz-adv-x="467" 
d="M94.5 44q-52.5 52 -52.5 138v336q0 86 52.5 138t138.5 52t139 -52t53 -138v-336q0 -86 -53 -138t-139 -52t-138.5 52zM288 115.5q21 23.5 21 61.5v346q0 38 -21 61.5t-55 23.5t-54.5 -23.5t-20.5 -61.5v-346q0 -38 20.5 -61.5t54.5 -23.5t55 23.5zM122.5 769.5
q-2.5 3.5 0.5 10.5l50 102q4 9 14 9h75q7 0 9 -4t-1 -10l-54 -102q-5 -9 -15 -9h-69q-7 0 -9.5 3.5zM269 770q-2 4 1 10l54 102q4 9 15 9h70q7 0 9 -4t-1 -10l-55 -103q-4 -8 -15 -8h-69q-7 0 -9 4z" />
    <glyph glyph-name="ohungarumlaut" unicode="&#x151;" horiz-adv-x="432" 
d="M85.5 35.5q-47.5 43.5 -47.5 118.5v203q0 73 48 117.5t130 44.5q83 0 131 -44.5t48 -117.5v-203q0 -75 -47.5 -118.5t-131.5 -43.5q-83 0 -130.5 43.5zM261.5 112q17.5 20 17.5 51v185q0 31 -17.5 51t-45.5 20t-45 -19.5t-17 -51.5v-185q0 -32 17 -51.5t45 -19.5t45.5 20
zM105.5 584.5q-2.5 3.5 0.5 10.5l50 102q4 9 14 9h75q7 0 9 -4t-1 -10l-54 -102q-5 -9 -15 -9h-69q-7 0 -9.5 3.5zM252 585q-2 4 1 10l54 102q4 9 15 9h70q7 0 9 -4t-1 -10l-55 -103q-4 -8 -15 -8h-69q-7 0 -9 4z" />
    <glyph glyph-name="OE" unicode="&#x152;" horiz-adv-x="690" 
d="M654.5 603.5q-3.5 -3.5 -8.5 -3.5h-216q-5 0 -5 -5v-189q0 -5 5 -5h128q5 0 8.5 -3.5t3.5 -8.5v-77q0 -5 -3.5 -8.5t-8.5 -3.5h-128q-5 0 -5 -5v-190q0 -5 5 -5h216q5 0 8.5 -3.5t3.5 -8.5v-76q0 -5 -3.5 -8.5t-8.5 -3.5h-325q-5 0 -8.5 3.5t-3.5 8.5v12q0 3 -2 3.5
t-4 -1.5q-39 -34 -98 -34q-44 0 -81 24t-59.5 67t-22.5 99v336q0 56 22.5 99t59.5 67t81 24q59 0 98 -34q2 -2 4 -1.5t2 3.5v12q0 5 3.5 8.5t8.5 3.5h325q5 0 8.5 -3.5t3.5 -8.5v-76q0 -5 -3.5 -8.5zM288 115.5q21 23.5 21 61.5v346q0 38 -21 61.5t-55 23.5t-54.5 -23.5
t-20.5 -61.5v-346q0 -38 20.5 -61.5t54.5 -23.5t55 23.5z" />
    <glyph glyph-name="oe" unicode="&#x153;" horiz-adv-x="679" 
d="M642.5 221.5q-3.5 -3.5 -8.5 -3.5h-222q-5 0 -5 -5v-50q0 -32 17 -51.5t45 -19.5q23 0 38.5 15t21.5 38q3 10 13 10l90 -4q5 0 8.5 -3.5t2.5 -9.5q-7 -70 -51 -108t-123 -38q-77 0 -123 57q-3 3 -6 0q-46 -57 -124 -57q-83 0 -130.5 44t-47.5 119v201q0 74 48 118.5
t130 44.5q78 0 124 -58q3 -4 6 0q46 58 123 58q82 0 129.5 -44.5t47.5 -118.5v-126q0 -5 -3.5 -8.5zM261.5 399.5q-17.5 19.5 -45.5 19.5t-45 -19.5t-17 -51.5v-185q0 -32 17 -51.5t45 -19.5t45.5 19.5t17.5 51.5v185q0 32 -17.5 51.5zM424 399.5q-17 -19.5 -17 -51.5v-47
q0 -5 5 -5h114q5 0 5 5v47q0 31 -17.5 51t-44.5 20q-28 0 -45 -19.5z" />
    <glyph glyph-name="Racute" unicode="&#x154;" horiz-adv-x="461" 
d="M318 10l-86 288q-2 4 -5 4h-52q-5 0 -5 -5v-285q0 -5 -3.5 -8.5t-8.5 -3.5h-92q-5 0 -8.5 3.5t-3.5 8.5v677q0 5 3.5 8.5t8.5 3.5h188q53 0 93.5 -25.5t63 -72t22.5 -106.5q0 -62 -24 -107.5t-67 -68.5q-4 -1 -3 -6l98 -301q1 -2 1 -5q0 -9 -11 -9h-96q-10 0 -13 10z
M170 596v-199q0 -5 5 -5h61q36 0 58.5 28t22.5 75q0 49 -22.5 77.5t-58.5 28.5h-61q-5 0 -5 -5zM165 768q-3 4 1 10l59 103q4 8 15 8h84q8 0 10 -4.5t-2 -10.5l-74 -103q-5 -7 -14 -7h-69q-7 0 -10 4z" />
    <glyph glyph-name="racute" unicode="&#x155;" horiz-adv-x="313" 
d="M297 507q8 -5 6 -15l-16 -93q-1 -12 -14 -7q-14 4 -26 4t-22 -3q-28 -4 -45.5 -31.5t-17.5 -65.5v-284q0 -5 -3.5 -8.5t-8.5 -3.5h-92q-5 0 -8.5 3.5t-3.5 8.5v487q0 5 3.5 8.5t8.5 3.5h92q5 0 8.5 -3.5t3.5 -8.5v-46q0 -4 2 -4.5t3 3.5q27 65 88 65q27 0 42 -10z
M116 584q-3 4 1 10l59 103q4 8 15 8h84q8 0 10 -4.5t-2 -10.5l-74 -103q-5 -7 -14 -7h-69q-7 0 -10 4z" />
    <glyph glyph-name="uni0156" unicode="&#x156;" horiz-adv-x="461" 
d="M318 10l-86 288q-2 4 -5 4h-52q-5 0 -5 -5v-285q0 -5 -3.5 -8.5t-8.5 -3.5h-92q-5 0 -8.5 3.5t-3.5 8.5v677q0 5 3.5 8.5t8.5 3.5h188q53 0 93.5 -25.5t63 -72t22.5 -106.5q0 -62 -24 -107.5t-67 -68.5q-4 -1 -3 -6l98 -301q1 -2 1 -5q0 -9 -11 -9h-96q-10 0 -13 10z
M170 596v-199q0 -5 5 -5h61q36 0 58.5 28t22.5 75q0 49 -22.5 77.5t-58.5 28.5h-61q-5 0 -5 -5zM164 -175q-3 4 1 10l59 103q4 8 15 8h84q8 0 10 -4.5t-2 -10.5l-74 -103q-5 -7 -14 -7h-69q-7 0 -10 4z" />
    <glyph glyph-name="uni0157" unicode="&#x157;" horiz-adv-x="313" 
d="M297 507q8 -5 6 -15l-16 -93q-1 -12 -14 -7q-14 4 -26 4t-22 -3q-28 -4 -45.5 -31.5t-17.5 -65.5v-284q0 -5 -3.5 -8.5t-8.5 -3.5h-92q-5 0 -8.5 3.5t-3.5 8.5v487q0 5 3.5 8.5t8.5 3.5h92q5 0 8.5 -3.5t3.5 -8.5v-46q0 -4 2 -4.5t3 3.5q27 65 88 65q27 0 42 -10z
M-21 -175q-3 4 1 10l59 103q4 8 15 8h84q8 0 10 -4.5t-2 -10.5l-74 -103q-5 -7 -14 -7h-69q-7 0 -10 4z" />
    <glyph glyph-name="Rcaron" unicode="&#x158;" horiz-adv-x="461" 
d="M318 10l-86 288q-2 4 -5 4h-52q-5 0 -5 -5v-285q0 -5 -3.5 -8.5t-8.5 -3.5h-92q-5 0 -8.5 3.5t-3.5 8.5v677q0 5 3.5 8.5t8.5 3.5h188q53 0 93.5 -25.5t63 -72t22.5 -106.5q0 -62 -24 -107.5t-67 -68.5q-4 -1 -3 -6l98 -301q1 -2 1 -5q0 -9 -11 -9h-96q-10 0 -13 10z
M170 596v-199q0 -5 5 -5h61q36 0 58.5 28t22.5 75q0 49 -22.5 77.5t-58.5 28.5h-61q-5 0 -5 -5zM164 762l-65 103q-2 6 -2 7q0 7 10 7h67q10 0 14 -8l36 -62q2 -3 4 -3t3 3l35 62q5 8 15 8h62q7 0 9.5 -4.5t-1.5 -10.5l-67 -102q-5 -8 -14 -8h-92q-10 0 -14 8z" />
    <glyph glyph-name="rcaron" unicode="&#x159;" horiz-adv-x="313" 
d="M297 507q8 -5 6 -15l-16 -93q-1 -12 -14 -7q-14 4 -26 4t-22 -3q-28 -4 -45.5 -31.5t-17.5 -65.5v-284q0 -5 -3.5 -8.5t-8.5 -3.5h-92q-5 0 -8.5 3.5t-3.5 8.5v487q0 5 3.5 8.5t8.5 3.5h92q5 0 8.5 -3.5t3.5 -8.5v-46q0 -4 2 -4.5t3 3.5q27 65 88 65q27 0 42 -10z
M115 578l-65 103q-2 6 -2 7q0 7 10 7h67q10 0 14 -8l36 -62q2 -3 4 -3t3 3l35 62q5 8 15 8h62q7 0 9.5 -4.5t-1.5 -10.5l-67 -102q-5 -8 -14 -8h-92q-10 0 -14 8z" />
    <glyph glyph-name="Sacute" unicode="&#x15a;" horiz-adv-x="440" 
d="M91 42.5q-51 50.5 -51 130.5v28q0 5 3.5 8.5t8.5 3.5h90q5 0 8.5 -3.5t3.5 -8.5v-22q0 -39 20 -63t50 -24q31 0 51 22.5t20 59.5q0 25 -11 44.5t-30.5 36.5t-63.5 49q-50 36 -80.5 64t-51 67.5t-20.5 91.5q0 83 50 132t131 49q84 0 135 -51.5t51 -136.5v-24
q0 -5 -3.5 -8.5t-8.5 -3.5h-91q-5 0 -8.5 3.5t-3.5 8.5v26q0 39 -19.5 62.5t-51.5 23.5q-29 0 -48 -21.5t-19 -59.5q0 -36 20.5 -61t80.5 -69q61 -46 92 -74t48 -62t17 -81q0 -85 -51.5 -136.5t-134.5 -51.5q-82 0 -133 50.5zM157 776q-3 4 1 10l59 103q4 8 15 8h84
q8 0 10 -4.5t-2 -10.5l-74 -103q-5 -7 -14 -7h-69q-7 0 -10 4z" />
    <glyph glyph-name="sacute" unicode="&#x15b;" horiz-adv-x="398" 
d="M77 32q-47 38 -47 103v7q0 5 3.5 8.5t8.5 3.5h86q12 0 12 -8v-9q0 -24 18.5 -40t45.5 -16q26 0 41 15t15 38q0 20 -13 33.5t-28 20.5t-54 23q-57 22 -93.5 56t-36.5 101q0 70 44.5 109.5t120.5 39.5q78 0 123.5 -41.5t45.5 -111.5q0 -5 -3.5 -8.5t-8.5 -3.5h-84
q-5 0 -8.5 2.5t-3.5 6.5v9q0 24 -16.5 40t-41.5 16q-26 0 -41.5 -16.5t-15.5 -39.5q0 -19 12 -32t27 -20.5t50 -22.5q42 -17 70.5 -33.5t50 -47t21.5 -75.5q0 -67 -47 -106t-127 -39q-79 0 -126 38zM138 585q-3 4 1 10l59 103q4 8 15 8h84q8 0 10 -4.5t-2 -10.5l-74 -103
q-5 -7 -14 -7h-69q-7 0 -10 4z" />
    <glyph glyph-name="Scedilla" unicode="&#x15e;" horiz-adv-x="440" 
d="M372 58.5q-38 -48.5 -103 -62.5q-6 -2 -2 -6q38 -42 38 -89t-24.5 -66.5t-60.5 -19.5q-20 0 -42 6q-9 3 -8 14l5 36q1 11 14 9q14 -2 24.5 5t14.5 23q1 3 1 10q0 35 -42 75l-5 3q-65 13 -103.5 60.5t-38.5 116.5v28q0 5 3.5 8.5t8.5 3.5h90q5 0 8.5 -3.5t3.5 -8.5v-22
q0 -39 20 -63t50 -24q31 0 51 22.5t20 59.5q0 25 -11 44.5t-30.5 36.5t-63.5 49q-50 36 -80.5 64t-51 67.5t-20.5 91.5q0 83 50 132t131 49q84 0 135 -51.5t51 -136.5v-24q0 -5 -3.5 -8.5t-8.5 -3.5h-91q-5 0 -8.5 3.5t-3.5 8.5v26q0 39 -19.5 62.5t-51.5 23.5
q-29 0 -48 -21.5t-19 -59.5q0 -36 20.5 -61t80.5 -69q61 -46 92 -74t48 -62t17 -81q0 -73 -38 -121.5z" />
    <glyph glyph-name="scedilla" unicode="&#x15f;" horiz-adv-x="398" 
d="M343 46q-34 -37 -94 -48q-6 -2 -2 -6q37 -41 37 -89q0 -47 -24.5 -66.5t-60.5 -19.5q-20 0 -42 6q-9 3 -8 14l5 36q1 11 14 9q14 -2 24.5 5t14.5 23q1 3 1 10q0 33 -42 75l-5 3q-61 9 -96 45.5t-35 91.5v7q0 5 3.5 8.5t8.5 3.5h86q12 0 12 -8v-9q0 -24 18.5 -40t45.5 -16
q26 0 41 15t15 38q0 20 -13 33.5t-28 20.5t-54 23q-57 22 -93.5 56t-36.5 101q0 70 44.5 109.5t120.5 39.5q78 0 123.5 -41.5t45.5 -111.5q0 -5 -3.5 -8.5t-8.5 -3.5h-84q-5 0 -8.5 2.5t-3.5 6.5v9q0 24 -16.5 40t-41.5 16q-26 0 -41.5 -16.5t-15.5 -39.5q0 -19 12 -32
t27 -20.5t50 -22.5q42 -17 70.5 -33.5t50 -47t21.5 -75.5q0 -56 -34 -93z" />
    <glyph glyph-name="Scaron" unicode="&#x160;" horiz-adv-x="440" 
d="M91 42.5q-51 50.5 -51 130.5v28q0 5 3.5 8.5t8.5 3.5h90q5 0 8.5 -3.5t3.5 -8.5v-22q0 -39 20 -63t50 -24q31 0 51 22.5t20 59.5q0 25 -11 44.5t-30.5 36.5t-63.5 49q-50 36 -80.5 64t-51 67.5t-20.5 91.5q0 83 50 132t131 49q84 0 135 -51.5t51 -136.5v-24
q0 -5 -3.5 -8.5t-8.5 -3.5h-91q-5 0 -8.5 3.5t-3.5 8.5v26q0 39 -19.5 62.5t-51.5 23.5q-29 0 -48 -21.5t-19 -59.5q0 -36 20.5 -61t80.5 -69q61 -46 92 -74t48 -62t17 -81q0 -85 -51.5 -136.5t-134.5 -51.5q-82 0 -133 50.5zM156 770l-65 103q-2 6 -2 7q0 7 10 7h67
q10 0 14 -8l36 -62q2 -3 4 -3t3 3l35 62q5 8 15 8h62q7 0 9.5 -4.5t-1.5 -10.5l-67 -102q-5 -8 -14 -8h-92q-10 0 -14 8z" />
    <glyph glyph-name="scaron" unicode="&#x161;" horiz-adv-x="398" 
d="M77 32q-47 38 -47 103v7q0 5 3.5 8.5t8.5 3.5h86q12 0 12 -8v-9q0 -24 18.5 -40t45.5 -16q26 0 41 15t15 38q0 20 -13 33.5t-28 20.5t-54 23q-57 22 -93.5 56t-36.5 101q0 70 44.5 109.5t120.5 39.5q78 0 123.5 -41.5t45.5 -111.5q0 -5 -3.5 -8.5t-8.5 -3.5h-84
q-5 0 -8.5 2.5t-3.5 6.5v9q0 24 -16.5 40t-41.5 16q-26 0 -41.5 -16.5t-15.5 -39.5q0 -19 12 -32t27 -20.5t50 -22.5q42 -17 70.5 -33.5t50 -47t21.5 -75.5q0 -67 -47 -106t-127 -39q-79 0 -126 38zM137 579l-65 103q-2 6 -2 7q0 7 10 7h67q10 0 14 -8l36 -62q2 -3 4 -3t3 3
l35 62q5 8 15 8h62q7 0 9.5 -4.5t-1.5 -10.5l-67 -102q-5 -8 -14 -8h-92q-10 0 -14 8z" />
    <glyph glyph-name="uni0162" unicode="&#x162;" horiz-adv-x="452" 
d="M281 595v-583q0 -5 -3 -8.5t-7 -3.5h-2q-3 0 -3.5 -2t1.5 -4q36 -40 36 -87t-24.5 -66.5t-60.5 -19.5q-20 0 -42 6q-9 3 -8 14l5 36q1 11 14 9q14 -2 24.5 5t14.5 23q6 38 -39 83q-3 3 -6 3h-4q-5 0 -8.5 3.5t-3.5 8.5v583q0 5 -5 5h-120q-5 0 -8.5 3.5t-3.5 8.5v76
q0 5 3.5 8.5t8.5 3.5h373q5 0 8.5 -3.5t3.5 -8.5v-76q0 -5 -3.5 -8.5t-8.5 -3.5h-127q-5 0 -5 -5z" />
    <glyph glyph-name="uni0163" unicode="&#x163;" horiz-adv-x="282" 
d="M256.5 432.5q-3.5 -3.5 -8.5 -3.5h-62q-5 0 -5 -5v-262q0 -35 13 -48.5t39 -12.5h7q5 0 8.5 -3.5t3.5 -8.5v-77q0 -5 -3.5 -8.5t-8.5 -3.5h-12q-3 0 -4 -2t1 -4q25 -35 25 -74q0 -47 -24.5 -66.5t-60.5 -19.5q-20 0 -42 6q-9 3 -8 14l5 36q1 11 14 9q14 -2 24.5 5
t14.5 23l1 9q0 32 -36 71l-5 3q-32 11 -48 36.5t-16 72.5v305q0 5 -5 5h-35q-5 0 -8.5 3.5t-3.5 8.5v58q0 5 3.5 8.5t8.5 3.5h35q5 0 5 5v110q0 5 3.5 8.5t8.5 3.5h88q5 0 8.5 -3.5t3.5 -8.5v-110q0 -5 5 -5h62q5 0 8.5 -3.5t3.5 -8.5v-58q0 -5 -3.5 -8.5z" />
    <glyph glyph-name="Tcaron" unicode="&#x164;" horiz-adv-x="452" 
d="M421.5 696.5q3.5 -3.5 3.5 -8.5v-76q0 -5 -3.5 -8.5t-8.5 -3.5h-127q-5 0 -5 -5v-583q0 -5 -3.5 -8.5t-8.5 -3.5h-92q-5 0 -8.5 3.5t-3.5 8.5v583q0 5 -5 5h-120q-5 0 -8.5 3.5t-3.5 8.5v76q0 5 3.5 8.5t8.5 3.5h373q5 0 8.5 -3.5zM163 758l-65 102q-2 6 -2 7q0 7 10 7
h67q10 0 14 -8l36 -61q1 -3 3 -3t4 3l35 61q5 8 15 8h62q7 0 9.5 -4.5t-1.5 -10.5l-67 -101q-5 -8 -14 -8h-92q-9 0 -14 8z" />
    <glyph glyph-name="tcaron" unicode="&#x165;" horiz-adv-x="282" 
d="M256.5 432.5q-3.5 -3.5 -8.5 -3.5h-62q-5 0 -5 -5v-262q0 -35 13 -48.5t39 -12.5h7q5 0 8.5 -3.5t3.5 -8.5v-77q0 -5 -3.5 -8.5t-8.5 -3.5h-34q-68 0 -102.5 25t-34.5 94v305q0 5 -5 5h-35q-5 0 -8.5 3.5t-3.5 8.5v58q0 5 3.5 8.5t8.5 3.5h35q5 0 5 5v110q0 5 3.5 8.5
t8.5 3.5h88q5 0 8.5 -3.5t3.5 -8.5v-110q0 -5 5 -5h62q5 0 8.5 -3.5t3.5 -8.5v-58q0 -5 -3.5 -8.5zM65 697l-65 102q-2 6 -2 7q0 7 10 7h67q10 0 14 -8l36 -61q1 -3 3 -3t4 3l35 61q5 8 15 8h62q7 0 9.5 -4.5t-1.5 -10.5l-67 -101q-5 -8 -14 -8h-92q-9 0 -14 8z" />
    <glyph glyph-name="Tbar" unicode="&#x166;" horiz-adv-x="600" 
d="M421.5 603.5q-3.5 -3.5 -8.5 -3.5h-127q-5 0 -5 -5v-178q0 -5 5 -5h66q5 0 8.5 -3.5t3.5 -8.5v-47q0 -5 -3.5 -8.5t-8.5 -3.5h-66q-5 0 -5 -5v-324q0 -5 -3.5 -8.5t-8.5 -3.5h-92q-5 0 -8.5 3.5t-3.5 8.5v324q0 5 -5 5h-73q-5 0 -8.5 3.5t-3.5 8.5v47q0 5 3.5 8.5
t8.5 3.5h73q5 0 5 5v178q0 5 -5 5h-120q-5 0 -8.5 3.5t-3.5 8.5v76q0 5 3.5 8.5t8.5 3.5h373q5 0 8.5 -3.5t3.5 -8.5v-76q0 -5 -3.5 -8.5z" />
    <glyph glyph-name="tbar" unicode="&#x167;" horiz-adv-x="600" 
d="M263.5 518.5q3.5 -3.5 3.5 -8.5v-47q0 -12 -3 -12q-4 0 -4 -5v-5q0 -5 -3.5 -8.5t-8.5 -3.5h-62q-5 0 -5 -5v-262q0 -35 13 -48.5t39 -12.5h7q5 0 8.5 -3.5t3.5 -8.5v-77q0 -5 -3.5 -8.5t-8.5 -3.5h-34q-68 0 -102.5 25t-34.5 94v305q0 5 -5 5h-35q-12 0 -12 11v8v3h-1
v59q0 5 3.5 8.5t8.5 3.5h36q5 0 5 5v99q0 5 3.5 8.5t8.5 3.5h88q5 0 8.5 -3.5t3.5 -8.5v-99q0 -5 5 -5h69q5 0 8.5 -3.5z" />
    <glyph glyph-name="Umacron" unicode="&#x16a;" horiz-adv-x="478" 
d="M101.5 47.5q-51.5 55.5 -51.5 146.5v494q0 5 3.5 8.5t8.5 3.5h92q5 0 8.5 -3.5t3.5 -8.5v-506q0 -40 20 -65t53 -25t53 25t20 65v506q0 5 3.5 8.5t8.5 3.5h92q5 0 8.5 -3.5t3.5 -8.5v-494q0 -91 -52 -146.5t-137 -55.5q-86 0 -137.5 55.5zM132.5 790.5q-3.5 3.5 -3.5 8.5
v56q0 5 3.5 8.5t8.5 3.5h190q5 0 8.5 -3.5t3.5 -8.5v-56q0 -5 -3.5 -8.5t-8.5 -3.5h-190q-5 0 -8.5 3.5z" />
    <glyph glyph-name="umacron" unicode="&#x16b;" horiz-adv-x="438" 
d="M280.5 507.5q3.5 3.5 8.5 3.5h92q5 0 8.5 -3.5t3.5 -8.5v-487q0 -5 -3.5 -8.5t-8.5 -3.5h-92q-5 0 -8.5 3.5t-3.5 8.5v22q0 3 -2 4t-4 -2q-29 -43 -93 -43q-61 0 -98.5 36.5t-37.5 112.5v357q0 5 3.5 8.5t8.5 3.5h92q5 0 8.5 -3.5t3.5 -8.5v-332q0 -75 58 -75
q29 0 45 21.5t16 58.5v327q0 5 3.5 8.5zM110.5 589.5q-3.5 3.5 -3.5 8.5v56q0 5 3.5 8.5t8.5 3.5h190q5 0 8.5 -3.5t3.5 -8.5v-56q0 -5 -3.5 -8.5t-8.5 -3.5h-190q-5 0 -8.5 3.5z" />
    <glyph glyph-name="Uring" unicode="&#x16e;" horiz-adv-x="478" 
d="M101.5 47.5q-51.5 55.5 -51.5 146.5v494q0 5 3.5 8.5t8.5 3.5h92q5 0 8.5 -3.5t3.5 -8.5v-506q0 -40 20 -65t53 -25t53 25t20 65v506q0 5 3.5 8.5t8.5 3.5h92q5 0 8.5 -3.5t3.5 -8.5v-494q0 -91 -52 -146.5t-137 -55.5q-86 0 -137.5 55.5zM163 797.5q-31 31.5 -31 77.5
q0 45 31 76t76 31t76 -31t31 -76q0 -46 -31 -77.5t-76 -31.5t-76 31.5zM276 836.5q15 15.5 15 38.5t-15 38.5t-37 15.5t-37 -15.5t-15 -38.5t15 -38.5t37 -15.5t37 15.5z" />
    <glyph glyph-name="uring" unicode="&#x16f;" horiz-adv-x="438" 
d="M280.5 507.5q3.5 3.5 8.5 3.5h92q5 0 8.5 -3.5t3.5 -8.5v-487q0 -5 -3.5 -8.5t-8.5 -3.5h-92q-5 0 -8.5 3.5t-3.5 8.5v22q0 3 -2 4t-4 -2q-29 -43 -93 -43q-61 0 -98.5 36.5t-37.5 112.5v357q0 5 3.5 8.5t8.5 3.5h92q5 0 8.5 -3.5t3.5 -8.5v-332q0 -75 58 -75
q29 0 45 21.5t16 58.5v327q0 5 3.5 8.5zM141 596.5q-31 31.5 -31 77.5q0 45 31 76t76 31t76 -31t31 -76q0 -46 -31 -77.5t-76 -31.5t-76 31.5zM254 635.5q15 15.5 15 38.5t-15 38.5t-37 15.5t-37 -15.5t-15 -38.5t15 -38.5t37 -15.5t37 15.5z" />
    <glyph glyph-name="Uhungarumlaut" unicode="&#x170;" horiz-adv-x="478" 
d="M101.5 47.5q-51.5 55.5 -51.5 146.5v494q0 5 3.5 8.5t8.5 3.5h92q5 0 8.5 -3.5t3.5 -8.5v-506q0 -40 20 -65t53 -25t53 25t20 65v506q0 5 3.5 8.5t8.5 3.5h92q5 0 8.5 -3.5t3.5 -8.5v-494q0 -91 -52 -146.5t-137 -55.5q-86 0 -137.5 55.5zM128.5 777.5q-2.5 3.5 0.5 10.5
l50 102q4 9 14 9h75q7 0 9 -4t-1 -10l-54 -102q-5 -9 -15 -9h-69q-7 0 -9.5 3.5zM275 778q-2 4 1 10l54 102q4 9 15 9h70q7 0 9 -4t-1 -10l-55 -103q-4 -8 -15 -8h-69q-7 0 -9 4z" />
    <glyph glyph-name="uhungarumlaut" unicode="&#x171;" horiz-adv-x="438" 
d="M280.5 507.5q3.5 3.5 8.5 3.5h92q5 0 8.5 -3.5t3.5 -8.5v-487q0 -5 -3.5 -8.5t-8.5 -3.5h-92q-5 0 -8.5 3.5t-3.5 8.5v22q0 3 -2 4t-4 -2q-29 -43 -93 -43q-61 0 -98.5 36.5t-37.5 112.5v357q0 5 3.5 8.5t8.5 3.5h92q5 0 8.5 -3.5t3.5 -8.5v-332q0 -75 58 -75
q29 0 45 21.5t16 58.5v327q0 5 3.5 8.5zM106.5 576.5q-2.5 3.5 0.5 10.5l50 102q4 9 14 9h75q7 0 9 -4t-1 -10l-54 -102q-5 -9 -15 -9h-69q-7 0 -9.5 3.5zM253 577q-2 4 1 10l54 102q4 9 15 9h70q7 0 9 -4t-1 -10l-55 -103q-4 -8 -15 -8h-69q-7 0 -9 4z" />
    <glyph glyph-name="Uogonek" unicode="&#x172;" horiz-adv-x="478" 
d="M315.5 696.5q3.5 3.5 8.5 3.5h92q5 0 8.5 -3.5t3.5 -8.5v-494q0 -80 -41 -133.5t-110 -64.5l-5 -3q-38 -40 -38 -72l1 -9q4 -17 14.5 -23.5t24.5 -4.5h3q10 0 11 -9l5 -36v-4q0 -7 -8 -10q-22 -6 -41 -6q-36 0 -61 19.5t-25 66.5q0 44 35 86q2 2 1.5 4t-3.5 2
q-66 15 -103.5 67t-37.5 130v494q0 5 3.5 8.5t8.5 3.5h92q5 0 8.5 -3.5t3.5 -8.5v-506q0 -40 20 -65t53 -25t53 25t20 65v506q0 5 3.5 8.5z" />
    <glyph glyph-name="uogonek" unicode="&#x173;" 
d="M381 -124q10 0 11 -9l5 -36v-4q0 -7 -8 -10q-22 -6 -41 -6q-37 0 -61.5 19.5t-24.5 66.5q0 51 45 97q3 2 2 4t-4 2h-16q-5 0 -8.5 3.5t-3.5 8.5v22q0 3 -2 4t-4 -2q-29 -43 -93 -43q-61 0 -98.5 36.5t-37.5 112.5v357q0 5 3.5 8.5t8.5 3.5h92q5 0 8.5 -3.5t3.5 -8.5v-332
q0 -75 58 -75q29 0 45 21.5t16 58.5v327q0 5 3.5 8.5t8.5 3.5h92q5 0 8.5 -3.5t3.5 -8.5v-490v-9h-1q-54 -46 -54 -87l1 -9q4 -17 14.5 -23.5t24.5 -4.5h3z" />
    <glyph glyph-name="Wcircumflex" unicode="&#x174;" horiz-adv-x="665" 
d="M157 11l-133 676l-1 4q0 9 11 9h96q12 0 13 -11l70 -417q1 -3 3 -3t3 3l63 417q1 11 13 11h80q12 0 13 -11l68 -417q1 -3 3 -3t3 3l63 417q1 11 13 11h93q13 0 11 -13l-127 -676q-1 -11 -13 -11h-85q-12 0 -13 11l-67 425q-1 4 -3 4t-3 -4l-62 -425q-1 -11 -13 -11h-86
q-12 0 -13 11zM195.5 763.5q-2.5 3.5 1.5 10.5l65 102q5 8 14 8h98q9 0 14 -8l67 -101q2 -3 2 -7q0 -8 -9 -8h-69q-10 0 -15 8l-34 62q-3 5 -6 0l-35 -62q-5 -8 -15 -8h-69q-7 0 -9.5 3.5z" />
    <glyph glyph-name="wcircumflex" unicode="&#x175;" horiz-adv-x="592" 
d="M126 11l-106 487l-1 4q0 9 11 9h88q12 0 13 -11l53 -326q1 -3 3 -3t3 3l54 326q1 11 13 11h78q12 0 13 -11l56 -326q1 -3 3 -3t3 3l53 326q1 11 13 11l87 -1q13 0 10 -13l-107 -486q-2 -11 -13 -11h-90q-12 0 -13 11l-53 292q-1 3 -3 3t-3 -3l-52 -292q-1 -11 -13 -11
h-87q-11 0 -13 11zM162.5 574.5q-2.5 3.5 1.5 10.5l65 102q5 8 14 8h98q9 0 14 -8l67 -101q2 -3 2 -7q0 -8 -9 -8h-69q-10 0 -15 8l-34 62q-3 5 -6 0l-35 -62q-5 -8 -15 -8h-69q-7 0 -9.5 3.5z" />
    <glyph glyph-name="Ycircumflex" unicode="&#x176;" horiz-adv-x="456" 
d="M173.5 4.5q-3.5 3.5 -3.5 8.5v273l-1 6l-139 394q-1 2 -1 5q0 9 11 9h96q11 0 14 -10l75 -257q1 -3 3 -3t3 3l75 257q3 10 14 10h96q6 0 9 -3.5t1 -10.5l-139 -394l-1 -6v-273q0 -5 -3.5 -8.5t-8.5 -3.5h-92q-5 0 -8.5 3.5zM95.5 762.5q-2.5 3.5 1.5 10.5l65 102
q5 8 14 8h98q9 0 14 -8l67 -101q2 -3 2 -7q0 -8 -9 -8h-69q-10 0 -15 8l-34 62q-3 5 -6 0l-35 -62q-5 -8 -15 -8h-69q-7 0 -9.5 3.5z" />
    <glyph glyph-name="ycircumflex" unicode="&#x177;" horiz-adv-x="403" 
d="M34 -187v72q0 12 5 12h5q33 0 52 8t30.5 29.5t16.5 62.5l-1 6l-126 495v4q0 9 11 9h98q12 0 13 -11l61 -330q1 -3 3 -3t3 3l59 330q1 11 13 11l99 -1q14 0 11 -13l-134 -525q-19 -71 -40 -106t-59 -50t-108 -15h-6q-6 0 -6 12zM68.5 574.5q-2.5 3.5 1.5 10.5l65 102
q5 8 14 8h98q9 0 14 -8l67 -101q2 -3 2 -7q0 -8 -9 -8h-69q-10 0 -15 8l-34 62q-3 5 -6 0l-35 -62q-5 -8 -15 -8h-69q-7 0 -9.5 3.5z" />
    <glyph glyph-name="Ydieresis" unicode="&#x178;" horiz-adv-x="456" 
d="M173.5 4.5q-3.5 3.5 -3.5 8.5v273l-1 6l-139 394q-1 2 -1 5q0 9 11 9h96q11 0 14 -10l75 -257q1 -3 3 -3t3 3l75 257q3 10 14 10h96q6 0 9 -3.5t1 -10.5l-139 -394l-1 -6v-273q0 -5 -3.5 -8.5t-8.5 -3.5h-92q-5 0 -8.5 3.5zM108.5 782.5q-17.5 17.5 -17.5 45.5
q0 27 17.5 44.5t43.5 17.5t42.5 -17.5t16.5 -44.5q0 -28 -16.5 -45.5t-42.5 -17.5t-43.5 17.5zM263 782.5q-17 17.5 -17 45.5q0 27 17 44.5t44 17.5q26 0 42.5 -17.5t16.5 -44.5q0 -28 -16.5 -45.5t-42.5 -17.5q-27 0 -44 17.5z" />
    <glyph glyph-name="Zacute" unicode="&#x179;" horiz-adv-x="406" 
d="M28.5 3.5q-3.5 3.5 -3.5 8.5v80q0 8 3 15l224 487q1 2 0 4t-3 2h-212q-5 0 -8.5 3.5t-3.5 8.5v76q0 5 3.5 8.5t8.5 3.5h328q5 0 8.5 -3.5t3.5 -8.5v-80q0 -7 -3 -15l-224 -487q-1 -2 0 -4t3 -2h212q5 0 8.5 -3.5t3.5 -8.5v-76q0 -5 -3.5 -8.5t-8.5 -3.5h-328
q-5 0 -8.5 3.5zM140 781q-3 4 1 10l59 103q4 8 15 8h84q8 0 10 -4.5t-2 -10.5l-74 -103q-5 -7 -14 -7h-69q-7 0 -10 4z" />
    <glyph glyph-name="zacute" unicode="&#x17a;" horiz-adv-x="368" 
d="M27.5 3.5q-3.5 3.5 -3.5 8.5v85q0 8 4 15l172 288q3 6 -3 6h-157q-5 0 -8.5 3.5t-3.5 8.5v81q0 5 3.5 8.5t8.5 3.5h289q5 0 8.5 -3.5t3.5 -8.5v-85q0 -8 -4 -15l-177 -288q-3 -6 3 -6h171q5 0 8.5 -3.5t3.5 -8.5v-81q0 -5 -3.5 -8.5t-8.5 -3.5h-298q-5 0 -8.5 3.5z
M124 591q-3 4 1 10l59 103q4 8 15 8h84q8 0 10 -4.5t-2 -10.5l-74 -103q-5 -7 -14 -7h-69q-7 0 -10 4z" />
    <glyph glyph-name="Zdotaccent" unicode="&#x17b;" horiz-adv-x="406" 
d="M28.5 3.5q-3.5 3.5 -3.5 8.5v80q0 8 3 15l224 487q1 2 0 4t-3 2h-212q-5 0 -8.5 3.5t-3.5 8.5v76q0 5 3.5 8.5t8.5 3.5h328q5 0 8.5 -3.5t3.5 -8.5v-80q0 -7 -3 -15l-224 -487q-1 -2 0 -4t3 -2h212q5 0 8.5 -3.5t3.5 -8.5v-76q0 -5 -3.5 -8.5t-8.5 -3.5h-328
q-5 0 -8.5 3.5zM161.5 787q-15.5 16 -15.5 42q0 25 15.5 41t40.5 16t39.5 -15.5t14.5 -41.5t-14.5 -42t-39.5 -16t-40.5 16z" />
    <glyph glyph-name="zdotaccent" unicode="&#x17c;" horiz-adv-x="368" 
d="M27.5 3.5q-3.5 3.5 -3.5 8.5v85q0 8 4 15l172 288q3 6 -3 6h-157q-5 0 -8.5 3.5t-3.5 8.5v81q0 5 3.5 8.5t8.5 3.5h289q5 0 8.5 -3.5t3.5 -8.5v-85q0 -8 -4 -15l-177 -288q-3 -6 3 -6h171q5 0 8.5 -3.5t3.5 -8.5v-81q0 -5 -3.5 -8.5t-8.5 -3.5h-298q-5 0 -8.5 3.5z
M145.5 597q-15.5 16 -15.5 42q0 25 15.5 41t40.5 16t39.5 -15.5t14.5 -41.5t-14.5 -42t-39.5 -16t-40.5 16z" />
    <glyph glyph-name="Zcaron" unicode="&#x17d;" horiz-adv-x="406" 
d="M28.5 3.5q-3.5 3.5 -3.5 8.5v80q0 8 3 15l224 487q1 2 0 4t-3 2h-212q-5 0 -8.5 3.5t-3.5 8.5v76q0 5 3.5 8.5t8.5 3.5h328q5 0 8.5 -3.5t3.5 -8.5v-80q0 -7 -3 -15l-224 -487q-1 -2 0 -4t3 -2h212q5 0 8.5 -3.5t3.5 -8.5v-76q0 -5 -3.5 -8.5t-8.5 -3.5h-328
q-5 0 -8.5 3.5zM139 775l-65 103q-2 6 -2 7q0 7 10 7h67q10 0 14 -8l36 -62q2 -3 4 -3t3 3l35 62q5 8 15 8h62q7 0 9.5 -4.5t-1.5 -10.5l-67 -102q-5 -8 -14 -8h-92q-10 0 -14 8z" />
    <glyph glyph-name="zcaron" unicode="&#x17e;" horiz-adv-x="368" 
d="M27.5 3.5q-3.5 3.5 -3.5 8.5v85q0 8 4 15l172 288q3 6 -3 6h-157q-5 0 -8.5 3.5t-3.5 8.5v81q0 5 3.5 8.5t8.5 3.5h289q5 0 8.5 -3.5t3.5 -8.5v-85q0 -8 -4 -15l-177 -288q-3 -6 3 -6h171q5 0 8.5 -3.5t3.5 -8.5v-81q0 -5 -3.5 -8.5t-8.5 -3.5h-298q-5 0 -8.5 3.5z
M123 585l-65 103q-2 6 -2 7q0 7 10 7h67q10 0 14 -8l36 -62q2 -3 4 -3t3 3l35 62q5 8 15 8h62q7 0 9.5 -4.5t-1.5 -10.5l-67 -102q-5 -8 -14 -8h-92q-10 0 -14 8z" />
    <glyph glyph-name="florin" unicode="&#x192;" horiz-adv-x="474" 
d="M277 671q39 36 121 36q12 0 40 -2q12 -1 12 -13l-2 -71q0 -5 -3.5 -8.5t-8.5 -3.5h-26q-32 -1 -47.5 -21.5t-22.5 -59.5l-19 -119q0 -5 4 -5h62q5 0 8.5 -3.5t3.5 -8.5v-62q0 -5 -3.5 -8.5t-8.5 -3.5h-76q-6 0 -6 -5l-60 -367q-12 -80 -51 -116.5t-120 -36.5q-12 0 -40 2
q-12 1 -12 12l1 72q0 5 3.5 8.5t8.5 3.5h26q31 1 47.5 22t22.5 59l55 341q0 5 -4 5h-46q-5 0 -8.5 3.5t-3.5 8.5v62q0 5 3.5 8.5t8.5 3.5h61q6 0 6 5l23 145q12 81 51 117z" />
    <glyph glyph-name="uni01CD" unicode="&#x1cd;" horiz-adv-x="484" 
d="M339 11l-19 105q0 5 -6 5h-145q-6 0 -6 -4l-20 -106q-1 -11 -13 -11h-92q-13 0 -10 13l147 676q2 11 13 11h107q11 0 13 -11l148 -676v-4q0 -9 -11 -9h-93q-12 0 -13 11zM188 212h109q6 0 5 5l-55 302q-1 3 -3 3t-3 -3l-58 -302q-1 -5 5 -5zM179 758l-65 102q-2 6 -2 7
q0 7 10 7h67q10 0 14 -8l36 -61q1 -3 3 -3t4 3l35 61q5 8 15 8h62q7 0 9.5 -4.5t-1.5 -10.5l-67 -101q-5 -8 -14 -8h-92q-9 0 -14 8z" />
    <glyph glyph-name="uni01CE" unicode="&#x1ce;" horiz-adv-x="433" 
d="M346 473q49 -46 49 -121v-340q0 -5 -3.5 -8.5t-8.5 -3.5h-92q-5 0 -8.5 3.5t-3.5 8.5v18q0 3 -2 4t-4 -2q-36 -40 -101 -40q-57 0 -100.5 32.5t-43.5 118.5q0 90 52.5 128t142.5 38h51q5 0 5 5v26q0 36 -18 57.5t-45 21.5q-21 0 -35 -13.5t-17 -36.5q-1 -12 -13 -12h-97
q-12 0 -11 12q5 68 53.5 109t121.5 41q79 0 128 -46zM256.5 107q22.5 19 22.5 53v57q0 5 -5 5h-51q-35 0 -55.5 -18.5t-20.5 -53.5q0 -31 16 -46.5t41 -15.5q30 0 52.5 19zM155 577l-65 102q-2 6 -2 7q0 7 10 7h67q10 0 14 -8l36 -61q1 -3 3 -3t4 3l35 61q5 8 15 8h62
q7 0 9.5 -4.5t-1.5 -10.5l-67 -101q-5 -8 -14 -8h-92q-9 0 -14 8z" />
    <glyph glyph-name="uni0218" unicode="&#x218;" horiz-adv-x="440" 
d="M91 42.5q-51 50.5 -51 130.5v28q0 5 3.5 8.5t8.5 3.5h90q5 0 8.5 -3.5t3.5 -8.5v-22q0 -39 20 -63t50 -24q31 0 51 22.5t20 59.5q0 25 -11 44.5t-30.5 36.5t-63.5 49q-50 36 -80.5 64t-51 67.5t-20.5 91.5q0 83 50 132t131 49q84 0 135 -51.5t51 -136.5v-24
q0 -5 -3.5 -8.5t-8.5 -3.5h-91q-5 0 -8.5 3.5t-3.5 8.5v26q0 39 -19.5 62.5t-51.5 23.5q-29 0 -48 -21.5t-19 -59.5q0 -36 20.5 -61t80.5 -69q61 -46 92 -74t48 -62t17 -81q0 -85 -51.5 -136.5t-134.5 -51.5q-82 0 -133 50.5zM150 -183q-3 4 1 10l59 103q4 8 15 8h84
q8 0 10 -4.5t-2 -10.5l-74 -103q-5 -7 -14 -7h-69q-7 0 -10 4z" />
    <glyph glyph-name="uni0219" unicode="&#x219;" horiz-adv-x="398" 
d="M77 32q-47 38 -47 103v7q0 5 3.5 8.5t8.5 3.5h86q12 0 12 -8v-9q0 -24 18.5 -40t45.5 -16q26 0 41 15t15 38q0 20 -13 33.5t-28 20.5t-54 23q-57 22 -93.5 56t-36.5 101q0 70 44.5 109.5t120.5 39.5q78 0 123.5 -41.5t45.5 -111.5q0 -5 -3.5 -8.5t-8.5 -3.5h-84
q-5 0 -8.5 2.5t-3.5 6.5v9q0 24 -16.5 40t-41.5 16q-26 0 -41.5 -16.5t-15.5 -39.5q0 -19 12 -32t27 -20.5t50 -22.5q42 -17 70.5 -33.5t50 -47t21.5 -75.5q0 -67 -47 -106t-127 -39q-79 0 -126 38zM129 -181q-3 4 1 10l59 103q4 8 15 8h84q8 0 10 -4.5t-2 -10.5l-74 -103
q-5 -7 -14 -7h-69q-7 0 -10 4z" />
    <glyph glyph-name="uni021A" unicode="&#x21a;" 
d="M421.5 696.5q3.5 -3.5 3.5 -8.5v-76q0 -5 -3.5 -8.5t-8.5 -3.5h-127q-5 0 -5 -5v-583q0 -5 -3.5 -8.5t-8.5 -3.5h-92q-5 0 -8.5 3.5t-3.5 8.5v583q0 5 -5 5h-120q-5 0 -8.5 3.5t-3.5 8.5v76q0 5 3.5 8.5t8.5 3.5h373q5 0 8.5 -3.5zM94 -177q-3 4 1 10l59 103q4 8 15 8h84
q8 0 10 -4.5t-2 -10.5l-74 -103q-5 -7 -14 -7h-69q-7 0 -10 4z" />
    <glyph glyph-name="uni021B" unicode="&#x21b;" horiz-adv-x="282" 
d="M256.5 432.5q-3.5 -3.5 -8.5 -3.5h-62q-5 0 -5 -5v-262q0 -35 13 -48.5t39 -12.5h7q5 0 8.5 -3.5t3.5 -8.5v-77q0 -5 -3.5 -8.5t-8.5 -3.5h-34q-68 0 -102.5 25t-34.5 94v305q0 5 -5 5h-35q-5 0 -8.5 3.5t-3.5 8.5v58q0 5 3.5 8.5t8.5 3.5h35q5 0 5 5v110q0 5 3.5 8.5
t8.5 3.5h88q5 0 8.5 -3.5t3.5 -8.5v-110q0 -5 5 -5h62q5 0 8.5 -3.5t3.5 -8.5v-58q0 -5 -3.5 -8.5zM95 -164q-3 4 1 10l59 103q4 8 15 8h84q8 0 10 -4.5t-2 -10.5l-74 -103q-5 -7 -14 -7h-69q-7 0 -10 4z" />
    <glyph glyph-name="uni0228" unicode="&#x228;" horiz-adv-x="435" 
d="M399.5 603.5q-3.5 -3.5 -8.5 -3.5h-216q-5 0 -5 -5v-189q0 -5 5 -5h128q5 0 8.5 -3.5t3.5 -8.5v-77q0 -5 -3.5 -8.5t-8.5 -3.5h-128q-5 0 -5 -5v-190q0 -5 5 -5h216q5 0 8.5 -3.5t3.5 -8.5v-76q0 -5 -3.5 -8.5t-8.5 -3.5h-119q-3 0 -4 -2t1 -4q35 -41 35 -85
q0 -47 -24.5 -66.5t-60.5 -19.5q-20 0 -42 6q-9 3 -8 14l5 36q1 11 14 9q14 -2 24.5 5t14.5 23q6 37 -37 81q-3 3 -7 3h-117q-5 0 -8.5 3.5t-3.5 8.5v676q0 5 3.5 8.5t8.5 3.5h325q5 0 8.5 -3.5t3.5 -8.5v-76q0 -5 -3.5 -8.5z" />
    <glyph glyph-name="uni0229" unicode="&#x229;" horiz-adv-x="426" 
d="M389.5 215.5q-3.5 -3.5 -8.5 -3.5h-222q-5 0 -5 -5v-44q0 -32 17 -52t44 -20q23 0 39 15t22 38q3 11 13 10l90 -6q12 -2 11 -13q-7 -57 -39.5 -93t-89.5 -46q-6 -2 -2 -6q37 -41 37 -89q0 -47 -24.5 -66.5t-60.5 -19.5q-20 0 -42 6q-9 3 -8 14l5 36q1 11 14 9
q14 -2 24.5 5t14.5 23q1 3 1 10q0 33 -42 75l-5 3q-64 11 -99.5 52t-35.5 106v203q0 73 47.5 117.5t129.5 44.5t130 -44.5t48 -117.5v-133q0 -5 -3.5 -8.5zM171 399q-17 -20 -17 -51v-44q0 -5 5 -5h113q5 0 5 5v44q0 32 -17 51.5t-45 19.5q-27 0 -44 -20z" />
    <glyph glyph-name="circumflex" unicode="&#x2c6;" horiz-adv-x="277" 
d="M7.5 574.5q-2.5 3.5 1.5 10.5l65 102q5 8 14 8h98q9 0 14 -8l67 -101q2 -3 2 -7q0 -8 -9 -8h-69q-10 0 -15 8l-34 62q-3 5 -6 0l-35 -62q-5 -8 -15 -8h-69q-7 0 -9.5 3.5z" />
    <glyph glyph-name="caron" unicode="&#x2c7;" horiz-adv-x="304" 
d="M91 575l-65 103q-2 6 -2 7q0 7 10 7h67q10 0 14 -8l36 -62q2 -3 4 -3t3 3l35 62q5 8 15 8h62q7 0 9.5 -4.5t-1.5 -10.5l-67 -102q-5 -8 -14 -8h-92q-10 0 -14 8z" />
    <glyph glyph-name="uni02C9" unicode="&#x2c9;" horiz-adv-x="391" 
d="M91.5 589.5q-3.5 3.5 -3.5 8.5v56q0 5 3.5 8.5t8.5 3.5h190q5 0 8.5 -3.5t3.5 -8.5v-56q0 -5 -3.5 -8.5t-8.5 -3.5h-190q-5 0 -8.5 3.5z" />
    <glyph glyph-name="breve" unicode="&#x2d8;" horiz-adv-x="263" 
d="M53 580q-31 28 -35 74v2q0 10 11 10h39q12 0 13 -12q3 -22 17 -35.5t34 -13.5t34 13.5t17 35.5q2 12 13 12h39q13 0 11 -12q-4 -46 -35.5 -74t-78.5 -28q-48 0 -79 28z" />
    <glyph glyph-name="dotaccent" unicode="&#x2d9;" horiz-adv-x="144" 
d="M32.5 585q-15.5 16 -15.5 42q0 25 15.5 41t40.5 16t39.5 -15.5t14.5 -41.5t-14.5 -42t-39.5 -16t-40.5 16z" />
    <glyph glyph-name="ring" unicode="&#x2da;" horiz-adv-x="247" 
d="M48 596.5q-31 31.5 -31 77.5q0 45 31 76t76 31t76 -31t31 -76q0 -46 -31 -77.5t-76 -31.5t-76 31.5zM161 635.5q15 15.5 15 38.5t-15 38.5t-37 15.5t-37 -15.5t-15 -38.5t15 -38.5t37 -15.5t37 15.5z" />
    <glyph glyph-name="ogonek" unicode="&#x2db;" horiz-adv-x="140" 
d="M134 -173q0 -7 -8 -10q-22 -6 -41 -6q-37 0 -61.5 19.5t-24.5 66.5q0 52 46 97q6 6 15 6h48q4 0 7 -2t3 -4q0 -4 -5 -9q-38 -38 -38 -73l1 -8q4 -16 14.5 -23t24.5 -5h3q10 0 11 -9l5 -36v-4z" />
    <glyph glyph-name="tilde" unicode="&#x2dc;" horiz-adv-x="320" 
d="M185 589.5q-12 4.5 -29 14.5q-5 3 -13.5 8.5t-15 8t-14.5 2.5q-24 0 -38 -23q-7 -10 -17 -4l-32 24q-9 7 -5 16q14 32 35.5 47t47.5 15q16 0 30.5 -5.5t31.5 -16.5q3 -2 11 -8t16 -9t16 -3q24 0 38 23q6 11 16 4l32 -21q5 -3 5 -10q0 -6 -4 -14q-17 -28 -40 -40.5
t-46 -12.5q-13 0 -25 4.5z" />
    <glyph glyph-name="hungarumlaut" unicode="&#x2dd;" horiz-adv-x="361" 
d="M24 587q-3 4 1 10l58 103q5 8 15 8h83q8 0 10 -4.5t-2 -10.5l-73 -102q-5 -8 -14 -8h-68q-7 0 -10 4zM170 587q-3 4 1 10l58 103q5 8 15 8h83q8 0 10 -4.5t-2 -10.5l-73 -102q-5 -8 -14 -8h-68q-7 0 -10 4z" />
    <glyph glyph-name="gravecomb" unicode="&#x300;" horiz-adv-x="0" 
d="M-6 583q0 -8 -11 -8h-69q-9 0 -14 7l-74 103q-3 5 -3 7q0 8 11 8h84q11 0 15 -8l59 -103z" />
    <glyph glyph-name="acutecomb" unicode="&#x301;" horiz-adv-x="0" 
d="M-177 579q-3 4 1 10l59 103q4 8 15 8h84q8 0 10 -4.5t-2 -10.5l-74 -103q-5 -7 -14 -7h-69q-7 0 -10 4z" />
    <glyph glyph-name="uni0302" unicode="&#x302;" horiz-adv-x="0" 
d="M-270.5 574.5q-2.5 3.5 1.5 10.5l65 102q5 8 14 8h98q9 0 14 -8l67 -101q2 -3 2 -7q0 -8 -9 -8h-69q-10 0 -15 8l-34 62q-3 5 -6 0l-35 -62q-5 -8 -15 -8h-69q-7 0 -9.5 3.5z" />
    <glyph glyph-name="tildecomb" unicode="&#x303;" horiz-adv-x="0" 
d="M-119 589.5q-12 4.5 -29 14.5q-5 3 -13.5 8.5t-15 8t-14.5 2.5q-24 0 -38 -23q-7 -10 -17 -4l-32 24q-9 7 -5 16q14 32 35.5 47t47.5 15q16 0 30.5 -5.5t31.5 -16.5q3 -2 11 -8t16 -9t16 -3q24 0 38 23q6 11 16 4l32 -21q5 -3 5 -10q0 -6 -4 -14q-17 -28 -40 -40.5
t-46 -12.5q-13 0 -25 4.5z" />
    <glyph glyph-name="uni0304" unicode="&#x304;" horiz-adv-x="0" 
d="M-299.5 589.5q-3.5 3.5 -3.5 8.5v56q0 5 3.5 8.5t8.5 3.5h190q5 0 8.5 -3.5t3.5 -8.5v-56q0 -5 -3.5 -8.5t-8.5 -3.5h-190q-5 0 -8.5 3.5z" />
    <glyph glyph-name="uni0306" unicode="&#x306;" horiz-adv-x="0" 
d="M-210 571q-31 28 -35 74v2q0 10 11 10h39q11 0 13 -12q3 -21 17 -34.5t34 -13.5q19 0 33.5 13.5t17.5 34.5q1 12 13 12h39q12 0 11 -12q-4 -46 -35.5 -74t-78.5 -28q-48 0 -79 28z" />
    <glyph glyph-name="uni0307" unicode="&#x307;" horiz-adv-x="0" 
d="M-94.5 585q-15.5 16 -15.5 42q0 25 15.5 41t40.5 16t39.5 -15.5t14.5 -41.5t-14.5 -42t-39.5 -16t-40.5 16z" />
    <glyph glyph-name="uni0308" unicode="&#x308;" horiz-adv-x="0" 
d="M-257.5 594.5q-17.5 17.5 -17.5 45.5q0 27 17.5 44.5t43.5 17.5t42.5 -17.5t16.5 -44.5q0 -28 -16.5 -45.5t-42.5 -17.5t-43.5 17.5zM-103 594.5q-17 17.5 -17 45.5q0 27 17 44.5t44 17.5q26 0 42.5 -17.5t16.5 -44.5q0 -28 -16.5 -45.5t-42.5 -17.5q-27 0 -44 17.5z" />
    <glyph glyph-name="uni030A" unicode="&#x30a;" horiz-adv-x="0" 
d="M-183 596.5q-31 31.5 -31 77.5q0 45 31 76t76 31t76 -31t31 -76q0 -46 -31 -77.5t-76 -31.5t-76 31.5zM-70 635.5q15 15.5 15 38.5t-15 38.5t-37 15.5t-37 -15.5t-15 -38.5t15 -38.5t37 -15.5t37 15.5z" />
    <glyph glyph-name="uni030B" unicode="&#x30b;" horiz-adv-x="0" 
d="M-318.5 576.5q-2.5 3.5 0.5 10.5l50 102q4 9 14 9h75q7 0 9 -4t-1 -10l-54 -102q-5 -9 -15 -9h-69q-7 0 -9.5 3.5zM-172 577q-2 4 1 10l54 102q4 9 15 9h70q7 0 9 -4t-1 -10l-55 -103q-4 -8 -15 -8h-69q-7 0 -9 4z" />
    <glyph glyph-name="uni030C" unicode="&#x30c;" horiz-adv-x="0" 
d="M-213 571l-65 102q-2 6 -2 7q0 7 10 7h67q10 0 14 -8l36 -61q1 -3 3 -3t4 3l35 61q5 8 15 8h62q7 0 9.5 -4.5t-1.5 -10.5l-67 -101q-5 -8 -14 -8h-92q-9 0 -14 8z" />
    <glyph glyph-name="uni0312" unicode="&#x312;" horiz-adv-x="0" 
d="M-24 688q3 -4 -1 -10l-59 -103q-4 -8 -15 -8h-84q-8 0 -10 4.5t2 10.5l74 103q5 7 14 7h69q7 0 10 -4z" />
    <glyph glyph-name="uni0313" unicode="&#x313;" horiz-adv-x="0" 
d="M-177 579q-3 4 1 10l59 103q4 8 15 8h84q8 0 10 -4.5t-2 -10.5l-74 -103q-5 -7 -14 -7h-69q-7 0 -10 4z" />
    <glyph glyph-name="uni0326" unicode="&#x326;" horiz-adv-x="0" 
d="M-193 -175q-3 4 1 10l59 103q4 8 15 8h84q8 0 10 -4.5t-2 -10.5l-74 -103q-5 -7 -14 -7h-69q-7 0 -10 4z" />
    <glyph glyph-name="uni0327" unicode="&#x327;" horiz-adv-x="0" 
d="M-134 -169l5 36q1 11 14 9q14 -2 24.5 5t14.5 23q6 38 -37 81q-5 5 -5 9q0 2 3 4t7 2h48q9 0 15 -6q46 -45 46 -97q0 -47 -24.5 -66.5t-60.5 -19.5q-20 0 -42 6q-9 3 -8 14z" />
    <glyph glyph-name="uni0328" unicode="&#x328;" horiz-adv-x="0" 
d="M-6 -173q0 -7 -8 -10q-22 -6 -41 -6q-37 0 -61.5 19.5t-24.5 66.5q0 52 46 97q6 6 15 6h48q4 0 7 -2t3 -4q0 -4 -5 -9q-38 -38 -38 -73l1 -8q4 -16 14.5 -23t24.5 -5h3q10 0 11 -9l5 -36v-4z" />
    <glyph glyph-name="uni0335" unicode="&#x335;" horiz-adv-x="0" 
d="M-285.5 627.5q3.5 3.5 8.5 3.5h265q5 0 8.5 -3.5t3.5 -8.5v-47q0 -5 -3.5 -8.5t-8.5 -3.5h-265q-5 0 -8.5 3.5t-3.5 8.5v47q0 5 3.5 8.5z" />
    <glyph glyph-name="uni0336" unicode="&#x336;" horiz-adv-x="0" 
d="M-460.5 515.5q-3.5 3.5 -3.5 8.5v55q0 5 3.5 8.5t8.5 3.5h440q5 0 8.5 -3.5t3.5 -8.5v-55q0 -5 -3.5 -8.5t-8.5 -3.5h-440q-5 0 -8.5 3.5z" />
    <glyph glyph-name="uni0337" unicode="&#x337;" horiz-adv-x="0" 
d="M-320 129q-4 0 -9 5l-41 50q-3 5 -3 8q0 4 5 9l365 290q5 3 8 3q4 0 9 -5l42 -50q3 -4 3 -8t-5 -9l-366 -290q-5 -3 -8 -3z" />
    <glyph glyph-name="uni0338" unicode="&#x338;" horiz-adv-x="0" 
d="M-405 -37q-2 4 0 10l330 763q4 9 14 9h46q7 0 9 -4t0 -10l-331 -763q-4 -9 -14 -9h-45q-7 0 -9 4z" />
    <glyph glyph-name="uni0394" unicode="&#x394;" horiz-adv-x="553" 
d="M28.5 3.5q-3.5 3.5 -3.5 8.5v80q0 9 2 15l204 583q3 10 13 10h64q10 0 13 -10l205 -584q2 -6 2 -15v-79q0 -5 -3.5 -8.5t-8.5 -3.5h-479q-5 0 -8.5 3.5zM144 100h265q6 0 4 6l-133 436q-1 4 -3 4t-3 -4l-134 -436q-1 -6 4 -6z" />
    <glyph glyph-name="uni03A9" unicode="&#x3a9;" horiz-adv-x="491" 
d="M45.5 3.5q-3.5 3.5 -3.5 8.5v76q0 5 3.5 8.5t8.5 3.5h41q3 0 3.5 2t-1.5 4q-42 47 -42 119v293q0 86 52.5 138t138.5 52t139 -52t53 -138v-293q0 -73 -43 -119q-2 -2 -1 -4t4 -2h39q5 0 8.5 -3.5t3.5 -8.5v-76q0 -5 -3.5 -8.5t-8.5 -3.5h-161q-5 0 -8.5 3.5t-3.5 8.5v77
q0 9 10 14q21 8 34.5 29.5t13.5 51.5v339q0 38 -21 61.5t-55 23.5t-54.5 -23.5t-20.5 -61.5v-339q0 -30 13 -51.5t33 -28.5q10 -5 10 -14v-78q0 -5 -3.5 -8.5t-8.5 -3.5h-161q-5 0 -8.5 3.5z" />
    <glyph glyph-name="uni03BC" unicode="&#x3bc;" horiz-adv-x="443" 
d="M284.5 507.5q3.5 3.5 8.5 3.5h92q5 0 8.5 -3.5t3.5 -8.5v-487q0 -5 -3.5 -8.5t-8.5 -3.5h-92q-5 0 -8.5 3.5t-3.5 8.5v22q0 3 -2 4t-4 -2q-29 -43 -93 -43h-15q-5 2 -5 -4v-177q0 -5 -3.5 -8.5t-8.5 -3.5h-92q-5 0 -8.5 3.5t-3.5 8.5v687q0 5 3.5 8.5t8.5 3.5h92
q5 0 8.5 -3.5t3.5 -8.5v-332q0 -75 58 -75q29 0 45 21.5t16 58.5v327q0 5 3.5 8.5z" />
    <glyph glyph-name="pi" unicode="&#x3c0;" horiz-adv-x="527" 
d="M497.5 415.5q-3.5 -3.5 -8.5 -3.5h-43q-5 0 -5 -5v-256q0 -33 10 -42.5t30 -9.5h2q10 0 10 -11v-76q0 -12 -12 -12l-38 -1q-54 0 -86.5 18.5t-31.5 73.5v316q0 5 -5 5h-111q-5 0 -5 -5v-395q0 -5 -3.5 -8.5t-8.5 -3.5h-92q-5 0 -8.5 3.5t-3.5 8.5v395q0 5 -5 5h-44
q-5 0 -8.5 3.5t-3.5 8.5v75q0 5 3.5 8.5t8.5 3.5h450q5 0 8.5 -3.5t3.5 -8.5v-75q0 -5 -3.5 -8.5z" />
    <glyph glyph-name="Wgrave" unicode="&#x1e80;" horiz-adv-x="665" 
d="M157 11l-133 676l-1 4q0 9 11 9h96q12 0 13 -11l70 -417q1 -3 3 -3t3 3l63 417q1 11 13 11h80q12 0 13 -11l68 -417q1 -3 3 -3t3 3l63 417q1 11 13 11h93q13 0 11 -13l-127 -676q-1 -11 -13 -11h-85q-12 0 -13 11l-67 425q-1 4 -3 4t-3 -4l-62 -425q-1 -11 -13 -11h-86
q-12 0 -13 11zM371 772q0 -8 -11 -8h-69q-9 0 -14 7l-74 103q-3 5 -3 7q0 8 11 8h84q11 0 15 -8l59 -103z" />
    <glyph glyph-name="wgrave" unicode="&#x1e81;" horiz-adv-x="592" 
d="M126 11l-106 487l-1 4q0 9 11 9h88q12 0 13 -11l53 -326q1 -3 3 -3t3 3l54 326q1 11 13 11h78q12 0 13 -11l56 -326q1 -3 3 -3t3 3l53 326q1 11 13 11l87 -1q13 0 10 -13l-107 -486q-2 -11 -13 -11h-90q-12 0 -13 11l-53 292q-1 3 -3 3t-3 -3l-52 -292q-1 -11 -13 -11
h-87q-11 0 -13 11zM338 583q0 -8 -11 -8h-69q-9 0 -14 7l-74 103q-3 5 -3 7q0 8 11 8h84q11 0 15 -8l59 -103z" />
    <glyph glyph-name="Wacute" unicode="&#x1e82;" horiz-adv-x="665" 
d="M157 11l-133 676l-1 4q0 9 11 9h96q12 0 13 -11l70 -417q1 -3 3 -3t3 3l63 417q1 11 13 11h80q12 0 13 -11l68 -417q1 -3 3 -3t3 3l63 417q1 11 13 11h93q13 0 11 -13l-127 -676q-1 -11 -13 -11h-85q-12 0 -13 11l-67 425q-1 4 -3 4t-3 -4l-62 -425q-1 -11 -13 -11h-86
q-12 0 -13 11zM266 768q-3 4 1 10l59 103q4 8 15 8h84q8 0 10 -4.5t-2 -10.5l-74 -103q-5 -7 -14 -7h-69q-7 0 -10 4z" />
    <glyph glyph-name="wacute" unicode="&#x1e83;" horiz-adv-x="592" 
d="M126 11l-106 487l-1 4q0 9 11 9h88q12 0 13 -11l53 -326q1 -3 3 -3t3 3l54 326q1 11 13 11h78q12 0 13 -11l56 -326q1 -3 3 -3t3 3l53 326q1 11 13 11l87 -1q13 0 10 -13l-107 -486q-2 -11 -13 -11h-90q-12 0 -13 11l-53 292q-1 3 -3 3t-3 -3l-52 -292q-1 -11 -13 -11
h-87q-11 0 -13 11zM233 579q-3 4 1 10l59 103q4 8 15 8h84q8 0 10 -4.5t-2 -10.5l-74 -103q-5 -7 -14 -7h-69q-7 0 -10 4z" />
    <glyph glyph-name="Wdieresis" unicode="&#x1e84;" horiz-adv-x="665" 
d="M157 11l-133 676l-1 4q0 9 11 9h96q12 0 13 -11l70 -417q1 -3 3 -3t3 3l63 417q1 11 13 11h80q12 0 13 -11l68 -417q1 -3 3 -3t3 3l63 417q1 11 13 11h93q13 0 11 -13l-127 -676q-1 -11 -13 -11h-85q-12 0 -13 11l-67 425q-1 4 -3 4t-3 -4l-62 -425q-1 -11 -13 -11h-86
q-12 0 -13 11zM208.5 783.5q-17.5 17.5 -17.5 45.5q0 27 17.5 44.5t43.5 17.5t42.5 -17.5t16.5 -44.5q0 -28 -16.5 -45.5t-42.5 -17.5t-43.5 17.5zM363 783.5q-17 17.5 -17 45.5q0 27 17 44.5t44 17.5q26 0 42.5 -17.5t16.5 -44.5q0 -28 -16.5 -45.5t-42.5 -17.5
q-27 0 -44 17.5z" />
    <glyph glyph-name="wdieresis" unicode="&#x1e85;" horiz-adv-x="592" 
d="M126 11l-106 487l-1 4q0 9 11 9h88q12 0 13 -11l53 -326q1 -3 3 -3t3 3l54 326q1 11 13 11h78q12 0 13 -11l56 -326q1 -3 3 -3t3 3l53 326q1 11 13 11l87 -1q13 0 10 -13l-107 -486q-2 -11 -13 -11h-90q-12 0 -13 11l-53 292q-1 3 -3 3t-3 -3l-52 -292q-1 -11 -13 -11
h-87q-11 0 -13 11zM175.5 594.5q-17.5 17.5 -17.5 45.5q0 27 17.5 44.5t43.5 17.5t42.5 -17.5t16.5 -44.5q0 -28 -16.5 -45.5t-42.5 -17.5t-43.5 17.5zM330 594.5q-17 17.5 -17 45.5q0 27 17 44.5t44 17.5q26 0 42.5 -17.5t16.5 -44.5q0 -28 -16.5 -45.5t-42.5 -17.5
q-27 0 -44 17.5z" />
    <glyph glyph-name="Ygrave" unicode="&#x1ef2;" horiz-adv-x="456" 
d="M173.5 4.5q-3.5 3.5 -3.5 8.5v273l-1 6l-139 394q-1 2 -1 5q0 9 11 9h96q11 0 14 -10l75 -257q1 -3 3 -3t3 3l75 257q3 10 14 10h96q6 0 9 -3.5t1 -10.5l-139 -394l-1 -6v-273q0 -5 -3.5 -8.5t-8.5 -3.5h-92q-5 0 -8.5 3.5zM271 771q0 -8 -11 -8h-69q-9 0 -14 7l-74 103
q-3 5 -3 7q0 8 11 8h84q11 0 15 -8l59 -103z" />
    <glyph glyph-name="ygrave" unicode="&#x1ef3;" horiz-adv-x="403" 
d="M34 -187v72q0 12 5 12h5q33 0 52 8t30.5 29.5t16.5 62.5l-1 6l-126 495v4q0 9 11 9h98q12 0 13 -11l61 -330q1 -3 3 -3t3 3l59 330q1 11 13 11l99 -1q14 0 11 -13l-134 -525q-19 -71 -40 -106t-59 -50t-108 -15h-6q-6 0 -6 12zM244 583q0 -8 -11 -8h-69q-9 0 -14 7
l-74 103q-3 5 -3 7q0 8 11 8h84q11 0 15 -8l59 -103z" />
    <glyph glyph-name="endash" unicode="&#x2013;" horiz-adv-x="377" 
d="M30.5 237.5q-3.5 3.5 -3.5 8.5v76q0 5 3.5 8.5t8.5 3.5h300q5 0 8.5 -3.5t3.5 -8.5v-76q0 -5 -3.5 -8.5t-8.5 -3.5h-300q-5 0 -8.5 3.5z" />
    <glyph glyph-name="emdash" unicode="&#x2014;" horiz-adv-x="593" 
d="M30.5 237.5q-3.5 3.5 -3.5 8.5v76q0 5 3.5 8.5t8.5 3.5h515q5 0 8.5 -3.5t3.5 -8.5v-76q0 -5 -3.5 -8.5t-8.5 -3.5h-515q-5 0 -8.5 3.5z" />
    <glyph glyph-name="quoteleft" unicode="&#x2018;" horiz-adv-x="165" 
d="M5.5 485.5q-2.5 3.5 -0.5 10.5l65 194q3 10 13 10h68q14 0 11 -13l-43 -194q-2 -11 -13 -11h-92q-6 0 -8.5 3.5z" />
    <glyph glyph-name="quoteright" unicode="&#x2019;" horiz-adv-x="165" 
d="M159.5 696.5q2.5 -3.5 0.5 -10.5l-65 -194q-3 -10 -13 -10h-68q-14 0 -11 13l43 194q2 11 13 11h92q6 0 8.5 -3.5z" />
    <glyph glyph-name="quotesinglbase" unicode="&#x201a;" horiz-adv-x="600" 
d="M35.5 -87.5q-3.5 3.5 -2.5 9.5l26 224q1 11 12 11h80q13 0 10 -13l-49 -224q-2 -11 -13 -11h-54q-6 0 -9.5 3.5z" />
    <glyph glyph-name="quotedblleft" unicode="&#x201c;" horiz-adv-x="316" 
d="M6 485.5q-3 3.5 -1 10.5l67 194q3 10 13 10h66q14 0 11 -13l-47 -195q-3 -10 -13 -10h-87q-6 0 -9 3.5zM158.5 485.5q-2.5 3.5 -0.5 10.5l66 194q3 10 13 10h65q14 0 11 -13l-45 -194q-3 -11 -13 -11h-88q-6 0 -8.5 3.5z" />
    <glyph glyph-name="quotedblright" unicode="&#x201d;" horiz-adv-x="316" 
d="M157.5 696.5q2.5 -3.5 0.5 -10.5l-66 -194q-3 -10 -13 -10h-65q-14 0 -11 13l45 194q3 11 13 11h88q6 0 8.5 -3.5zM310 696.5q3 -3.5 1 -10.5l-67 -194q-3 -10 -13 -10h-66q-14 0 -11 13l47 195q3 10 13 10h87q6 0 9 -3.5z" />
    <glyph glyph-name="quotedblbase" unicode="&#x201e;" horiz-adv-x="309" 
d="M157.5 124.5q2.5 -3.5 0.5 -10.5l-66 -194q-3 -10 -13 -10h-65q-14 0 -11 13l45 194q3 11 13 11h88q6 0 8.5 -3.5zM310 124.5q3 -3.5 1 -10.5l-67 -194q-3 -10 -13 -10h-66q-14 0 -11 13l47 195q3 10 13 10h87q6 0 9 -3.5z" />
    <glyph glyph-name="dagger" unicode="&#x2020;" horiz-adv-x="356" 
d="M325.5 456.5q3.5 -3.5 3.5 -8.5v-64q0 -5 -3.5 -8.5t-8.5 -3.5h-76q-5 0 -5 -5v-555q0 -5 -3.5 -8.5t-8.5 -3.5h-92q-5 0 -8.5 3.5t-3.5 8.5v555q0 5 -5 5h-76q-5 0 -8.5 3.5t-3.5 8.5v64q0 5 3.5 8.5t8.5 3.5h76q5 0 5 5v223q0 5 3.5 8.5t8.5 3.5h92q5 0 8.5 -3.5
t3.5 -8.5v-223q0 -5 5 -5h76q5 0 8.5 -3.5z" />
    <glyph glyph-name="daggerdbl" unicode="&#x2021;" horiz-adv-x="356" 
d="M325.5 375.5q-3.5 -3.5 -8.5 -3.5h-76q-5 0 -5 -5v-234q0 -5 5 -5h76q5 0 8.5 -3.5t3.5 -8.5v-64q0 -5 -3.5 -8.5t-8.5 -3.5h-76q-5 0 -5 -5v-223q0 -5 -3.5 -8.5t-8.5 -3.5h-92q-5 0 -8.5 3.5t-3.5 8.5v223q0 5 -5 5h-76q-5 0 -8.5 3.5t-3.5 8.5v64q0 5 3.5 8.5t8.5 3.5
h76q5 0 5 5v234q0 5 -5 5h-76q-5 0 -8.5 3.5t-3.5 8.5v64q0 5 3.5 8.5t8.5 3.5h76q5 0 5 5v223q0 5 3.5 8.5t8.5 3.5h92q5 0 8.5 -3.5t3.5 -8.5v-223q0 -5 5 -5h76q5 0 8.5 -3.5t3.5 -8.5v-64q0 -5 -3.5 -8.5z" />
    <glyph glyph-name="bullet" unicode="&#x2022;" horiz-adv-x="302" 
d="M89.5 165q-28.5 17 -45.5 46t-17 62q0 52 36.5 88t88.5 36q51 0 87.5 -36t36.5 -88q0 -33 -17 -62t-45.5 -46t-61.5 -17q-34 0 -62.5 17z" />
    <glyph glyph-name="ellipsis" unicode="&#x2026;" horiz-adv-x="714" 
d="M67 21q-21 22 -21 55q0 31 23 53.5t51 22.5q29 0 52 -22.5t23 -53.5q0 -32 -21.5 -54.5t-53.5 -22.5t-53 22zM301 21q-21 22 -21 55q0 31 23 53.5t51 22.5q29 0 52 -22.5t23 -53.5q0 -32 -21.5 -54.5t-53.5 -22.5t-53 22zM535 21q-21 22 -21 55q0 31 23 53.5t51 22.5
q29 0 52 -22.5t23 -53.5q0 -32 -21.5 -54.5t-53.5 -22.5t-53 22z" />
    <glyph glyph-name="perthousand" unicode="&#x2030;" horiz-adv-x="1014" 
d="M52 307.5q-31 32.5 -31 85.5v196q0 53 31 86t83 33t83.5 -33t31.5 -86v-196q0 -53 -31.5 -85.5t-83.5 -32.5t-83 32.5zM162.5 354q10.5 13 10.5 35v205q0 22 -10.5 34.5t-27.5 12.5t-27.5 -12.5t-10.5 -34.5v-205q0 -22 10.5 -35t27.5 -13t27.5 13zM123.5 3.5
q-2.5 3.5 1.5 10.5l414 678q4 8 14 8h59q7 0 9.5 -3.5t-1.5 -10.5l-415 -678q-4 -8 -14 -8h-58q-7 0 -9.5 3.5zM526 25.5q-31 32.5 -31 85.5v196q0 53 31 86t83 33t83.5 -33t31.5 -86v-196q0 -53 -31.5 -85.5t-83.5 -32.5t-83 32.5zM636.5 72q10.5 13 10.5 35v205
q0 22 -10.5 34.5t-27.5 12.5t-27.5 -12.5t-10.5 -34.5v-205q0 -22 10.5 -35t27.5 -13t27.5 13zM796 25.5q-31 32.5 -31 85.5v196q0 53 31 86t83 33t83.5 -33t31.5 -86v-196q0 -53 -31.5 -85.5t-83.5 -32.5t-83 32.5zM906.5 72q10.5 13 10.5 35v205q0 22 -10.5 34.5
t-27.5 12.5t-27.5 -12.5t-10.5 -34.5v-205q0 -22 10.5 -35t27.5 -13t27.5 13z" />
    <glyph glyph-name="guilsinglleft" unicode="&#x2039;" horiz-adv-x="298" 
d="M238 115q0 -8 -11 -8h-79q-10 0 -15 8l-87 158q-2 6 -2 8q0 4 2 8l87 158q5 8 15 8h79q7 0 10 -4t-1 -10l-89 -157q-1 -3 0 -6l89 -157z" />
    <glyph glyph-name="guilsinglright" unicode="&#x203a;" horiz-adv-x="311" 
d="M61 111q-3 4 1 10l89 157q2 3 0 6l-89 157l-2 6q0 8 11 8h79q10 0 15 -8l87 -158q2 -2 2 -8q0 -5 -2 -8l-87 -158q-5 -8 -15 -8h-79q-7 0 -10 4z" />
    <glyph glyph-name="fraction" unicode="&#x2044;" horiz-adv-x="222" 
d="M-136.5 3.5q-2.5 3.5 1.5 10.5l414 678q4 8 14 8h59q7 0 9.5 -3.5t-1.5 -10.5l-415 -678q-4 -8 -14 -8h-58q-7 0 -9.5 3.5z" />
    <glyph glyph-name="uni2074" unicode="&#x2074;" horiz-adv-x="278" 
d="M265.5 599.5q3.5 -3.5 3.5 -8.5v-45q0 -5 -3.5 -8.5t-8.5 -3.5h-12q-5 0 -5 -5v-91q0 -5 -3.5 -8.5t-8.5 -3.5h-52q-5 0 -8.5 3.5t-3.5 8.5v91q0 5 -5 5h-138q-5 0 -8.5 3.5t-3.5 8.5v36q0 9 2 15l80 239q3 10 13 10h57q6 0 9 -3.5t1 -10.5l-71 -223q-1 -6 4 -6h55
q5 0 5 5v61q0 5 3.5 8.5t8.5 3.5h52q5 0 8.5 -3.5t3.5 -8.5v-61q0 -5 5 -5h12q5 0 8.5 -3.5z" />
    <glyph glyph-name="uni2075" unicode="&#x2075;" horiz-adv-x="253" 
d="M238 555q0 -25 -3 -43q-4 -44 -33 -68t-76 -24t-76 23.5t-33 69.5l-2 19q0 12 12 12h52q12 0 13 -12v-5q0 -4 2 -14q8 -27 32 -27q26 0 32 32q3 11 3 38q0 24 -3 34q-6 31 -32 31q-24 0 -32 -21q-5 -10 -14 -10h-54q-5 0 -8.5 3.5t-3.5 8.5v231q0 5 3.5 8.5t8.5 3.5h194
q5 0 8.5 -3.5t3.5 -8.5v-42q0 -5 -3.5 -8.5t-8.5 -3.5h-124q-5 0 -5 -5v-101q0 -3 2 -3.5t4 1.5q22 17 52 17q36 0 58 -23.5t27 -65.5q4 -24 4 -44z" />
    <glyph glyph-name="uni2076" unicode="&#x2076;" horiz-adv-x="261" 
d="M245 555q0 -29 -4 -48q-4 -42 -32.5 -64.5t-75.5 -22.5q-44 0 -71.5 21.5t-34.5 64.5q-5 16 -5 43v194q-1 49 29.5 78t80.5 29q48 0 78 -29t30 -78v-12q0 -5 -3.5 -8.5t-8.5 -3.5h-53q-5 0 -8.5 3t-3.5 7v10q0 19 -9 31t-22 12q-15 0 -24.5 -12t-9.5 -31v-68q0 -3 2 -4
t4 2q20 20 51 20q37 0 59 -23.5t27 -65.5q4 -17 4 -45zM167 560q0 22 -3 44q-8 29 -32 29q-23 0 -31 -30q-3 -24 -3 -43q0 -18 3 -42q6 -32 31 -32q26 0 32 29q3 24 3 45z" />
    <glyph glyph-name="uni2077" unicode="&#x2077;" horiz-adv-x="238" 
d="M53.5 429.5q-2.5 3.5 -1.5 9.5l96 335q2 6 -4 6h-70q-5 0 -5 -5v-26q0 -5 -3.5 -8.5t-8.5 -3.5h-38q-5 0 -8.5 3.5t-3.5 8.5v85q0 5 3.5 8.5t8.5 3.5h200q5 0 8.5 -3.5t3.5 -8.5v-47q0 -4 -2 -14l-98 -337q-3 -10 -14 -10h-55q-6 0 -8.5 3.5z" />
    <glyph glyph-name="uni2078" unicode="&#x2078;" horiz-adv-x="263" 
d="M199 641q25 -16 35 -47q8 -27 8 -49t-8 -49q-11 -34 -38.5 -55t-64.5 -21t-64 20.5t-39 55.5q-7 21 -7 49q0 29 7 50q10 29 35 45q5 3 0 6q-25 17 -35 47q-7 22 -7 45q0 27 7 44q12 33 39 51.5t64 18.5q36 0 63.5 -18.5t39.5 -51.5q8 -24 8 -45q0 -22 -8 -44
q-8 -28 -35 -46q-6 -3 0 -6zM96 731q0 -13 1 -20q5 -38 34 -38q27 0 34 38q1 6 1 19t-1 19q-6 37 -34 37q-14 0 -23 -10t-11 -27q-1 -6 -1 -18zM165.5 539.5q-0.5 7.5 -0.5 10.5v16q0 22 -9 35.5t-25 13.5q-14 0 -23.5 -11t-10.5 -29q-1 -9 -1 -24q0 -17 1 -25
q1 -18 10.5 -29t23.5 -11t23 11t11 29q1 6 0.5 13.5z" />
    <glyph glyph-name="uni2079" unicode="&#x2079;" horiz-adv-x="261" 
d="M209.5 448q-30.5 -29 -80.5 -29q-48 0 -78 29t-30 78v12q0 5 3.5 8.5t8.5 3.5h53q5 0 8.5 -3t3.5 -7v-10q0 -19 9 -31t22 -12q15 0 24.5 12t9.5 31v68q0 3 -2 4t-4 -2q-20 -20 -51 -20q-37 0 -59 23.5t-27 65.5q-4 17 -4 45q0 29 4 48q4 42 32.5 64.5t75.5 22.5
q44 0 71.5 -21.5t34.5 -64.5q5 -16 5 -43v-194q1 -49 -29.5 -78zM160 666q3 24 3 43q0 18 -3 42q-6 32 -31 32q-26 0 -32 -29q-3 -24 -3 -45t3 -44q8 -29 32 -29q23 0 31 30z" />
    <glyph glyph-name="franc" unicode="&#x20a3;" horiz-adv-x="478" 
d="M461.5 603.5q-3.5 -3.5 -8.5 -3.5h-215q-5 0 -5 -5v-189q0 -5 5 -5h127q5 0 8.5 -3.5t3.5 -8.5v-77q0 -5 -3.5 -8.5t-8.5 -3.5h-127q-5 0 -5 -5v-93q0 -5 5 -5h93q5 0 8.5 -3.5t3.5 -8.5v-47q0 -5 -3.5 -8.5t-8.5 -3.5h-93q-5 0 -5 -5v-109q0 -5 -3.5 -8.5t-8.5 -3.5h-92
q-5 0 -8.5 3.5t-3.5 8.5v109q0 5 -5 5h-46q-5 0 -8.5 3.5t-3.5 8.5v47q0 5 3.5 8.5t8.5 3.5h46q5 0 5 5v486q0 5 3.5 8.5t8.5 3.5h324q5 0 8.5 -3.5t3.5 -8.5v-76q0 -5 -3.5 -8.5z" />
    <glyph glyph-name="Euro" unicode="&#x20ac;" horiz-adv-x="495" 
d="M322.5 108.5q15.5 16.5 18.5 45.5q2 12 13 11l91 -12q6 -1 8.5 -4.5t1.5 -9.5q-11 -69 -57 -108t-115 -39q-79 0 -126.5 51.5t-47.5 136.5v76q0 5 -5 5h-50q-5 0 -8.5 3.5t-3.5 8.5v39q0 5 3.5 8.5t8.5 3.5h50q5 0 5 5v40q0 5 -5 5h-50q-5 0 -8.5 3.5t-3.5 8.5v38
q0 5 3.5 8.5t8.5 3.5h50q5 0 5 5v80q0 86 47.5 136.5t126.5 50.5q71 0 117.5 -40.5t56.5 -110.5v-2q0 -9 -11 -11l-92 -11h-2q-9 0 -11 11q-2 29 -17.5 46.5t-40.5 17.5q-26 0 -42 -22t-16 -57v-88q0 -5 5 -5h150q6 0 9 -3.5t1 -10.5l-13 -38q-3 -10 -13 -10h-134
q-5 0 -5 -5v-40q0 -5 5 -5h119q6 0 8.5 -3.5t0.5 -10.5l-13 -39q-3 -10 -13 -10h-102q-5 0 -5 -5v-85q0 -35 16 -57t42 -22q24 0 39.5 16.5z" />
    <glyph glyph-name="uni20BA" unicode="&#x20ba;" horiz-adv-x="573" 
d="M535 265q-2 -110 -68.5 -182t-194.5 -80q-57 -3 -115 -3q-12 0 -12 12v275q0 2 -2 3.5t-4 0.5l-66 -20l-4 -1q-8 0 -11 10l-13 42l-1 4q0 7 9 10l88 27q4 2 4 5v47q0 2 -2 3.5t-4 0.5l-66 -20l-4 -1q-8 0 -11 10l-13 42l-1 4q0 7 9 10l88 27q4 2 4 5v192q0 5 3.5 8.5
t8.5 3.5h92q5 0 8.5 -3.5t3.5 -8.5v-154q0 -2 2 -3.5t4 -0.5l126 38l5 1q7 0 10 -9l13 -43l1 -4q0 -7 -9 -10l-148 -45q-4 -2 -4 -5v-47q0 -2 2 -3.5t4 -0.5l126 38l5 1q7 0 10 -9l13 -43l1 -4q0 -7 -9 -10l-148 -45q-4 -2 -4 -5v-220q0 -5 5 -5q75 6 113.5 48t39.5 117
q0 12 12 12h92q12 0 12 -12z" />
    <glyph glyph-name="uni20BD" unicode="&#x20bd;" horiz-adv-x="522" 
d="M239 295q-5 0 -5 -5v-62q0 -5 5 -5h157q5 0 8.5 -3.5t3.5 -8.5v-43q0 -5 -3.5 -8.5t-8.5 -3.5h-157q-5 0 -5 -5v-139q0 -5 -3.5 -8.5t-8.5 -3.5h-92q-5 0 -8.5 3.5t-3.5 8.5v139q0 5 -5 5h-46q-5 0 -8.5 3.5t-3.5 8.5v43q0 5 3.5 8.5t8.5 3.5h46q5 0 5 5v62q0 5 -5 5h-47
q-5 0 -8.5 3.5t-3.5 8.5v67q0 5 3.5 8.5t8.5 3.5h47q5 0 5 5v298q0 5 3.5 8.5t8.5 3.5h188q53 0 93.5 -26t63 -73t22.5 -107q0 -90 -47.5 -145t-125.5 -55h-85zM234 596v-205q0 -5 5 -5h61q36 0 58.5 28.5t22.5 77.5q0 50 -22.5 79.5t-58.5 29.5h-61q-5 0 -5 -5z" />
    <glyph glyph-name="uni2113" unicode="&#x2113;" horiz-adv-x="429" 
d="M330 112q5 0 8 -5l41 -48q4 -3 4 -8t-4 -9q-44 -50 -129 -50q-67 0 -105 44t-38 122v48q0 8 -6 3l-21 -15q-5 -3 -8 -3q-5 0 -8 8l-19 53q-1 2 -1 5q0 7 6 11l54 40q3 2 3 6l-1 189q0 49 17.5 96t52.5 77.5t84 30.5q55 0 89 -39.5t34 -101.5q0 -78 -47 -145.5
t-130 -133.5q-3 -1 -3 -6v-106q0 -95 58 -95q33 0 60 27q5 5 9 5zM202 398q0 -3 2 -4t4 1q88 85 88 162q0 30 -9.5 49t-28.5 19q-26 0 -41.5 -35t-14.5 -104v-88z" />
    <glyph glyph-name="trademark" unicode="&#x2122;" horiz-adv-x="532" 
d="M17.5 647.5q-3.5 3.5 -3.5 8.5v32q0 5 3.5 8.5t8.5 3.5h196q5 0 8.5 -3.5t3.5 -8.5v-32q0 -5 -3.5 -8.5t-8.5 -3.5h-62q-5 0 -5 -5v-278q0 -5 -3.5 -8.5t-8.5 -3.5h-41q-5 0 -8.5 3.5t-3.5 8.5v278q0 5 -5 5h-59q-5 0 -8.5 3.5zM453 700h41q5 0 8.5 -3.5t3.5 -8.5v-327
q0 -5 -3.5 -8.5t-8.5 -3.5h-41q-5 0 -8.5 3.5t-3.5 8.5v228q0 4 -2 4.5t-4 -2.5l-37 -70q-4 -8 -7 -8q-4 0 -8 8l-38 71q-2 3 -4 2.5t-2 -4.5v-229q0 -5 -3.5 -8.5t-8.5 -3.5h-41q-5 0 -8.5 3.5t-3.5 8.5v327q0 5 3.5 8.5t8.5 3.5h42q11 0 15 -9l44 -82q3 -4 6 0l45 83
q5 8 15 8z" />
    <glyph glyph-name="uni2126" unicode="&#x2126;" horiz-adv-x="491" 
d="M45.5 3.5q-3.5 3.5 -3.5 8.5v76q0 5 3.5 8.5t8.5 3.5h41q3 0 3.5 2t-1.5 4q-42 47 -42 119v293q0 86 52.5 138t138.5 52t139 -52t53 -138v-293q0 -73 -43 -119q-2 -2 -1 -4t4 -2h39q5 0 8.5 -3.5t3.5 -8.5v-76q0 -5 -3.5 -8.5t-8.5 -3.5h-161q-5 0 -8.5 3.5t-3.5 8.5v77
q0 9 10 14q21 8 34.5 29.5t13.5 51.5v339q0 38 -21 61.5t-55 23.5t-54.5 -23.5t-20.5 -61.5v-339q0 -30 13 -51.5t33 -28.5q10 -5 10 -14v-78q0 -5 -3.5 -8.5t-8.5 -3.5h-161q-5 0 -8.5 3.5z" />
    <glyph glyph-name="estimated" unicode="&#x212e;" horiz-adv-x="820" 
d="M599 661q84 -47 131.5 -129t47.5 -185q0 -2 -3.5 -3t-8.5 -1h-613q-5 0 -5 -5v-195q0 -3 2 -7q46 -53 113 -82.5t146 -29.5q92 0 172 46.5t122 121.5q6 8 15 8h12q7 0 9.5 -4t-0.5 -10q-44 -87 -134 -140.5t-196 -53.5q-105 0 -188.5 46t-131 127t-47.5 182
q0 103 47.5 185t131 129t188.5 47q106 0 190 -47zM149 557v-177q0 -5 5 -5h512q5 0 5 5v175q0 3 -2 7q-46 54 -113 84t-147 30q-79 0 -145.5 -29.5t-112.5 -82.5q-2 -4 -2 -7z" />
    <glyph glyph-name="oneeighth" unicode="&#x215b;" horiz-adv-x="690" 
d="M61 700h57q5 0 8.5 -3.5t3.5 -8.5v-396q0 -5 -3.5 -8.5t-8.5 -3.5h-53q-5 0 -8.5 3.5t-3.5 8.5v334q0 2 -1.5 4t-3.5 1l-15 -3l-4 -1q-9 0 -9 11v33q0 10 8 15l18 10q7 4 15 4zM64.5 3.5q-2.5 3.5 1.5 10.5l414 678q4 8 14 8h59q7 0 9.5 -3.5t-1.5 -10.5l-415 -678
q-4 -8 -14 -8h-58q-7 0 -9.5 3.5zM626 215q25 -16 35 -47q8 -27 8 -49t-8 -49q-11 -34 -38.5 -55t-64.5 -21t-64 20.5t-39 55.5q-7 21 -7 49q0 29 7 50q10 29 35 45q5 3 0 6q-25 17 -35 47q-7 22 -7 45q0 27 7 44q12 33 39 51.5t64 18.5q36 0 63.5 -18.5t39.5 -51.5
q8 -24 8 -45q0 -22 -8 -44q-8 -28 -35 -46q-6 -3 0 -6zM523 305q0 -13 1 -20q5 -38 34 -38q27 0 34 38q1 6 1 19t-1 19q-6 37 -34 37q-14 0 -23 -10t-11 -27q-1 -6 -1 -18zM592.5 113.5q-0.5 7.5 -0.5 10.5v16q0 22 -9 35.5t-25 13.5q-14 0 -23.5 -11t-10.5 -29
q-1 -9 -1 -24q0 -17 1 -25q1 -18 10.5 -29t23.5 -11t23 11t11 29q1 6 0.5 13.5z" />
    <glyph glyph-name="threeeighths" unicode="&#x215c;" horiz-adv-x="764" 
d="M250 411q0 -28 -5 -51q-5 -40 -33 -63t-72 -23q-48 0 -78.5 27t-33.5 71q-1 9 -1 27q0 12 12 12h52q12 0 12 -12q0 -10 1 -15q2 -21 11.5 -32.5t24.5 -11.5q26 0 34 33q5 25 5 46q0 22 -3 41q-8 37 -36 37q-8 0 -13 -4q-5 -3 -9 -3t-8 4l-25 27q-4 4 -4 9t3 8l72 89
q2 2 1 4t-4 2h-108q-5 0 -8.5 3.5t-3.5 8.5v42q0 5 3.5 8.5t8.5 3.5h190q5 0 8.5 -3.5t3.5 -8.5v-46q0 -8 -5 -15l-58 -76q-3 -5 1 -6q25 -7 41.5 -32t20.5 -57q3 -21 3 -44zM138.5 3.5q-2.5 3.5 1.5 10.5l414 678q4 8 14 8h59q7 0 9.5 -3.5t-1.5 -10.5l-415 -678
q-4 -8 -14 -8h-58q-7 0 -9.5 3.5zM700 215q25 -16 35 -47q8 -27 8 -49t-8 -49q-11 -34 -38.5 -55t-64.5 -21t-64 20.5t-39 55.5q-7 21 -7 49q0 29 7 50q10 29 35 45q5 3 0 6q-25 17 -35 47q-7 22 -7 45q0 27 7 44q12 33 39 51.5t64 18.5q36 0 63.5 -18.5t39.5 -51.5
q8 -24 8 -45q0 -22 -8 -44q-8 -28 -35 -46q-6 -3 0 -6zM597 305q0 -13 1 -20q5 -38 34 -38q27 0 34 38q1 6 1 19t-1 19q-6 37 -34 37q-14 0 -23 -10t-11 -27q-1 -6 -1 -18zM666.5 113.5q-0.5 7.5 -0.5 10.5v16q0 22 -9 35.5t-25 13.5q-14 0 -23.5 -11t-10.5 -29
q-1 -9 -1 -24q0 -17 1 -25q1 -18 10.5 -29t23.5 -11t23 11t11 29q1 6 0.5 13.5z" />
    <glyph glyph-name="fiveeighths" unicode="&#x215d;" horiz-adv-x="729" 
d="M238 409q0 -25 -3 -43q-4 -44 -33 -68t-76 -24t-76 23.5t-33 69.5l-2 19q0 12 12 12h52q12 0 13 -12v-5q0 -4 2 -14q8 -27 32 -27q26 0 32 32q3 11 3 38q0 24 -3 34q-6 31 -32 31q-24 0 -32 -21q-5 -10 -14 -10h-54q-5 0 -8.5 3.5t-3.5 8.5v231q0 5 3.5 8.5t8.5 3.5h194
q5 0 8.5 -3.5t3.5 -8.5v-42q0 -5 -3.5 -8.5t-8.5 -3.5h-124q-5 0 -5 -5v-101q0 -3 2 -3.5t4 1.5q22 17 52 17q36 0 58 -23.5t27 -65.5q4 -24 4 -44zM103.5 3.5q-2.5 3.5 1.5 10.5l414 678q4 8 14 8h59q7 0 9.5 -3.5t-1.5 -10.5l-415 -678q-4 -8 -14 -8h-58q-7 0 -9.5 3.5z
M665 215q25 -16 35 -47q8 -27 8 -49t-8 -49q-11 -34 -38.5 -55t-64.5 -21t-64 20.5t-39 55.5q-7 21 -7 49q0 29 7 50q10 29 35 45q5 3 0 6q-25 17 -35 47q-7 22 -7 45q0 27 7 44q12 33 39 51.5t64 18.5q36 0 63.5 -18.5t39.5 -51.5q8 -24 8 -45q0 -22 -8 -44q-8 -28 -35 -46
q-6 -3 0 -6zM562 305q0 -13 1 -20q5 -38 34 -38q27 0 34 38q1 6 1 19t-1 19q-6 37 -34 37q-14 0 -23 -10t-11 -27q-1 -6 -1 -18zM631.5 113.5q-0.5 7.5 -0.5 10.5v16q0 22 -9 35.5t-25 13.5q-14 0 -23.5 -11t-10.5 -29q-1 -9 -1 -24q0 -17 1 -25q1 -18 10.5 -29t23.5 -11
t23 11t11 29q1 6 0.5 13.5z" />
    <glyph glyph-name="seveneighths" unicode="&#x215e;" horiz-adv-x="697" 
d="M53.5 283.5q-2.5 3.5 -1.5 9.5l96 335q2 6 -4 6h-70q-5 0 -5 -5v-26q0 -5 -3.5 -8.5t-8.5 -3.5h-38q-5 0 -8.5 3.5t-3.5 8.5v85q0 5 3.5 8.5t8.5 3.5h200q5 0 8.5 -3.5t3.5 -8.5v-47q0 -4 -2 -14l-98 -337q-3 -10 -14 -10h-55q-6 0 -8.5 3.5zM71.5 3.5q-2.5 3.5 1.5 10.5
l414 678q4 8 14 8h59q7 0 9.5 -3.5t-1.5 -10.5l-415 -678q-4 -8 -14 -8h-58q-7 0 -9.5 3.5zM633 215q25 -16 35 -47q8 -27 8 -49t-8 -49q-11 -34 -38.5 -55t-64.5 -21t-64 20.5t-39 55.5q-7 21 -7 49q0 29 7 50q10 29 35 45q5 3 0 6q-25 17 -35 47q-7 22 -7 45q0 27 7 44
q12 33 39 51.5t64 18.5q36 0 63.5 -18.5t39.5 -51.5q8 -24 8 -45q0 -22 -8 -44q-8 -28 -35 -46q-6 -3 0 -6zM530 305q0 -13 1 -20q5 -38 34 -38q27 0 34 38q1 6 1 19t-1 19q-6 37 -34 37q-14 0 -23 -10t-11 -27q-1 -6 -1 -18zM599.5 113.5q-0.5 7.5 -0.5 10.5v16
q0 22 -9 35.5t-25 13.5q-14 0 -23.5 -11t-10.5 -29q-1 -9 -1 -24q0 -17 1 -25q1 -18 10.5 -29t23.5 -11t23 11t11 29q1 6 0.5 13.5z" />
    <glyph glyph-name="partialdiff" unicode="&#x2202;" horiz-adv-x="526" 
d="M458.5 488.5q19.5 -80.5 19.5 -163.5q0 -42 -4 -71q-12 -112 -67.5 -187t-161.5 -75q-92 0 -149.5 57t-57.5 165q0 76 29 127.5t75.5 76t97.5 24.5q61 0 113 -32q6 -3 6 4q-14 88 -46 132q-34 50 -89 50q-20 0 -43.5 -7t-44.5 -20q-5 -3 -8 -3q-5 0 -8 7l-30 78
q-1 2 -1 6q0 7 7 10q75 39 133 39q52 0 96.5 -22.5t74.5 -62.5q39 -52 58.5 -132.5zM333.5 139q26.5 47 32.5 130q0 4 -1 6q-15 33 -45 52.5t-62 19.5q-44 0 -74 -36t-30 -97q0 -56 28 -89t73 -33q52 0 78.5 47z" />
    <glyph glyph-name="uni2206" unicode="&#x2206;" horiz-adv-x="553" 
d="M28.5 3.5q-3.5 3.5 -3.5 8.5v79q0 9 2 15l204 584q3 10 13 10h64q10 0 13 -10l205 -585q2 -6 2 -15v-78q0 -5 -3.5 -8.5t-8.5 -3.5h-479q-5 0 -8.5 3.5zM144 100h265q6 0 4 6l-133 436q-1 4 -3 4t-3 -4l-134 -436q-1 -6 4 -6z" />
    <glyph glyph-name="product" unicode="&#x220f;" horiz-adv-x="478" 
d="M420.5 796.5q3.5 -3.5 3.5 -8.5v-976q0 -5 -3.5 -8.5t-8.5 -3.5h-92q-5 0 -8.5 3.5t-3.5 8.5v883q0 5 -5 5h-128q-5 0 -5 -5v-883q0 -5 -3.5 -8.5t-8.5 -3.5h-92q-5 0 -8.5 3.5t-3.5 8.5v976q0 5 3.5 8.5t8.5 3.5h346q5 0 8.5 -3.5z" />
    <glyph glyph-name="summation" unicode="&#x2211;" horiz-adv-x="504" 
d="M57.5 -196.5q-3.5 3.5 -3.5 8.5v80q0 7 3 15l196 403q1 4 0 6l-194 333q-4 7 -4 15v80q0 5 3.5 8.5t8.5 3.5h393q5 0 8.5 -3.5t3.5 -8.5v-76q0 -5 -3.5 -8.5t-8.5 -3.5h-291q-6 0 -3 -6l199 -329q5 -10 1 -16l-201 -399q-1 -3 0 -4.5t4 -1.5h291q5 0 8.5 -3.5t3.5 -8.5
v-76q0 -5 -3.5 -8.5t-8.5 -3.5h-394q-5 0 -8.5 3.5z" />
    <glyph glyph-name="minus" unicode="&#x2212;" 
d="M30.5 271.5q-3.5 3.5 -3.5 8.5v64q0 5 3.5 8.5t8.5 3.5h362q5 0 8.5 -3.5t3.5 -8.5v-64q0 -5 -3.5 -8.5t-8.5 -3.5h-362q-5 0 -8.5 3.5z" />
    <glyph glyph-name="uni2215" unicode="&#x2215;" horiz-adv-x="440" 
d="M23 4q-2 4 0 10l290 677q4 9 14 9h82q7 0 9 -4t0 -10l-289 -677q-4 -9 -14 -9h-83q-7 0 -9 4z" />
    <glyph glyph-name="uni2219" unicode="&#x2219;" horiz-adv-x="302" 
d="M89.5 194q-28.5 17 -45.5 46t-17 62q0 52 36.5 88t88.5 36q51 0 87.5 -36t36.5 -88q0 -33 -17 -62t-45.5 -46t-61.5 -17q-34 0 -62.5 17z" />
    <glyph glyph-name="radical" unicode="&#x221a;" horiz-adv-x="700" 
d="M147 -190l-126 374q-1 2 -1 5q0 7 8 10l85 28q2 1 5 1q7 0 11 -9l66 -222q1 -4 3.5 -3.5t3.5 3.5l177 785q3 11 13 11h250q5 0 8.5 -3.5t3.5 -8.5v-76q0 -5 -3.5 -8.5t-8.5 -3.5h-167q-4 0 -5 -4l-205 -879q-3 -10 -13 -10h-92q-10 0 -13 10z" />
    <glyph glyph-name="infinity" unicode="&#x221e;" horiz-adv-x="651" 
d="M549 472.5q35 -22.5 55 -63t20 -90.5q0 -51 -20.5 -90.5t-55.5 -62t-79 -22.5q-43 0 -77.5 24t-66.5 68q-4 4 -8 0q-67 -92 -141 -92q-41 0 -75 23t-54 63.5t-20 90.5t20 90t55 62t76 22q43 0 76.5 -24.5t64.5 -66.5q3 -4 7 0q31 43 66 67t79 24q43 0 78 -22.5z
M217.5 252.5q19.5 18.5 50.5 64.5q1 4 0 8q-28 44 -47 62t-42 18q-26 0 -44 -23t-18 -61t17.5 -62.5t42.5 -24.5q21 0 40.5 18.5zM516 257.5q18 23.5 18 61.5t-17.5 62t-43.5 24q-24 0 -48 -19.5t-52 -62.5q-2 -5 2 -10q25 -40 47 -59.5t48 -19.5q28 0 46 23.5z" />
    <glyph glyph-name="integral" unicode="&#x222b;" horiz-adv-x="332" 
d="M22 -192v71q0 5 3.5 8.5t8.5 3.5h13q31 1 43.5 21.5t12.5 59.5l3 582q1 59 19 90.5t58 45t113 14.5q12 0 12 -12v-71q0 -5 -3.5 -8.5t-8.5 -3.5h-14q-32 -1 -44.5 -21.5t-13.5 -59.5l-2 -582q-1 -59 -19 -90.5t-57.5 -45t-111.5 -14.5q-12 0 -12 12z" />
    <glyph glyph-name="approxequal" unicode="&#x2248;" horiz-adv-x="480" 
d="M282.5 348q-18.5 7 -44.5 22q-25 15 -39 22t-31 7q-39 0 -67 -38q-7 -10 -16 -4l-49 30q-9 6 -6 16q16 43 51 70t77 27q22 0 40 -7t39 -19q27 -17 44 -24.5t37 -7.5q18 0 31 9.5t25 26.5q7 10 17 4l52 -33q10 -7 5 -16q-23 -41 -54 -66.5t-69 -25.5q-24 0 -42.5 7z
M282.5 138q-18.5 7 -44.5 22q-25 15 -39 22t-31 7q-39 0 -67 -38q-7 -10 -16 -4l-49 30q-9 6 -6 16q16 43 51 70t77 27q22 0 40 -7t39 -19q27 -17 44 -24.5t37 -7.5q18 0 31 9.5t25 26.5q7 10 17 4l52 -33q10 -7 5 -16q-23 -41 -54 -66.5t-69 -25.5q-24 0 -42.5 7z" />
    <glyph glyph-name="notequal" unicode="&#x2260;" 
d="M409.5 376.5q-3.5 -3.5 -8.5 -3.5h-123q-4 0 -6 -4l-40 -93q-1 -2 0 -4t3 -2h166q5 0 8.5 -3.5t3.5 -8.5v-64q0 -5 -3.5 -8.5t-8.5 -3.5h-206q-4 0 -6 -4l-37 -84q-4 -9 -14 -9h-47q-7 0 -9.5 3.5t0.5 10.5l34 77q1 2 0 4t-3 2h-74q-5 0 -8.5 3.5t-3.5 8.5v64
q0 5 3.5 8.5t8.5 3.5h114q4 0 6 4l40 93q1 2 0 4t-3 2h-157q-5 0 -8.5 3.5t-3.5 8.5v64q0 5 3.5 8.5t8.5 3.5h198q4 0 6 4l34 78q4 9 14 9h47q7 0 9.5 -3.5t-0.5 -10.5l-31 -71q-1 -2 0 -4t3 -2h82q5 0 8.5 -3.5t3.5 -8.5v-64q0 -5 -3.5 -8.5z" />
    <glyph glyph-name="lessequal" unicode="&#x2264;" 
d="M408 133.5q-4 -2.5 -10 0.5l-363 170q-9 5 -9 14v81q0 10 9 14l363 171q4 2 6 2q8 0 8 -11v-85q0 -9 -9 -14l-259 -114q-6 -3 0 -6l259 -114q9 -4 9 -14v-85q0 -7 -4 -9.5zM408.5 21.5q-3.5 -3.5 -8.5 -3.5h-362q-5 0 -8.5 3.5t-3.5 8.5v64q0 5 3.5 8.5t8.5 3.5h362
q5 0 8.5 -3.5t3.5 -8.5v-64q0 -5 -3.5 -8.5z" />
    <glyph glyph-name="greaterequal" unicode="&#x2265;" 
d="M30.5 21.5q-3.5 3.5 -3.5 8.5v64q0 5 3.5 8.5t8.5 3.5h362q5 0 8.5 -3.5t3.5 -8.5v-64q0 -5 -3.5 -8.5t-8.5 -3.5h-362q-5 0 -8.5 3.5zM35 132q-8 0 -8 11v85q0 10 9 14l259 114q6 3 0 6l-259 114q-9 5 -9 14v85q0 7 4 9.5t10 -0.5l363 -171q9 -4 9 -14v-81q0 -9 -9 -14
l-363 -170q-4 -2 -6 -2z" />
    <glyph glyph-name="lozenge" unicode="&#x25ca;" horiz-adv-x="429" 
d="M170 -41l-140 383q-1 3 -1 8q0 6 1 8l141 383q3 10 14 10h59q11 0 14 -10l141 -383q2 -4 2 -8q0 -2 -2 -8l-140 -383q-3 -10 -14 -10h-61q-11 0 -14 10zM215 72q2 0 3 3l91 272q1 3 0 6l-91 267q-1 3 -3 3.5t-3 -2.5l-92 -268q-1 -3 0 -6l92 -272q1 -3 3 -3z" />
    <glyph glyph-name="NULL" horiz-adv-x="0" 
 />
    <glyph glyph-name="i.loclTRK" horiz-adv-x="207" 
d="M47.5 3.5q-3.5 3.5 -3.5 8.5v487q0 5 3.5 8.5t8.5 3.5h92q5 0 8.5 -3.5t3.5 -8.5v-487q0 -5 -3.5 -8.5t-8.5 -3.5h-92q-5 0 -8.5 3.5zM61.5 597q-15.5 16 -15.5 42q0 25 15.5 41t40.5 16t39.5 -15.5t14.5 -41.5t-14.5 -42t-39.5 -16t-40.5 16z" />
    <glyph glyph-name="a.alt" horiz-adv-x="437" 
d="M278.5 507.5q3.5 3.5 8.5 3.5h92q5 0 8.5 -3.5t3.5 -8.5v-487q0 -5 -3.5 -8.5t-8.5 -3.5h-92q-5 0 -8.5 3.5t-3.5 8.5v16q0 3 -2 3.5t-4 -1.5q-35 -38 -92 -38q-65 0 -101 44t-38 118v204q2 75 38.5 118t100.5 43q57 0 92 -38q2 -2 4 -1.5t2 3.5v16q0 5 3.5 8.5zM258 112
q17 20 17 53v181q0 33 -17 53t-44 20t-44 -20t-17 -53v-181q0 -32 17 -52.5t44 -20.5t44 20z" />
    <glyph glyph-name="a.sc" horiz-adv-x="449" 
d="M306 11l-15 77q-1 4 -6 4h-124q-5 0 -6 -4l-16 -77q-2 -11 -13 -11h-91q-14 0 -11 13l133 554q3 10 13 10h107q11 0 14 -10l133 -554v-4q0 -9 -11 -9h-94q-12 0 -13 11zM181 183h86q6 0 5 5l-43 227q-1 3 -3 3t-3 -3l-47 -227q-1 -5 5 -5z" />
    <glyph glyph-name="aacute.sc" horiz-adv-x="449" 
d="M306 11l-15 77q-1 4 -6 4h-124q-5 0 -6 -4l-16 -77q-2 -11 -13 -11h-91q-14 0 -11 13l133 554q3 10 13 10h107q11 0 14 -10l133 -554v-4q0 -9 -11 -9h-94q-12 0 -13 11zM181 183h86q6 0 5 5l-43 227q-1 3 -3 3t-3 -3l-47 -227q-1 -5 5 -5zM162 645q-3 4 1 10l59 103
q4 8 15 8h84q8 0 10 -4.5t-2 -10.5l-74 -103q-5 -7 -14 -7h-69q-7 0 -10 4z" />
    <glyph glyph-name="abreve.sc" horiz-adv-x="449" 
d="M306 11l-15 77q-1 4 -6 4h-124q-5 0 -6 -4l-16 -77q-2 -11 -13 -11h-91q-14 0 -11 13l133 554q3 10 13 10h107q11 0 14 -10l133 -554v-4q0 -9 -11 -9h-94q-12 0 -13 11zM181 183h86q6 0 5 5l-43 227q-1 3 -3 3t-3 -3l-47 -227q-1 -5 5 -5zM145 637q-31 28 -35 74v2
q0 10 11 10h39q11 0 13 -12q3 -21 17 -34.5t34 -13.5q19 0 33.5 13.5t17.5 34.5q1 12 13 12h39q12 0 11 -12q-4 -46 -35.5 -74t-78.5 -28q-48 0 -79 28z" />
    <glyph glyph-name="uni01CE.sc" horiz-adv-x="449" 
d="M306 11l-15 77q-1 4 -6 4h-124q-5 0 -6 -4l-16 -77q-2 -11 -13 -11h-91q-14 0 -11 13l133 554q3 10 13 10h107q11 0 14 -10l133 -554v-4q0 -9 -11 -9h-94q-12 0 -13 11zM181 183h86q6 0 5 5l-43 227q-1 3 -3 3t-3 -3l-47 -227q-1 -5 5 -5zM161 635l-65 102q-2 6 -2 7
q0 7 10 7h67q10 0 14 -8l36 -61q1 -3 3 -3t4 3l35 61q5 8 15 8h62q7 0 9.5 -4.5t-1.5 -10.5l-67 -101q-5 -8 -14 -8h-92q-9 0 -14 8z" />
    <glyph glyph-name="acircumflex.sc" horiz-adv-x="449" 
d="M306 11l-15 77q-1 4 -6 4h-124q-5 0 -6 -4l-16 -77q-2 -11 -13 -11h-91q-14 0 -11 13l133 554q3 10 13 10h107q11 0 14 -10l133 -554v-4q0 -9 -11 -9h-94q-12 0 -13 11zM181 183h86q6 0 5 5l-43 227q-1 3 -3 3t-3 -3l-47 -227q-1 -5 5 -5zM91.5 640.5q-2.5 3.5 1.5 10.5
l65 102q5 8 14 8h98q9 0 14 -8l67 -101q2 -3 2 -7q0 -8 -9 -8h-69q-10 0 -15 8l-34 62q-3 5 -6 0l-35 -62q-5 -8 -15 -8h-69q-7 0 -9.5 3.5z" />
    <glyph glyph-name="adieresis.sc" horiz-adv-x="449" 
d="M306 11l-15 77q-1 4 -6 4h-124q-5 0 -6 -4l-16 -77q-2 -11 -13 -11h-91q-14 0 -11 13l133 554q3 10 13 10h107q11 0 14 -10l133 -554v-4q0 -9 -11 -9h-94q-12 0 -13 11zM181 183h86q6 0 5 5l-43 227q-1 3 -3 3t-3 -3l-47 -227q-1 -5 5 -5zM104.5 660.5
q-17.5 17.5 -17.5 45.5q0 27 17.5 44.5t43.5 17.5t42.5 -17.5t16.5 -44.5q0 -28 -16.5 -45.5t-42.5 -17.5t-43.5 17.5zM259 660.5q-17 17.5 -17 45.5q0 27 17 44.5t44 17.5q26 0 42.5 -17.5t16.5 -44.5q0 -28 -16.5 -45.5t-42.5 -17.5q-27 0 -44 17.5z" />
    <glyph glyph-name="agrave.sc" horiz-adv-x="449" 
d="M306 11l-15 77q-1 4 -6 4h-124q-5 0 -6 -4l-16 -77q-2 -11 -13 -11h-91q-14 0 -11 13l133 554q3 10 13 10h107q11 0 14 -10l133 -554v-4q0 -9 -11 -9h-94q-12 0 -13 11zM181 183h86q6 0 5 5l-43 227q-1 3 -3 3t-3 -3l-47 -227q-1 -5 5 -5zM267 649q0 -8 -11 -8h-69
q-9 0 -14 7l-74 103q-3 5 -3 7q0 8 11 8h84q11 0 15 -8l59 -103z" />
    <glyph glyph-name="amacron.sc" horiz-adv-x="449" 
d="M306 11l-15 77q-1 4 -6 4h-124q-5 0 -6 -4l-16 -77q-2 -11 -13 -11h-91q-14 0 -11 13l133 554q3 10 13 10h107q11 0 14 -10l133 -554v-4q0 -9 -11 -9h-94q-12 0 -13 11zM181 183h86q6 0 5 5l-43 227q-1 3 -3 3t-3 -3l-47 -227q-1 -5 5 -5zM117.5 655.5q-3.5 3.5 -3.5 8.5
v56q0 5 3.5 8.5t8.5 3.5h190q5 0 8.5 -3.5t3.5 -8.5v-56q0 -5 -3.5 -8.5t-8.5 -3.5h-190q-5 0 -8.5 3.5z" />
    <glyph glyph-name="aogonek.sc" horiz-adv-x="459" 
d="M306 11l-15 77q-1 4 -6 4h-124q-5 0 -6 -4l-16 -77q-2 -11 -13 -11h-91q-14 0 -11 13l133 554q3 10 13 10h107q11 0 14 -10l133 -554v-4q0 -9 -11 -9h-94q-12 0 -13 11zM181 183h86q6 0 5 5l-43 227q-1 3 -3 3t-3 -3l-47 -227q-1 -5 5 -5zM431 -173q0 -7 -8 -10
q-22 -6 -41 -6q-37 0 -61.5 19.5t-24.5 66.5q0 52 46 97q6 6 15 6h48q4 0 7 -2t3 -4q0 -4 -5 -9q-38 -38 -38 -73l1 -8q4 -16 14.5 -23t24.5 -5h3q10 0 11 -9l5 -36v-4z" />
    <glyph glyph-name="aring.sc" horiz-adv-x="449" 
d="M306 11l-15 77q-1 4 -6 4h-124q-5 0 -6 -4l-16 -77q-2 -11 -13 -11h-91q-14 0 -11 13l133 554q3 10 13 10h107q11 0 14 -10l133 -554v-4q0 -9 -11 -9h-94q-12 0 -13 11zM181 183h86q6 0 5 5l-43 227q-1 3 -3 3t-3 -3l-47 -227q-1 -5 5 -5zM148 662.5q-31 31.5 -31 77.5
q0 45 31 76t76 31t76 -31t31 -76q0 -46 -31 -77.5t-76 -31.5t-76 31.5zM261 701.5q15 15.5 15 38.5t-15 38.5t-37 15.5t-37 -15.5t-15 -38.5t15 -38.5t37 -15.5t37 15.5z" />
    <glyph glyph-name="atilde.sc" horiz-adv-x="449" 
d="M306 11l-15 77q-1 4 -6 4h-124q-5 0 -6 -4l-16 -77q-2 -11 -13 -11h-91q-14 0 -11 13l133 554q3 10 13 10h107q11 0 14 -10l133 -554v-4q0 -9 -11 -9h-94q-12 0 -13 11zM181 183h86q6 0 5 5l-43 227q-1 3 -3 3t-3 -3l-47 -227q-1 -5 5 -5zM264 655.5q-12 4.5 -29 14.5
q-5 3 -13.5 8.5t-15 8t-14.5 2.5q-24 0 -38 -23q-7 -10 -17 -4l-32 24q-9 7 -5 16q14 32 35.5 47t47.5 15q16 0 30.5 -5.5t31.5 -16.5q3 -2 11 -8t16 -9t16 -3q24 0 38 23q6 11 16 4l32 -21q5 -3 5 -10q0 -6 -4 -14q-17 -28 -40 -40.5t-46 -12.5q-13 0 -25 4.5z" />
    <glyph glyph-name="ae.sc" horiz-adv-x="688" 
d="M658.5 480.5q-3.5 -3.5 -8.5 -3.5h-192q-5 0 -5 -5v-128q0 -5 5 -5h110q5 0 8.5 -3.5t3.5 -8.5v-76q0 -5 -3.5 -8.5t-8.5 -3.5h-110q-5 0 -5 -5v-129q0 -5 5 -5h192q5 0 8.5 -3.5t3.5 -8.5v-76q0 -5 -3.5 -8.5t-8.5 -3.5h-302q-5 0 -8.5 3.5t-3.5 8.5v75q0 5 -5 5h-142
q-4 0 -6 -4l-36 -79q-4 -9 -14 -9h-96q-7 0 -9.5 3.5t0.5 10.5l256 554q4 9 14 9h352q5 0 8.5 -3.5t3.5 -8.5v-76q0 -5 -3.5 -8.5zM229 185q1 -2 3 -2h99q5 0 5 5l1 228q0 4 -2 4t-4 -3l-102 -228q-1 -2 0 -4z" />
    <glyph glyph-name="b.sc" horiz-adv-x="424" 
d="M351 41.5q-50 -41.5 -130 -41.5h-164q-5 0 -8.5 3.5t-3.5 8.5v553q0 5 3.5 8.5t8.5 3.5h147q88 0 138.5 -40t50.5 -118q0 -42 -16.5 -71t-49.5 -46q-5 -3 -1 -6q75 -42 75 -136q0 -77 -50 -118.5zM161 472v-132q0 -5 5 -5h42q35 0 54 18t19 52q0 35 -19 53.5t-54 18.5
h-42q-5 0 -5 -5zM265.5 120.5q19.5 19.5 19.5 56.5q0 36 -19.5 57.5t-52.5 21.5h-47q-5 0 -5 -5v-145q0 -5 5 -5h46q34 0 53.5 19.5z" />
    <glyph glyph-name="c.sc" horiz-adv-x="421" 
d="M84 39q-48 46 -48 126v247q0 81 47.5 126.5t128.5 45.5t129 -45.5t48 -126.5v-6q0 -5 -3.5 -8.5t-8.5 -3.5l-92 -4q-12 0 -12 12v19q0 30 -16.5 46.5t-44.5 16.5t-44 -16.5t-16 -46.5v-265q0 -30 16 -46.5t44 -16.5t44.5 16.5t16.5 46.5v20q0 11 12 11l92 -4
q5 0 8.5 -2.5t3.5 -6.5v-9q0 -80 -48.5 -126t-128.5 -46t-128 46z" />
    <glyph glyph-name="cacute.sc" horiz-adv-x="421" 
d="M84 39q-48 46 -48 126v247q0 81 47.5 126.5t128.5 45.5t129 -45.5t48 -126.5v-6q0 -5 -3.5 -8.5t-8.5 -3.5l-92 -4q-12 0 -12 12v19q0 30 -16.5 46.5t-44.5 16.5t-44 -16.5t-16 -46.5v-265q0 -30 16 -46.5t44 -16.5t44.5 16.5t16.5 46.5v20q0 11 12 11l92 -4
q5 0 8.5 -2.5t3.5 -6.5v-9q0 -80 -48.5 -126t-128.5 -46t-128 46zM150 652q-3 4 1 10l59 103q4 8 15 8h84q8 0 10 -4.5t-2 -10.5l-74 -103q-5 -7 -14 -7h-69q-7 0 -10 4z" />
    <glyph glyph-name="ccaron.sc" horiz-adv-x="421" 
d="M84 39q-48 46 -48 126v247q0 81 47.5 126.5t128.5 45.5t129 -45.5t48 -126.5v-6q0 -5 -3.5 -8.5t-8.5 -3.5l-92 -4q-12 0 -12 12v19q0 30 -16.5 46.5t-44.5 16.5t-44 -16.5t-16 -46.5v-265q0 -30 16 -46.5t44 -16.5t44.5 16.5t16.5 46.5v20q0 11 12 11l92 -4
q5 0 8.5 -2.5t3.5 -6.5v-9q0 -80 -48.5 -126t-128.5 -46t-128 46zM149 642l-65 102q-2 6 -2 7q0 7 10 7h67q10 0 14 -8l36 -61q1 -3 3 -3t4 3l35 61q5 8 15 8h62q7 0 9.5 -4.5t-1.5 -10.5l-67 -101q-5 -8 -14 -8h-92q-9 0 -14 8z" />
    <glyph glyph-name="ccedilla.sc" horiz-adv-x="421" 
d="M385.5 396.5q-3.5 -2.5 -8.5 -2.5l-92 -4q-12 0 -12 12v19q0 30 -16.5 46.5t-44.5 16.5t-44 -16.5t-16 -46.5v-265q0 -30 16 -46.5t44 -16.5t44.5 16.5t16.5 46.5v20q0 11 12 11l92 -4q5 0 8.5 -2.5t3.5 -6.5v-9q0 -68 -35.5 -112t-96.5 -56q-6 -2 -2 -6q38 -44 38 -89
q0 -47 -24.5 -66.5t-60.5 -19.5q-20 0 -42 6q-9 3 -8 14l5 36q1 11 14 9q14 -2 24.5 5t14.5 23q1 3 1 10q0 35 -42 75l-5 3q-62 11 -98 55t-36 113v247q0 81 47.5 126.5t128.5 45.5t129 -45.5t48 -126.5v-9q0 -4 -3.5 -6.5z" />
    <glyph glyph-name="cdotaccent.sc" horiz-adv-x="421" 
d="M84 39q-48 46 -48 126v247q0 81 47.5 126.5t128.5 45.5t129 -45.5t48 -126.5v-6q0 -5 -3.5 -8.5t-8.5 -3.5l-92 -4q-12 0 -12 12v19q0 30 -16.5 46.5t-44.5 16.5t-44 -16.5t-16 -46.5v-265q0 -30 16 -46.5t44 -16.5t44.5 16.5t16.5 46.5v20q0 11 12 11l92 -4
q5 0 8.5 -2.5t3.5 -6.5v-9q0 -80 -48.5 -126t-128.5 -46t-128 46zM171.5 658q-15.5 16 -15.5 42q0 25 15.5 41t40.5 16t39.5 -15.5t14.5 -41.5t-14.5 -42t-39.5 -16t-40.5 16z" />
    <glyph glyph-name="d.sc" horiz-adv-x="430" 
d="M48.5 3.5q-3.5 3.5 -3.5 8.5v553q0 5 3.5 8.5t8.5 3.5h158q80 0 129 -44t49 -116v-257q0 -72 -49 -116t-129 -44h-158q-5 0 -8.5 3.5zM166 100l47 1q28 0 45 18.5t18 48.5v242q0 31 -17.5 49t-46.5 18h-46q-5 0 -5 -5v-367q0 -5 5 -5z" />
    <glyph glyph-name="eth.sc" horiz-adv-x="459" 
d="M373 533q49 -44 49 -116v-257q0 -72 -49 -116t-129 -44h-158q-5 0 -8.5 3.5t-3.5 8.5v250q0 5 -5 5h-12q-5 0 -8.5 3.5t-3.5 8.5v43q0 5 3.5 8.5t8.5 3.5h12q5 0 5 5v226q0 5 3.5 8.5t8.5 3.5h158q80 0 129 -44zM305 410q0 31 -17.5 49t-46.5 18h-46q-5 0 -5 -5v-133
q0 -5 5 -5h39q5 0 8.5 -3.5t3.5 -8.5v-43q0 -5 -3.5 -8.5t-8.5 -3.5h-39q-5 0 -5 -5v-157q0 -5 5 -5l47 1q28 0 45 18.5t18 48.5v242z" />
    <glyph glyph-name="dcaron.sc" horiz-adv-x="430" 
d="M48.5 3.5q-3.5 3.5 -3.5 8.5v553q0 5 3.5 8.5t8.5 3.5h158q80 0 129 -44t49 -116v-257q0 -72 -49 -116t-129 -44h-158q-5 0 -8.5 3.5zM166 100l47 1q28 0 45 18.5t18 48.5v242q0 31 -17.5 49t-46.5 18h-46q-5 0 -5 -5v-367q0 -5 5 -5zM146 639l-65 102q-2 6 -2 7
q0 7 10 7h67q10 0 14 -8l36 -61q1 -3 3 -3t4 3l35 61q5 8 15 8h62q7 0 9.5 -4.5t-1.5 -10.5l-67 -101q-5 -8 -14 -8h-92q-9 0 -14 8z" />
    <glyph glyph-name="dcroat.sc" horiz-adv-x="459" 
d="M373 533q49 -44 49 -116v-257q0 -72 -49 -116t-129 -44h-158q-5 0 -8.5 3.5t-3.5 8.5v250q0 5 -5 5h-12q-5 0 -8.5 3.5t-3.5 8.5v43q0 5 3.5 8.5t8.5 3.5h12q5 0 5 5v226q0 5 3.5 8.5t8.5 3.5h158q80 0 129 -44zM305 410q0 31 -17.5 49t-46.5 18h-46q-5 0 -5 -5v-133
q0 -5 5 -5h39q5 0 8.5 -3.5t3.5 -8.5v-43q0 -5 -3.5 -8.5t-8.5 -3.5h-39q-5 0 -5 -5v-157q0 -5 5 -5l47 1q28 0 45 18.5t18 48.5v242z" />
    <glyph glyph-name="e.sc" horiz-adv-x="397" 
d="M366.5 479.5q-3.5 -3.5 -8.5 -3.5h-192q-5 0 -5 -5v-127q0 -5 5 -5h110q5 0 8.5 -3.5t3.5 -8.5v-76q0 -5 -3.5 -8.5t-8.5 -3.5h-110q-5 0 -5 -5v-129q0 -5 5 -5h192q5 0 8.5 -3.5t3.5 -8.5v-76q0 -5 -3.5 -8.5t-8.5 -3.5h-301q-5 0 -8.5 3.5t-3.5 8.5v553q0 5 3.5 8.5
t8.5 3.5h301q5 0 8.5 -3.5t3.5 -8.5v-77q0 -5 -3.5 -8.5z" />
    <glyph glyph-name="eacute.sc" horiz-adv-x="397" 
d="M366.5 479.5q-3.5 -3.5 -8.5 -3.5h-192q-5 0 -5 -5v-127q0 -5 5 -5h110q5 0 8.5 -3.5t3.5 -8.5v-76q0 -5 -3.5 -8.5t-8.5 -3.5h-110q-5 0 -5 -5v-129q0 -5 5 -5h192q5 0 8.5 -3.5t3.5 -8.5v-76q0 -5 -3.5 -8.5t-8.5 -3.5h-301q-5 0 -8.5 3.5t-3.5 8.5v553q0 5 3.5 8.5
t8.5 3.5h301q5 0 8.5 -3.5t3.5 -8.5v-77q0 -5 -3.5 -8.5zM145 655q-3 4 1 10l59 103q4 8 15 8h84q8 0 10 -4.5t-2 -10.5l-74 -103q-5 -7 -14 -7h-69q-7 0 -10 4z" />
    <glyph glyph-name="ecaron.sc" horiz-adv-x="397" 
d="M366.5 479.5q-3.5 -3.5 -8.5 -3.5h-192q-5 0 -5 -5v-127q0 -5 5 -5h110q5 0 8.5 -3.5t3.5 -8.5v-76q0 -5 -3.5 -8.5t-8.5 -3.5h-110q-5 0 -5 -5v-129q0 -5 5 -5h192q5 0 8.5 -3.5t3.5 -8.5v-76q0 -5 -3.5 -8.5t-8.5 -3.5h-301q-5 0 -8.5 3.5t-3.5 8.5v553q0 5 3.5 8.5
t8.5 3.5h301q5 0 8.5 -3.5t3.5 -8.5v-77q0 -5 -3.5 -8.5zM144 645l-65 102q-2 6 -2 7q0 7 10 7h67q10 0 14 -8l36 -61q1 -3 3 -3t4 3l35 61q5 8 15 8h62q7 0 9.5 -4.5t-1.5 -10.5l-67 -101q-5 -8 -14 -8h-92q-9 0 -14 8z" />
    <glyph glyph-name="uni0229.sc" horiz-adv-x="397" 
d="M366.5 479.5q-3.5 -3.5 -8.5 -3.5h-192q-5 0 -5 -5v-127q0 -5 5 -5h110q5 0 8.5 -3.5t3.5 -8.5v-76q0 -5 -3.5 -8.5t-8.5 -3.5h-110q-5 0 -5 -5v-129q0 -5 5 -5h192q5 0 8.5 -3.5t3.5 -8.5v-76q0 -5 -3.5 -8.5t-8.5 -3.5h-107q-3 0 -4 -2t1 -4q35 -41 35 -85
q0 -47 -24.5 -66.5t-60.5 -19.5q-20 0 -42 6q-9 3 -8 14l5 36q1 11 14 9q14 -2 24.5 5t14.5 23q6 37 -37 81q-3 3 -7 3h-105q-5 0 -8.5 3.5t-3.5 8.5v553q0 5 3.5 8.5t8.5 3.5h301q5 0 8.5 -3.5t3.5 -8.5v-77q0 -5 -3.5 -8.5z" />
    <glyph glyph-name="ecircumflex.sc" horiz-adv-x="397" 
d="M366.5 479.5q-3.5 -3.5 -8.5 -3.5h-192q-5 0 -5 -5v-127q0 -5 5 -5h110q5 0 8.5 -3.5t3.5 -8.5v-76q0 -5 -3.5 -8.5t-8.5 -3.5h-110q-5 0 -5 -5v-129q0 -5 5 -5h192q5 0 8.5 -3.5t3.5 -8.5v-76q0 -5 -3.5 -8.5t-8.5 -3.5h-301q-5 0 -8.5 3.5t-3.5 8.5v553q0 5 3.5 8.5
t8.5 3.5h301q5 0 8.5 -3.5t3.5 -8.5v-77q0 -5 -3.5 -8.5zM74.5 650.5q-2.5 3.5 1.5 10.5l65 102q5 8 14 8h98q9 0 14 -8l67 -101q2 -3 2 -7q0 -8 -9 -8h-69q-10 0 -15 8l-34 62q-3 5 -6 0l-35 -62q-5 -8 -15 -8h-69q-7 0 -9.5 3.5z" />
    <glyph glyph-name="edieresis.sc" horiz-adv-x="397" 
d="M366.5 479.5q-3.5 -3.5 -8.5 -3.5h-192q-5 0 -5 -5v-127q0 -5 5 -5h110q5 0 8.5 -3.5t3.5 -8.5v-76q0 -5 -3.5 -8.5t-8.5 -3.5h-110q-5 0 -5 -5v-129q0 -5 5 -5h192q5 0 8.5 -3.5t3.5 -8.5v-76q0 -5 -3.5 -8.5t-8.5 -3.5h-301q-5 0 -8.5 3.5t-3.5 8.5v553q0 5 3.5 8.5
t8.5 3.5h301q5 0 8.5 -3.5t3.5 -8.5v-77q0 -5 -3.5 -8.5zM87.5 670.5q-17.5 17.5 -17.5 45.5q0 27 17.5 44.5t43.5 17.5t42.5 -17.5t16.5 -44.5q0 -28 -16.5 -45.5t-42.5 -17.5t-43.5 17.5zM242 670.5q-17 17.5 -17 45.5q0 27 17 44.5t44 17.5q26 0 42.5 -17.5t16.5 -44.5
q0 -28 -16.5 -45.5t-42.5 -17.5q-27 0 -44 17.5z" />
    <glyph glyph-name="edotaccent.sc" horiz-adv-x="397" 
d="M366.5 479.5q-3.5 -3.5 -8.5 -3.5h-192q-5 0 -5 -5v-127q0 -5 5 -5h110q5 0 8.5 -3.5t3.5 -8.5v-76q0 -5 -3.5 -8.5t-8.5 -3.5h-110q-5 0 -5 -5v-129q0 -5 5 -5h192q5 0 8.5 -3.5t3.5 -8.5v-76q0 -5 -3.5 -8.5t-8.5 -3.5h-301q-5 0 -8.5 3.5t-3.5 8.5v553q0 5 3.5 8.5
t8.5 3.5h301q5 0 8.5 -3.5t3.5 -8.5v-77q0 -5 -3.5 -8.5zM166.5 661q-15.5 16 -15.5 42q0 25 15.5 41t40.5 16t39.5 -15.5t14.5 -41.5t-14.5 -42t-39.5 -16t-40.5 16z" />
    <glyph glyph-name="egrave.sc" horiz-adv-x="397" 
d="M366.5 479.5q-3.5 -3.5 -8.5 -3.5h-192q-5 0 -5 -5v-127q0 -5 5 -5h110q5 0 8.5 -3.5t3.5 -8.5v-76q0 -5 -3.5 -8.5t-8.5 -3.5h-110q-5 0 -5 -5v-129q0 -5 5 -5h192q5 0 8.5 -3.5t3.5 -8.5v-76q0 -5 -3.5 -8.5t-8.5 -3.5h-301q-5 0 -8.5 3.5t-3.5 8.5v553q0 5 3.5 8.5
t8.5 3.5h301q5 0 8.5 -3.5t3.5 -8.5v-77q0 -5 -3.5 -8.5zM250 659q0 -8 -11 -8h-69q-9 0 -14 7l-74 103q-3 5 -3 7q0 8 11 8h84q11 0 15 -8l59 -103z" />
    <glyph glyph-name="emacron.sc" horiz-adv-x="397" 
d="M366.5 479.5q-3.5 -3.5 -8.5 -3.5h-192q-5 0 -5 -5v-127q0 -5 5 -5h110q5 0 8.5 -3.5t3.5 -8.5v-76q0 -5 -3.5 -8.5t-8.5 -3.5h-110q-5 0 -5 -5v-129q0 -5 5 -5h192q5 0 8.5 -3.5t3.5 -8.5v-76q0 -5 -3.5 -8.5t-8.5 -3.5h-301q-5 0 -8.5 3.5t-3.5 8.5v553q0 5 3.5 8.5
t8.5 3.5h301q5 0 8.5 -3.5t3.5 -8.5v-77q0 -5 -3.5 -8.5zM100.5 665.5q-3.5 3.5 -3.5 8.5v56q0 5 3.5 8.5t8.5 3.5h190q5 0 8.5 -3.5t3.5 -8.5v-56q0 -5 -3.5 -8.5t-8.5 -3.5h-190q-5 0 -8.5 3.5z" />
    <glyph glyph-name="eogonek.sc" horiz-adv-x="397" 
d="M366.5 479.5q-3.5 -3.5 -8.5 -3.5h-192q-5 0 -5 -5v-127q0 -5 5 -5h110q5 0 8.5 -3.5t3.5 -8.5v-76q0 -5 -3.5 -8.5t-8.5 -3.5h-110q-5 0 -5 -5v-129q0 -5 5 -5h192q5 0 8.5 -3.5t3.5 -8.5v-76q0 -5 -3.5 -8.5t-8.5 -3.5h-113q-4 0 -7 -3q-42 -40 -42 -75q0 -22 12 -31.5
t28 -6.5h3q10 0 11 -9l5 -36v-4q0 -7 -8 -10q-22 -6 -41 -6q-37 0 -61.5 19.5t-24.5 66.5t38 89q2 2 1.5 4t-3.5 2h-99q-5 0 -8.5 3.5t-3.5 8.5v553q0 5 3.5 8.5t8.5 3.5h301q5 0 8.5 -3.5t3.5 -8.5v-77q0 -5 -3.5 -8.5z" />
    <glyph glyph-name="f.sc" horiz-adv-x="380" 
d="M365.5 480.5q-3.5 -3.5 -8.5 -3.5h-191q-5 0 -5 -5v-128q0 -5 5 -5h111q5 0 8.5 -3.5t3.5 -8.5v-76q0 -5 -3.5 -8.5t-8.5 -3.5h-111q-5 0 -5 -5v-222q0 -5 -3.5 -8.5t-8.5 -3.5h-92q-5 0 -8.5 3.5t-3.5 8.5v553q0 5 3.5 8.5t8.5 3.5h300q5 0 8.5 -3.5t3.5 -8.5v-76
q0 -5 -3.5 -8.5z" />
    <glyph glyph-name="g.sc" horiz-adv-x="420" 
d="M84 36.5q-48 43.5 -48 119.5v266q0 75 48 118.5t128 43.5t128.5 -44t48.5 -120v-21q0 -5 -3.5 -8.5t-8.5 -3.5h-92q-5 0 -8.5 3.5t-3.5 8.5v23q0 29 -16.5 45.5t-44.5 16.5t-44 -16t-16 -46v-267q0 -29 16 -45t44 -16t44.5 16t16.5 45v65q0 5 -5 5h-40q-5 0 -8.5 3.5
t-3.5 8.5v58q0 5 3.5 8.5t8.5 3.5h149q5 0 8.5 -3.5t3.5 -8.5v-139q0 -76 -48.5 -119.5t-128.5 -43.5t-128 43.5z" />
    <glyph glyph-name="gbreve.sc" horiz-adv-x="420" 
d="M84 36.5q-48 43.5 -48 119.5v266q0 75 48 118.5t128 43.5t128.5 -44t48.5 -120v-21q0 -5 -3.5 -8.5t-8.5 -3.5h-92q-5 0 -8.5 3.5t-3.5 8.5v23q0 29 -16.5 45.5t-44.5 16.5t-44 -16t-16 -46v-267q0 -29 16 -45t44 -16t44.5 16t16.5 45v65q0 5 -5 5h-40q-5 0 -8.5 3.5
t-3.5 8.5v58q0 5 3.5 8.5t8.5 3.5h149q5 0 8.5 -3.5t3.5 -8.5v-139q0 -76 -48.5 -119.5t-128.5 -43.5t-128 43.5zM133 644q-31 28 -35 74v2q0 10 11 10h39q11 0 13 -12q3 -21 17 -34.5t34 -13.5q19 0 33.5 13.5t17.5 34.5q1 12 13 12h39q12 0 11 -12q-4 -46 -35.5 -74
t-78.5 -28q-48 0 -79 28z" />
    <glyph glyph-name="uni0123.sc" horiz-adv-x="420" 
d="M84 36.5q-48 43.5 -48 119.5v266q0 75 48 118.5t128 43.5t128.5 -44t48.5 -120v-21q0 -5 -3.5 -8.5t-8.5 -3.5h-92q-5 0 -8.5 3.5t-3.5 8.5v23q0 29 -16.5 45.5t-44.5 16.5t-44 -16t-16 -46v-267q0 -29 16 -45t44 -16t44.5 16t16.5 45v65q0 5 -5 5h-40q-5 0 -8.5 3.5
t-3.5 8.5v58q0 5 3.5 8.5t8.5 3.5h149q5 0 8.5 -3.5t3.5 -8.5v-139q0 -76 -48.5 -119.5t-128.5 -43.5t-128 43.5zM136 -182q-3 4 1 10l59 103q4 8 15 8h84q8 0 10 -4.5t-2 -10.5l-74 -103q-5 -7 -14 -7h-69q-7 0 -10 4z" />
    <glyph glyph-name="gdotaccent.sc" horiz-adv-x="420" 
d="M84 36.5q-48 43.5 -48 119.5v266q0 75 48 118.5t128 43.5t128.5 -44t48.5 -120v-21q0 -5 -3.5 -8.5t-8.5 -3.5h-92q-5 0 -8.5 3.5t-3.5 8.5v23q0 29 -16.5 45.5t-44.5 16.5t-44 -16t-16 -46v-267q0 -29 16 -45t44 -16t44.5 16t16.5 45v65q0 5 -5 5h-40q-5 0 -8.5 3.5
t-3.5 8.5v58q0 5 3.5 8.5t8.5 3.5h149q5 0 8.5 -3.5t3.5 -8.5v-139q0 -76 -48.5 -119.5t-128.5 -43.5t-128 43.5zM171.5 658q-15.5 16 -15.5 42q0 25 15.5 41t40.5 16t39.5 -15.5t14.5 -41.5t-14.5 -42t-39.5 -16t-40.5 16z" />
    <glyph glyph-name="h.sc" horiz-adv-x="435" 
d="M277.5 573.5q3.5 3.5 8.5 3.5h92q5 0 8.5 -3.5t3.5 -8.5v-553q0 -5 -3.5 -8.5t-8.5 -3.5h-92q-5 0 -8.5 3.5t-3.5 8.5v222q0 5 -5 5h-103q-5 0 -5 -5v-222q0 -5 -3.5 -8.5t-8.5 -3.5h-92q-5 0 -8.5 3.5t-3.5 8.5v553q0 5 3.5 8.5t8.5 3.5h92q5 0 8.5 -3.5t3.5 -8.5v-221
q0 -5 5 -5h103q5 0 5 5v221q0 5 3.5 8.5z" />
    <glyph glyph-name="hbar.sc" horiz-adv-x="435" 
d="M445.5 494.5q3.5 -3.5 3.5 -8.5v-55q0 -5 -3.5 -8.5t-8.5 -3.5h-42q-5 0 -5 -5v-402q0 -5 -3.5 -8.5t-8.5 -3.5h-92q-5 0 -8.5 3.5t-3.5 8.5v222q0 5 -5 5h-103q-5 0 -5 -5v-222q0 -5 -3.5 -8.5t-8.5 -3.5h-92q-5 0 -8.5 3.5t-3.5 8.5v402q0 5 -5 5h-43q-5 0 -8.5 3.5
t-3.5 8.5v55q0 5 3.5 8.5t8.5 3.5h43q5 0 5 5v62q0 5 3.5 8.5t8.5 3.5h92q5 0 8.5 -3.5t3.5 -8.5v-62q0 -5 5 -5h103q5 0 5 5v62q0 5 3.5 8.5t8.5 3.5h92q5 0 8.5 -3.5t3.5 -8.5v-62q0 -5 5 -5h42q5 0 8.5 -3.5zM274 344v70q0 5 -5 5h-103q-5 0 -5 -5v-70q0 -5 5 -5h103
q5 0 5 5z" />
    <glyph glyph-name="i.sc" horiz-adv-x="206" 
d="M48.5 3.5q-3.5 3.5 -3.5 8.5v553q0 5 3.5 8.5t8.5 3.5h92q5 0 8.5 -3.5t3.5 -8.5v-553q0 -5 -3.5 -8.5t-8.5 -3.5h-92q-5 0 -8.5 3.5z" />
    <glyph glyph-name="iacute.sc" horiz-adv-x="206" 
d="M48.5 3.5q-3.5 3.5 -3.5 8.5v553q0 5 3.5 8.5t8.5 3.5h92q5 0 8.5 -3.5t3.5 -8.5v-553q0 -5 -3.5 -8.5t-8.5 -3.5h-92q-5 0 -8.5 3.5zM41 655q-3 4 1 10l59 103q4 8 15 8h84q8 0 10 -4.5t-2 -10.5l-74 -103q-5 -7 -14 -7h-69q-7 0 -10 4z" />
    <glyph glyph-name="icircumflex.sc" horiz-adv-x="206" 
d="M48.5 3.5q-3.5 3.5 -3.5 8.5v553q0 5 3.5 8.5t8.5 3.5h92q5 0 8.5 -3.5t3.5 -8.5v-553q0 -5 -3.5 -8.5t-8.5 -3.5h-92q-5 0 -8.5 3.5zM-29.5 650.5q-2.5 3.5 1.5 10.5l65 102q5 8 14 8h98q9 0 14 -8l67 -101q2 -3 2 -7q0 -8 -9 -8h-69q-10 0 -15 8l-34 62q-3 5 -6 0
l-35 -62q-5 -8 -15 -8h-69q-7 0 -9.5 3.5z" />
    <glyph glyph-name="idieresis.sc" horiz-adv-x="206" 
d="M48.5 3.5q-3.5 3.5 -3.5 8.5v553q0 5 3.5 8.5t8.5 3.5h92q5 0 8.5 -3.5t3.5 -8.5v-553q0 -5 -3.5 -8.5t-8.5 -3.5h-92q-5 0 -8.5 3.5zM-16.5 670.5q-17.5 17.5 -17.5 45.5q0 27 17.5 44.5t43.5 17.5t42.5 -17.5t16.5 -44.5q0 -28 -16.5 -45.5t-42.5 -17.5t-43.5 17.5z
M138 670.5q-17 17.5 -17 45.5q0 27 17 44.5t44 17.5q26 0 42.5 -17.5t16.5 -44.5q0 -28 -16.5 -45.5t-42.5 -17.5q-27 0 -44 17.5z" />
    <glyph glyph-name="i.sc.loclTRK" horiz-adv-x="206" 
d="M48.5 3.5q-3.5 3.5 -3.5 8.5v553q0 5 3.5 8.5t8.5 3.5h92q5 0 8.5 -3.5t3.5 -8.5v-553q0 -5 -3.5 -8.5t-8.5 -3.5h-92q-5 0 -8.5 3.5zM62.5 661q-15.5 16 -15.5 42q0 25 15.5 41t40.5 16t39.5 -15.5t14.5 -41.5t-14.5 -42t-39.5 -16t-40.5 16z" />
    <glyph glyph-name="igrave.sc" horiz-adv-x="206" 
d="M48.5 3.5q-3.5 3.5 -3.5 8.5v553q0 5 3.5 8.5t8.5 3.5h92q5 0 8.5 -3.5t3.5 -8.5v-553q0 -5 -3.5 -8.5t-8.5 -3.5h-92q-5 0 -8.5 3.5zM146 659q0 -8 -11 -8h-69q-9 0 -14 7l-74 103q-3 5 -3 7q0 8 11 8h84q11 0 15 -8l59 -103z" />
    <glyph glyph-name="ij.sc" horiz-adv-x="612" 
d="M48.5 3.5q-3.5 3.5 -3.5 8.5v553q0 5 3.5 8.5t8.5 3.5h92q5 0 8.5 -3.5t3.5 -8.5v-553q0 -5 -3.5 -8.5t-8.5 -3.5h-92q-5 0 -8.5 3.5zM266.5 36.5q-47.5 43.5 -47.5 115.5v50q0 5 3.5 8.5t8.5 3.5h92q5 0 8.5 -3.5t3.5 -8.5v-51q0 -27 15.5 -42.5t41.5 -15.5
q27 0 43 15.5t16 42.5v414q0 5 3.5 8.5t8.5 3.5h92q5 0 8.5 -3.5t3.5 -8.5v-413q0 -73 -47.5 -116t-127.5 -43q-78 0 -125.5 43.5z" />
    <glyph glyph-name="imacron.sc" horiz-adv-x="206" 
d="M48.5 3.5q-3.5 3.5 -3.5 8.5v553q0 5 3.5 8.5t8.5 3.5h92q5 0 8.5 -3.5t3.5 -8.5v-553q0 -5 -3.5 -8.5t-8.5 -3.5h-92q-5 0 -8.5 3.5zM-3.5 665.5q-3.5 3.5 -3.5 8.5v56q0 5 3.5 8.5t8.5 3.5h190q5 0 8.5 -3.5t3.5 -8.5v-56q0 -5 -3.5 -8.5t-8.5 -3.5h-190q-5 0 -8.5 3.5
z" />
    <glyph glyph-name="iogonek.sc" horiz-adv-x="211" 
d="M48.5 3.5q-3.5 3.5 -3.5 8.5v553q0 5 3.5 8.5t8.5 3.5h92q5 0 8.5 -3.5t3.5 -8.5v-553q0 -5 -3.5 -8.5t-8.5 -3.5h-92q-5 0 -8.5 3.5zM166 -173q0 -7 -8 -10q-22 -6 -41 -6q-37 0 -61.5 19.5t-24.5 66.5q0 52 46 97q6 6 15 6h48q4 0 7 -2t3 -4q0 -4 -5 -9
q-38 -38 -38 -73l1 -8q4 -16 14.5 -23t24.5 -5h3q10 0 11 -9l5 -36v-4z" />
    <glyph glyph-name="j.sc" horiz-adv-x="406" 
d="M60.5 36.5q-47.5 43.5 -47.5 115.5v50q0 5 3.5 8.5t8.5 3.5h92q5 0 8.5 -3.5t3.5 -8.5v-51q0 -27 15.5 -42.5t41.5 -15.5q27 0 43 15.5t16 42.5v414q0 5 3.5 8.5t8.5 3.5h92q5 0 8.5 -3.5t3.5 -8.5v-413q0 -73 -47.5 -116t-127.5 -43q-78 0 -125.5 43.5z" />
    <glyph glyph-name="k.sc" 
d="M48.5 3.5q-3.5 3.5 -3.5 8.5v553q0 5 3.5 8.5t8.5 3.5h92q5 0 8.5 -3.5t3.5 -8.5v-207q0 -4 2 -4.5t4 2.5l126 213q4 8 14 8h98q7 0 10 -4t-1 -10l-128 -223q-1 -2 0 -6l137 -320q1 -2 1 -6q0 -8 -10 -8h-99q-10 0 -14 9l-95 223q-1 2 -3.5 2.5t-3.5 -1.5l-36 -58
q-2 -4 -2 -6v-157q0 -5 -3.5 -8.5t-8.5 -3.5h-92q-5 0 -8.5 3.5z" />
    <glyph glyph-name="uni0137.sc" 
d="M48.5 3.5q-3.5 3.5 -3.5 8.5v553q0 5 3.5 8.5t8.5 3.5h92q5 0 8.5 -3.5t3.5 -8.5v-207q0 -4 2 -4.5t4 2.5l126 213q4 8 14 8h98q7 0 10 -4t-1 -10l-128 -223q-1 -2 0 -6l137 -320q1 -2 1 -6q0 -8 -10 -8h-99q-10 0 -14 9l-95 223q-1 2 -3.5 2.5t-3.5 -1.5l-36 -58
q-2 -4 -2 -6v-157q0 -5 -3.5 -8.5t-8.5 -3.5h-92q-5 0 -8.5 3.5zM143 -175q-3 4 1 10l59 103q4 8 15 8h84q8 0 10 -4.5t-2 -10.5l-74 -103q-5 -7 -14 -7h-69q-7 0 -10 4z" />
    <glyph glyph-name="l.sc" horiz-adv-x="382" 
d="M48.5 3.5q-3.5 3.5 -3.5 8.5v553q0 5 3.5 8.5t8.5 3.5h92q5 0 8.5 -3.5t3.5 -8.5v-460q0 -5 5 -5h192q5 0 8.5 -3.5t3.5 -8.5v-76q0 -5 -3.5 -8.5t-8.5 -3.5h-301q-5 0 -8.5 3.5z" />
    <glyph glyph-name="lacute.sc" horiz-adv-x="382" 
d="M48.5 3.5q-3.5 3.5 -3.5 8.5v553q0 5 3.5 8.5t8.5 3.5h92q5 0 8.5 -3.5t3.5 -8.5v-460q0 -5 5 -5h192q5 0 8.5 -3.5t3.5 -8.5v-76q0 -5 -3.5 -8.5t-8.5 -3.5h-301q-5 0 -8.5 3.5zM42 645q-3 4 1 10l59 103q4 8 15 8h84q8 0 10 -4.5t-2 -10.5l-74 -103q-5 -7 -14 -7h-69
q-7 0 -10 4z" />
    <glyph glyph-name="lcaron.sc" horiz-adv-x="382" 
d="M48.5 3.5q-3.5 3.5 -3.5 8.5v553q0 5 3.5 8.5t8.5 3.5h92q5 0 8.5 -3.5t3.5 -8.5v-460q0 -5 5 -5h192q5 0 8.5 -3.5t3.5 -8.5v-76q0 -5 -3.5 -8.5t-8.5 -3.5h-301q-5 0 -8.5 3.5zM41 635l-65 102q-2 6 -2 7q0 7 10 7h67q10 0 14 -8l36 -61q1 -3 3 -3t4 3l35 61q5 8 15 8
h62q7 0 9.5 -4.5t-1.5 -10.5l-67 -101q-5 -8 -14 -8h-92q-9 0 -14 8z" />
    <glyph glyph-name="uni013C.sc" horiz-adv-x="382" 
d="M48.5 3.5q-3.5 3.5 -3.5 8.5v553q0 5 3.5 8.5t8.5 3.5h92q5 0 8.5 -3.5t3.5 -8.5v-460q0 -5 5 -5h192q5 0 8.5 -3.5t3.5 -8.5v-76q0 -5 -3.5 -8.5t-8.5 -3.5h-301q-5 0 -8.5 3.5zM110 -175q-3 4 1 10l59 103q4 8 15 8h84q8 0 10 -4.5t-2 -10.5l-74 -103q-5 -7 -14 -7h-69
q-7 0 -10 4z" />
    <glyph glyph-name="lslash.sc" horiz-adv-x="562" 
d="M166 100h192q5 0 8.5 -3.5t3.5 -8.5v-76q0 -5 -3.5 -8.5t-8.5 -3.5h-301q-5 0 -8.5 3.5t-3.5 8.5v150q0 3 -2 4t-4 -1l-24 -19q-4 -3 -8 -3t-9 5l-35 42q-4 6 -4 8q0 4 5 9l78 62q3 2 3 6v290q0 5 3.5 8.5t8.5 3.5h92q5 0 8.5 -3.5t3.5 -8.5v-194q0 -3 2 -4t4 1l120 95
q5 3 8 3q4 0 9 -5l35 -43q3 -4 3 -8t-5 -9l-173 -137q-3 -1 -3 -6v-153q0 -5 5 -5z" />
    <glyph glyph-name="m.sc" horiz-adv-x="482" 
d="M48.5 3.5q-3.5 3.5 -3.5 8.5v553q0 5 3.5 8.5t8.5 3.5h91q10 0 14 -9l76 -146q3 -4 6 0l76 146q5 9 14 9h91q5 0 8.5 -3.5t3.5 -8.5v-553q0 -5 -3.5 -8.5t-8.5 -3.5h-92q-5 0 -8.5 3.5t-3.5 8.5v393q0 4 -2 4.5t-4 -2.5l-65 -138q-4 -9 -8 -9t-9 9l-66 140q-2 3 -4 2.5
t-2 -4.5v-395q0 -5 -3.5 -8.5t-8.5 -3.5h-92q-5 0 -8.5 3.5z" />
    <glyph glyph-name="n.sc" horiz-adv-x="464" 
d="M48.5 3.5q-3.5 3.5 -3.5 8.5v553q0 5 3.5 8.5t8.5 3.5h92q11 0 14 -9l136 -337q2 -3 4 -2.5t2 4.5l-1 332q0 5 3.5 8.5t8.5 3.5h91q5 0 8.5 -3.5t3.5 -8.5v-553q0 -5 -3.5 -8.5t-8.5 -3.5h-93q-11 0 -14 9l-135 337q-2 3 -4 2.5t-2 -4.5l1 -332q0 -5 -3.5 -8.5t-8.5 -3.5
h-91q-5 0 -8.5 3.5z" />
    <glyph glyph-name="nacute.sc" horiz-adv-x="464" 
d="M48.5 3.5q-3.5 3.5 -3.5 8.5v553q0 5 3.5 8.5t8.5 3.5h92q11 0 14 -9l136 -337q2 -3 4 -2.5t2 4.5l-1 332q0 5 3.5 8.5t8.5 3.5h91q5 0 8.5 -3.5t3.5 -8.5v-553q0 -5 -3.5 -8.5t-8.5 -3.5h-93q-11 0 -14 9l-135 337q-2 3 -4 2.5t-2 -4.5l1 -332q0 -5 -3.5 -8.5t-8.5 -3.5
h-91q-5 0 -8.5 3.5zM168 655q-3 4 1 10l59 103q4 8 15 8h84q8 0 10 -4.5t-2 -10.5l-74 -103q-5 -7 -14 -7h-69q-7 0 -10 4z" />
    <glyph glyph-name="ncaron.sc" horiz-adv-x="464" 
d="M48.5 3.5q-3.5 3.5 -3.5 8.5v553q0 5 3.5 8.5t8.5 3.5h92q11 0 14 -9l136 -337q2 -3 4 -2.5t2 4.5l-1 332q0 5 3.5 8.5t8.5 3.5h91q5 0 8.5 -3.5t3.5 -8.5v-553q0 -5 -3.5 -8.5t-8.5 -3.5h-93q-11 0 -14 9l-135 337q-2 3 -4 2.5t-2 -4.5l1 -332q0 -5 -3.5 -8.5t-8.5 -3.5
h-91q-5 0 -8.5 3.5zM167 645l-65 102q-2 6 -2 7q0 7 10 7h67q10 0 14 -8l36 -61q1 -3 3 -3t4 3l35 61q5 8 15 8h62q7 0 9.5 -4.5t-1.5 -10.5l-67 -101q-5 -8 -14 -8h-92q-9 0 -14 8z" />
    <glyph glyph-name="uni0146.sc" horiz-adv-x="464" 
d="M48.5 3.5q-3.5 3.5 -3.5 8.5v553q0 5 3.5 8.5t8.5 3.5h92q11 0 14 -9l136 -337q2 -3 4 -2.5t2 4.5l-1 332q0 5 3.5 8.5t8.5 3.5h91q5 0 8.5 -3.5t3.5 -8.5v-553q0 -5 -3.5 -8.5t-8.5 -3.5h-93q-11 0 -14 9l-135 337q-2 3 -4 2.5t-2 -4.5l1 -332q0 -5 -3.5 -8.5t-8.5 -3.5
h-91q-5 0 -8.5 3.5zM162 -175q-3 4 1 10l59 103q4 8 15 8h84q8 0 10 -4.5t-2 -10.5l-74 -103q-5 -7 -14 -7h-69q-7 0 -10 4z" />
    <glyph glyph-name="eng.sc" horiz-adv-x="464" 
d="M307.5 573.5q3.5 3.5 8.5 3.5h91q5 0 8.5 -3.5t3.5 -8.5v-565q0 -59 -10 -90.5t-47.5 -49t-116.5 -16.5q-13 0 -13 12v76q0 11 13 11q25 0 35 8t11.5 19.5t1.5 41.5v12l-1 6l-127 316q-2 3 -4 2.5t-2 -4.5l1 -332q0 -5 -3.5 -8.5t-8.5 -3.5h-91q-5 0 -8.5 3.5t-3.5 8.5
v553q0 5 3.5 8.5t8.5 3.5h92q11 0 14 -9l127 -313q1 -3 2 -3t2 2q2 5 5 5h1q5 0 5 5l-1 301q0 5 3.5 8.5z" />
    <glyph glyph-name="ntilde.sc" horiz-adv-x="464" 
d="M48.5 3.5q-3.5 3.5 -3.5 8.5v553q0 5 3.5 8.5t8.5 3.5h92q11 0 14 -9l136 -337q2 -3 4 -2.5t2 4.5l-1 332q0 5 3.5 8.5t8.5 3.5h91q5 0 8.5 -3.5t3.5 -8.5v-553q0 -5 -3.5 -8.5t-8.5 -3.5h-93q-11 0 -14 9l-135 337q-2 3 -4 2.5t-2 -4.5l1 -332q0 -5 -3.5 -8.5t-8.5 -3.5
h-91q-5 0 -8.5 3.5zM270 665.5q-12 4.5 -29 14.5q-5 3 -13.5 8.5t-15 8t-14.5 2.5q-24 0 -38 -23q-7 -10 -17 -4l-32 24q-9 7 -5 16q14 32 35.5 47t47.5 15q16 0 30.5 -5.5t31.5 -16.5q3 -2 11 -8t16 -9t16 -3q24 0 38 23q6 11 16 4l32 -21q5 -3 5 -10q0 -6 -4 -14
q-17 -28 -40 -40.5t-46 -12.5q-13 0 -25 4.5z" />
    </font>
</defs>
</svg>
