<?xml version="1.0" standalone="no"?>
<!DOCTYPE svg PUBLIC "-//W3C//DTD SVG 1.1//EN" "http://www.w3.org/Graphics/SVG/1.1/DTD/svg11.dtd" >
<svg xmlns="http://www.w3.org/2000/svg" xmlns:xlink="http://www.w3.org/1999/xlink" version="1.1">
<metadata>
Created by FontForge 20170731 at Thu Oct 26 18:31:39 2017
 By Aleksey,,,
Copyright 2017 The Barlow Project Authors (https://github.com/jpt/barlow)
</metadata>
<defs>
<font id="BarlowCondensed-Regular" horiz-adv-x="0" >
  <font-face 
    font-family="Barlow Condensed"
    font-weight="400"
    font-stretch="condensed"
    units-per-em="1000"
    panose-1="0 0 5 6 0 0 0 0 0 0"
    ascent="800"
    descent="-200"
    x-height="506"
    cap-height="700"
    bbox="-424 -209 980 983"
    underline-thickness="50"
    underline-position="-150"
    unicode-range="U+000D-25CA"
  />
<missing-glyph horiz-adv-x="341" 
d="M4 0h333q4 0 4 4v692q0 4 -4 4h-333q-4 0 -4 -4v-692q0 -4 4 -4zM139 242v39q0 31 11.5 50t35.5 44q24 24 36 44t12 51q0 36 -16 57.5t-42 21.5q-28 0 -45 -22t-17 -58v-19q0 -10 -10 -10l-31 2q-10 0 -10 10v17q0 57 31.5 91.5t82.5 34.5q50 0 79.5 -34t29.5 -91
q0 -45 -14.5 -70.5t-42.5 -53.5q-19 -19 -28.5 -33.5t-9.5 -34.5v-36q0 -10 -10 -10h-32q-10 0 -10 10zM141.5 102q-10.5 12 -10.5 29t11 29t26 12q14 0 25.5 -12.5t11.5 -28.5q0 -17 -11 -29t-27 -12q-15 0 -25.5 12z" />
    <glyph glyph-name="I_J.liga" unicode="IJ" horiz-adv-x="641" 
d="M72 10v680q0 10 10 10h51q10 0 10 -10v-680q0 -10 -10 -10h-51q-10 0 -10 10zM283 38.5q-46 46.5 -46 122.5v84q0 10 10 10h51q10 0 10 -10v-85q0 -47 26 -76.5t69 -29.5q42 0 68.5 29.5t26.5 76.5v530q0 10 10 10h51q10 0 10 -10v-529q0 -76 -46 -122.5t-120 -46.5
t-120 46.5z" />
    <glyph glyph-name="f_f_i.liga" unicode="ffi" horiz-adv-x="741" 
d="M416 510q0 -4 4 -4h77q10 0 10 -10v-33q0 -10 -10 -10h-77q-4 0 -4 -4v-439q0 -10 -10 -10h-51q-10 0 -10 10v439q0 4 -4 4h-184q-4 0 -4 -4v-439q0 -10 -10 -10h-51q-10 0 -10 10v439q0 4 -4 4h-40q-10 0 -10 10v33q0 10 10 10h40q4 0 4 4v42q0 82 33 119t107 36h10
q10 0 10 -10v-32q0 -10 -10 -10h-10q-40 -1 -54.5 -27.5t-14.5 -80.5v-37q0 -4 4 -4h184q4 0 4 4v42q0 82 33 119t107 36h10q10 0 10 -10v-32q0 -10 -9 -10h-10q-40 -1 -55 -27.5t-15 -80.5v-37zM676.5 611.5q-13.5 -14.5 -35.5 -14.5t-36 14.5t-14 37.5t14 37.5t36 14.5
t35.5 -14.5t13.5 -37.5t-13.5 -37.5zM606 10v486q0 10 10 10h51q10 0 10 -10v-486q0 -10 -10 -10h-51q-10 0 -10 10z" />
    <glyph glyph-name="f_f_l.liga" unicode="ffl" horiz-adv-x="723" 
d="M418 510q0 -4 4 -4h77q10 0 10 -10v-33q0 -10 -10 -10h-77q-4 0 -4 -4v-439q0 -10 -10 -10h-51q-10 0 -10 10v439q0 4 -4 4h-186q-4 0 -4 -4v-439q0 -10 -10 -10h-51q-10 0 -10 10v439q0 4 -4 4h-40q-10 0 -10 10v33q0 10 10 10h40q4 0 4 4v42q0 82 33 119t107 36h10
q10 0 10 -10v-32q0 -10 -10 -10h-10q-40 -1 -54.5 -27.5t-14.5 -80.5v-37q0 -4 4 -4h186q4 0 4 4v42q0 82 33 119t107 36h10q10 0 10 -10v-32q0 -10 -9 -10h-10q-40 -1 -55 -27.5t-15 -80.5v-37zM607 700h51q10 0 10 -10v-680q0 -10 -10 -10h-51q-10 0 -10 10v680
q0 10 10 10z" />
    <glyph glyph-name="f_i.liga" unicode="fi" horiz-adv-x="478" 
d="M168 620.5q-16 -25.5 -16 -79.5v-31q0 -4 4 -4h77q10 0 10 -10v-33q0 -10 -10 -10h-77q-4 0 -4 -4v-439q0 -10 -10 -10h-50q-10 0 -10 10v439q0 4 -4 4h-40q-10 0 -10 10v33q0 10 10 10h40q4 0 4 4v32q0 87 32 126t107 39h14q10 0 10 -10l-1 -41q0 -10 -10 -10h-12
q-38 0 -54 -25.5zM342 611q-14 15 -14 38q0 22 14 36.5t36 14.5q21 0 34.5 -14.5t13.5 -36.5q0 -23 -13.5 -38t-34.5 -15q-22 0 -36 15zM342 10v486q0 10 10 10h51q10 0 10 -10v-486q0 -10 -10 -10h-51q-10 0 -10 10z" />
    <glyph glyph-name="f_l.liga" unicode="fl" horiz-adv-x="457" 
d="M168 620.5q-16 -25.5 -16 -79.5v-31q0 -4 4 -4h77q10 0 10 -10v-33q0 -10 -10 -10h-77q-4 0 -4 -4v-439q0 -10 -10 -10h-50q-10 0 -10 10v439q0 4 -4 4h-40q-10 0 -10 10v33q0 10 10 10h40q4 0 4 4v32q0 87 32 126t107 39h14q10 0 10 -10l-1 -41q0 -10 -10 -10h-12
q-38 0 -54 -25.5zM331 10v680q0 10 10 10h51q10 0 10 -10v-680q0 -10 -10 -10h-51q-10 0 -10 10z" />
    <glyph glyph-name="g_j.liga" unicode="gj" horiz-adv-x="605" 
d="M473.5 611.5q-13.5 14.5 -13.5 37.5t14.5 37t34.5 14t34.5 -14t14.5 -37t-13.5 -37.5t-35.5 -14.5t-35.5 14.5zM289.5 461.5q1.5 0.5 1.5 3.5v31q0 10 10 10h51q10 0 10 -10v-486q0 -107 -49.5 -162.5t-165.5 -50.5q-10 1 -10 11v43q0 10 10 10q80 -2 112 36.5t32 118.5
v30q0 2 -1.5 3t-3.5 -1q-17 -25 -43.5 -38t-56.5 -13q-63 0 -99.5 42t-36.5 111v211q0 70 36.5 111.5t99.5 41.5q30 0 56.5 -12.5t43.5 -37.5q2 -3 3.5 -2.5zM474 496q0 10 10 10h50q10 0 10 -10v-540q0 -81 -32 -122t-110 -42q-10 0 -10 10l1 42q0 10 8 10q35 1 54 28
t19 74v540zM267.5 85.5q23.5 26.5 23.5 68.5v202q0 43 -23.5 69.5t-60.5 26.5q-38 0 -62 -26.5t-24 -69.5v-202q0 -42 24 -68.5t62 -26.5q37 0 60.5 26.5z" />
    <glyph glyph-name="i_j.liga" unicode="ij" horiz-adv-x="392" 
d="M66 611q-14 15 -14 38q0 22 14 36.5t36 14.5q21 0 34.5 -14.5t13.5 -36.5q0 -23 -13.5 -38t-34.5 -15q-22 0 -36 15zM66 10v486q0 10 10 10h51q10 0 10 -10v-486q0 -10 -10 -10h-51q-10 0 -10 10zM259.5 611.5q-13.5 14.5 -13.5 37.5t14.5 37.5t34.5 14.5
q21 0 35.5 -14.5t14.5 -37.5t-14 -37.5t-36 -14.5t-35.5 14.5zM169 -198v42q0 10 10 10q81 3 81 102v540q0 10 10 10h51q10 0 10 -10v-540q0 -82 -32 -123t-120 -41q-10 0 -10 10z" />
    <glyph glyph-name="hyphen_hyphen.liga" unicode="&#x2d;&#x2d;" horiz-adv-x="592" 
d="M32 283v42q0 10 10 10h508q10 0 10 -10v-42q0 -10 -10 -10h-508q-10 0 -10 10z" />
    <glyph glyph-name=".notdef" horiz-adv-x="341" 
d="M4 0h333q4 0 4 4v692q0 4 -4 4h-333q-4 0 -4 -4v-692q0 -4 4 -4zM139 242v39q0 31 11.5 50t35.5 44q24 24 36 44t12 51q0 36 -16 57.5t-42 21.5q-28 0 -45 -22t-17 -58v-19q0 -10 -10 -10l-31 2q-10 0 -10 10v17q0 57 31.5 91.5t82.5 34.5q50 0 79.5 -34t29.5 -91
q0 -45 -14.5 -70.5t-42.5 -53.5q-19 -19 -28.5 -33.5t-9.5 -34.5v-36q0 -10 -10 -10h-32q-10 0 -10 10zM141.5 102q-10.5 12 -10.5 29t11 29t26 12q14 0 25.5 -12.5t11.5 -28.5q0 -17 -11 -29t-27 -12q-15 0 -25.5 12z" />
    <glyph glyph-name=".null" 
 />
    <glyph glyph-name="nonmarkingreturn" unicode="&#xd;" horiz-adv-x="200" 
 />
    <glyph glyph-name="space" unicode=" " horiz-adv-x="200" 
 />
    <glyph glyph-name="exclam" unicode="!" horiz-adv-x="255" 
d="M98 238l-6 452q0 10 10 10h51q10 0 10 -10l-6 -452q0 -10 -10 -10h-39q-10 0 -10 10zM86.5 21q-15.5 17 -15.5 42q0 24 17 41.5t38 17.5t38 -17.5t17 -41.5q0 -25 -16 -42t-39 -17q-24 0 -39.5 17z" />
    <glyph glyph-name="quotedbl" unicode="&#x22;" horiz-adv-x="235" 
d="M30 498l-8 186q0 10 10 10h50q10 0 10 -10l-8 -186q0 -10 -10 -10h-34q-10 0 -10 10zM148 498l-7 186q0 10 10 10h50q10 0 10 -10l-8 -186q0 -10 -10 -10h-35q-10 0 -10 10z" />
    <glyph glyph-name="numbersign" unicode="#" horiz-adv-x="589" 
d="M524 429h-63q-5 0 -5 -4l-23 -159q0 -4 3 -4h55q10 0 10 -10v-42q0 -10 -10 -10h-65q-5 0 -5 -4l-25 -171q-1 -9 -10 -9l-51 2q-4 0 -7 3t-2 8l24 167q0 4 -3 4h-146q-5 0 -5 -4l-25 -171q-1 -9 -10 -9l-51 2q-4 0 -7 3t-2 8l24 167q0 4 -3 4h-57q-10 0 -10 10v42
q0 10 10 10h66q5 0 5 4l23 159q0 4 -3 4h-58q-10 0 -10 10v43q0 10 10 10h68q5 0 5 4l25 171q1 9 10 9l51 -2q4 0 7 -3t2 -8l-24 -167q0 -4 3 -4h146q5 0 5 4l25 171q1 9 10 9l51 -2q4 0 7 -3t2 -8l-24 -167q0 -4 3 -4h54q10 0 10 -10v-43q0 -10 -10 -10zM361 266l23 159
q0 4 -3 4h-145q-5 0 -5 -4l-23 -159q0 -4 3 -4h145q5 0 5 4z" />
    <glyph glyph-name="dollar" unicode="$" horiz-adv-x="426" 
d="M346 49.5q-39 -48.5 -104 -56.5q-4 0 -4 -4v-61q0 -10 -10 -10h-29q-10 0 -10 10l1 62q0 4 -4 5q-61 10 -98 56.5t-37 117.5v24q0 10 10 10h50q10 0 10 -10v-21q0 -53 27 -85.5t69 -32.5t70 31t28 82q0 34 -13.5 58.5t-35 43t-71.5 56.5q-50 37 -79 63.5t-47.5 63.5
t-18.5 87q0 70 36.5 114t96.5 52q4 1 4 5l-1 68q0 10 10 10h29q10 0 10 -10l-1 -67q0 -4 4 -4q65 -9 103 -57t38 -123v-25q0 -10 -10 -10h-50q-10 0 -10 10v26q0 53 -26.5 85.5t-70.5 32.5q-40 0 -66 -28.5t-26 -80.5q0 -31 11.5 -54.5t34.5 -44.5t68 -55q60 -44 89.5 -71.5
t45.5 -60t16 -78.5q0 -75 -39 -123.5z" />
    <glyph glyph-name="percent" unicode="%" horiz-adv-x="781" 
d="M141.5 444q-32.5 19 -51 51.5t-18.5 71.5t18.5 71.5t51 51.5t70.5 19t70 -19t50.5 -51.5t18.5 -71.5t-18.5 -71.5t-50.5 -51.5t-70 -19t-70.5 19zM179.5 3.5q-2.5 3.5 0.5 8.5l367 681q3 7 12 7h32q6 0 8.5 -3.5t-0.5 -8.5l-367 -681q-3 -7 -12 -7h-32q-6 0 -8.5 3.5z
M279.5 496.5q27.5 29.5 27.5 70.5q0 42 -27.5 71t-67.5 29t-68 -29t-28 -71t28 -71t68 -29t67.5 29.5zM500.5 10q-32.5 19 -51 52t-18.5 72q0 38 18.5 70.5t51 51.5t70.5 19t70 -19t50.5 -51.5t18.5 -70.5q0 -39 -18.5 -72t-50.5 -52t-70 -19t-70.5 19zM638.5 62.5
q27.5 29.5 27.5 71.5q0 41 -28 70t-67 29q-40 0 -68 -29t-28 -70q0 -43 27.5 -72t68.5 -29q40 0 67.5 29.5z" />
    <glyph glyph-name="ampersand" unicode="&#x26;" horiz-adv-x="551" 
d="M504 6q0 -6 -8 -6h-54q-8 0 -12 6q-33 49 -42 60q-3 4 -6 1q-37 -40 -76.5 -58t-88.5 -18q-77 0 -122 43t-45 122q0 67 32 116.5t89 96.5q3 1 1 5q-36 54 -53 83.5t-22.5 50t-5.5 46.5q0 70 39.5 112t104.5 42t106.5 -42.5t41.5 -110.5q0 -61 -31 -104.5t-89 -92.5
q-3 -1 -1 -5q40 -56 59 -85q36 -52 63 -88q3 -3 6 0q14 21 48 81q2 4 6 5t8 -1l38 -22q8 -5 3 -14q-30 -56 -65 -106q-2 -3 0 -5l74 -106q2 -2 2 -6zM182.5 618.5q-20.5 -24.5 -20.5 -66.5q0 -28 10 -53t48 -83q3 -4 6 -1q42 37 64 68.5t22 71.5t-21 64t-54 24
q-34 0 -54.5 -24.5zM286 69.5q29 16.5 60 51.5q2 3 0 6l-49 68l-83 117q-2 3 -5 0q-43 -38 -65.5 -73.5t-22.5 -80.5q0 -47 27 -76t76 -29q33 0 62 16.5z" />
    <glyph glyph-name="quotesingle" unicode="'" horiz-adv-x="119" 
d="M30 503l-8 185q0 10 10 10h53q10 0 10 -10l-8 -185q0 -10 -10 -10h-37q-10 0 -10 10z" />
    <glyph glyph-name="parenleft" unicode="(" horiz-adv-x="222" 
d="M85 -97q-39 76 -63.5 187.5t-24.5 234.5q0 126 25 240t65 191q4 7 12 7h49q5 0 7.5 -3.5t0.5 -7.5q-34 -79 -56 -192t-22 -234q0 -119 22 -229.5t56 -188.5l1 -4q0 -8 -9 -8h-51q-8 0 -12 7z" />
    <glyph glyph-name="parenright" unicode=")" horiz-adv-x="222" 
d="M125 -104h-51q-5 0 -7.5 3.5t-0.5 8.5q34 78 56 188.5t22 229.5q0 121 -22 234t-56 192q-1 1 -1 4t2.5 5t6.5 2h49q8 0 12 -7q40 -77 65 -191t25 -240q0 -123 -24.5 -234.5t-63.5 -187.5q-4 -7 -12 -7z" />
    <glyph glyph-name="asterisk" unicode="*" horiz-adv-x="361" 
d="M157 404l1 120q0 6 -5 3l-100 -61l-5 -2q-5 0 -9 6l-12 22q-2 4 -2 6q0 6 5 8l102 61q2 1 2 3t-2 3l-102 61q-4 2 -4.5 6t1.5 8l12 24q5 10 14 4l100 -62q5 -2 5 3l-1 119q0 10 10 10h26q10 0 10 -10v-119q0 -2 2 -3t3 0l99 62q4 2 6 2q5 0 8 -6l13 -24q1 -2 1 -5
q0 -6 -5 -9l-101 -61q-1 -1 -1 -3t1 -3l101 -61q9 -6 4 -14l-13 -24q-2 -4 -6 -5t-8 1l-99 63q-1 1 -3 0t-2 -3v-120q0 -10 -10 -10h-26q-10 0 -10 10z" />
    <glyph glyph-name="plus" unicode="+" horiz-adv-x="442" 
d="M410 336v-35q0 -10 -10 -10h-147q-4 0 -4 -4v-147q0 -10 -10 -10h-36q-10 0 -10 10v147q0 4 -4 4h-147q-10 0 -10 10v35q0 10 10 10h147q4 0 4 4v147q0 10 10 10h36q10 0 10 -10v-147q0 -4 4 -4h147q10 0 10 -10z" />
    <glyph glyph-name="comma" unicode="," horiz-adv-x="177" 
d="M41 -76q-3 3 -2 8l31 214q1 9 10 9h45q11 0 9 -11l-45 -214q-1 -9 -11 -9h-30q-4 0 -7 3z" />
    <glyph glyph-name="hyphen" unicode="-" horiz-adv-x="313" 
d="M32 290v42q0 10 10 10h229q10 0 10 -10v-42q0 -10 -10 -10h-229q-10 0 -10 10z" />
    <glyph glyph-name="period" unicode="." horiz-adv-x="208" 
d="M63.5 20q-15.5 17 -15.5 42q0 24 16.5 41.5t37.5 17.5q22 0 38.5 -17.5t16.5 -41.5q0 -25 -16 -42t-39 -17t-38.5 17z" />
    <glyph glyph-name="slash" unicode="/" horiz-adv-x="301" 
d="M26.5 3q-2.5 3 -1.5 8l181 680q2 9 11 9h50q5 0 7.5 -3t1.5 -8l-181 -680q-2 -9 -11 -9h-50q-5 0 -7.5 3z" />
    <glyph glyph-name="zero" unicode="0" horiz-adv-x="412" 
d="M82.5 39.5q-46.5 49.5 -46.5 129.5v362q0 80 46.5 129.5t122.5 49.5q77 0 124 -49.5t47 -129.5v-362q0 -80 -47 -129.5t-124 -49.5q-76 0 -122.5 49.5zM277.5 83q27.5 31 27.5 82v370q0 51 -27.5 82t-72.5 31q-44 0 -71 -31t-27 -82v-370q0 -51 27 -82t71 -31
q45 0 72.5 31z" />
    <glyph glyph-name="one" unicode="1" horiz-adv-x="248" 
d="M129 700h54q10 0 10 -10v-680q0 -10 -10 -10h-51q-10 0 -10 10v613q0 2 -1.5 3t-3.5 0l-83 -37l-4 -1q-8 0 -8 9v36q0 7 7 12l87 52q5 3 13 3z" />
    <glyph glyph-name="two" unicode="2" horiz-adv-x="402" 
d="M40 10v45q0 8 4 13q31 49 35 56q88 139 139 226q64 110 64 182q0 52 -24 83t-63 31q-38 0 -61.5 -30.5t-22.5 -80.5v-38q0 -10 -10 -10h-52q-10 0 -10 10v40q2 77 45.5 124t113.5 47t113 -48.5t43 -127.5q0 -94 -71 -212q-57 -96 -108 -176q-9 -15 -20.5 -34.5
t-26.5 -42.5q-1 -2 0 -3.5t3 -1.5h233q10 0 10 -10v-42q0 -10 -10 -10h-314q-10 0 -10 10z" />
    <glyph glyph-name="three" unicode="3" horiz-adv-x="435" 
d="M382 212q0 -52 -6 -84q-10 -62 -54 -99t-111 -37q-69 0 -113.5 37t-54.5 101q-6 35 -6 71q0 10 10 10h51q10 0 10 -10q0 -35 4 -58q8 -42 34 -65.5t65 -23.5q38 0 64 23t34 62q5 30 5 79q0 55 -7 89q-9 38 -34.5 59.5t-61.5 21.5q-14 0 -26 -7q-2 -1 -6 -1q-5 0 -8 4
l-25 25q-6 6 -1 14l150 210q1 1 0 3t-3 2h-240q-10 0 -10 10v42q0 10 10 10h316q10 0 10 -10v-45q0 -8 -4 -13l-128 -185q-3 -3 3 -5q47 -6 80.5 -44t43.5 -89q9 -37 9 -97z" />
    <glyph glyph-name="four" unicode="4" horiz-adv-x="401" 
d="M379 246v-44q0 -10 -10 -10h-31q-4 0 -4 -4v-178q0 -10 -10 -10h-51q-10 0 -10 10v178q0 4 -4 4h-227q-10 0 -10 10v38q0 4 2 12l150 440q3 8 12 8h55q11 0 8 -11l-144 -428q-1 -2 0 -3.5t3 -1.5h151q4 0 4 4v153q0 10 10 10h51q10 0 10 -10v-153q0 -4 4 -4h31
q10 0 10 -10z" />
    <glyph glyph-name="five" unicode="5" horiz-adv-x="409" 
d="M372 213q0 -45 -6 -83q-10 -67 -49.5 -102.5t-104.5 -35.5t-104.5 35t-50.5 105l-3 30v2q0 8 9 8h51q10 0 11 -10l3 -24q16 -84 84 -84q32 0 53 20.5t29 59.5q7 32 7 80q0 50 -9 86q-18 70 -80 70q-69 0 -86 -69q-3 -9 -11 -9h-52q-10 0 -10 10v388q0 10 10 10h283
q10 0 10 -10v-42q0 -10 -10 -10h-218q-4 0 -4 -4l-1 -248q0 -2 1.5 -3t3.5 1q16 24 42.5 36.5t59.5 12.5q53 0 87 -32t45 -92q10 -37 10 -96z" />
    <glyph glyph-name="six" unicode="6" horiz-adv-x="410" 
d="M373 213q0 -43 -4 -74q-8 -71 -48.5 -109t-107.5 -38q-62 0 -102 35t-50 103q-7 32 -7 79l-1 328q0 78 44 124.5t116 46.5q65 0 107.5 -47t42.5 -124v-16q0 -10 -10 -10h-51q-10 0 -10 10v14q0 48 -23 78.5t-56 30.5q-40 0 -64 -30t-24 -79v-134q0 -2 1.5 -2.5t3.5 1.5
q14 20 36 30.5t49 10.5q61 0 100 -37t50 -102q8 -40 8 -89zM302 218q0 46 -9 86q-8 37 -28.5 56t-51.5 19q-65 0 -82 -79q-6 -32 -6 -82q0 -47 5 -78q17 -86 83 -86q34 0 55.5 23t28.5 68q5 40 5 73z" />
    <glyph glyph-name="seven" unicode="7" horiz-adv-x="366" 
d="M103.5 3q-2.5 3 -1.5 8l171 623q1 1 -0.5 2.5t-3.5 1.5h-183q-4 0 -4 -4v-41q0 -10 -10 -10h-39q-10 0 -10 10v97q0 10 10 10h306q10 0 10 -10v-46q0 -2 -2 -12l-170 -623q-2 -9 -11 -9h-55q-5 0 -7.5 3z" />
    <glyph glyph-name="eight" unicode="8" horiz-adv-x="423" 
d="M295 368q36 -19 53 -57q23 -51 23 -116q0 -52 -15 -95q-17 -51 -55 -79.5t-91 -28.5q-52 0 -89 28t-55 80q-14 44 -14 96q0 65 19 107q17 43 56 65q4 3 0 6q-35 18 -54 54q-21 41 -21 102q0 63 21 102q19 38 54.5 58t82.5 20q46 0 82 -19.5t55 -56.5q24 -42 24 -105
q0 -60 -21 -99q-20 -37 -55 -56q-5 -3 0 -6zM121 524q0 -45 16 -75q21 -49 73 -49q27 0 47 14t30 39q14 30 14 72q0 45 -17 76q-23 47 -74 47q-52 0 -74 -50q-15 -30 -15 -74zM300 199q0 52 -14 86q-21 58 -76 58q-54 0 -76 -62q-12 -33 -12 -82q0 -43 10 -73
q9 -35 29 -53.5t49 -18.5q31 0 52 19.5t30 55.5q8 32 8 70z" />
    <glyph glyph-name="nine" unicode="9" horiz-adv-x="403" 
d="M350 163q0 -78 -44 -124.5t-116 -46.5q-65 0 -107.5 47t-42.5 124v16q0 10 10 10h51q10 0 10 -10v-14q0 -48 23 -78.5t56 -30.5q40 0 64 30t24 79v134q0 2 -1.5 2.5t-3.5 -1.5q-14 -20 -36 -30.5t-49 -10.5q-61 0 -100 37t-50 102q-8 40 -8 89q0 43 4 74q8 71 48.5 109
t107.5 38q62 0 102 -35t50 -103q7 -32 7 -79zM272 400q6 32 6 82q0 47 -5 78q-17 86 -83 86q-34 0 -55.5 -23t-28.5 -68q-5 -40 -5 -73q0 -45 9 -86q8 -37 28.5 -56t51.5 -19q65 0 82 79z" />
    <glyph glyph-name="colon" unicode=":" horiz-adv-x="211" 
d="M66.5 358.5q-15.5 17.5 -15.5 42.5q0 24 17 41.5t38 17.5t38 -17.5t17 -41.5q0 -25 -16 -42.5t-39 -17.5q-24 0 -39.5 17.5zM66.5 22q-15.5 17 -15.5 43q0 24 17 41.5t38 17.5t38 -17.5t17 -41.5q0 -25 -16 -42.5t-39 -17.5q-24 0 -39.5 17z" />
    <glyph glyph-name="semicolon" unicode=";" horiz-adv-x="193" 
d="M57.5 364q-15.5 17 -15.5 43q0 24 16.5 41t38.5 17q21 0 38 -17t17 -41q0 -25 -16 -42.5t-39 -17.5q-24 0 -39.5 17zM47 -72q-3 3 -2 7l21 207q1 9 11 9h44q5 0 7.5 -3t1.5 -8l-34 -206q-1 -9 -11 -9h-30q-5 0 -8 3z" />
    <glyph glyph-name="less" unicode="&#x3c;" horiz-adv-x="442" 
d="M406.5 63.5q-3.5 -2.5 -8.5 0.5l-359 176q-7 4 -7 12v48q0 8 7 12l359 176l5 2q3 0 5 -2.5t2 -6.5v-49q0 -8 -7 -12l-298 -141q-4 -3 0 -6l298 -141q7 -4 7 -12v-49q0 -5 -3.5 -7.5z" />
    <glyph glyph-name="equal" unicode="=" horiz-adv-x="442" 
d="M32 415v35q0 10 10 10h358q10 0 10 -10v-35q0 -10 -10 -10h-358q-10 0 -10 10zM32 209v35q0 10 10 10h358q10 0 10 -10v-35q0 -10 -10 -10h-358q-10 0 -10 10z" />
    <glyph glyph-name="greater" unicode="&#x3e;" horiz-adv-x="442" 
d="M39 62q-3 0 -5 2.5t-2 6.5v49q0 8 7 12l298 141q4 3 0 6l-298 141q-7 4 -7 12v49q0 5 3.5 7.5t8.5 -0.5l359 -176q7 -4 7 -12v-48q0 -8 -7 -12l-359 -176z" />
    <glyph glyph-name="question" unicode="?" horiz-adv-x="370" 
d="M135 210v59q0 43 16.5 70.5t49.5 60.5q34 34 50.5 61.5t16.5 71.5q0 50 -22.5 80.5t-59.5 30.5q-40 0 -63.5 -31t-23.5 -81v-31q0 -10 -10 -10l-51 3q-10 0 -10 10v28q0 79 44 128t115 49q70 0 111.5 -48t41.5 -128q0 -44 -11.5 -76t-27 -52t-41.5 -46q-27 -26 -40 -46
t-13 -48v-55q0 -10 -10 -10h-52q-10 0 -10 10zM138 18.5q-15 16.5 -15 40.5q0 23 15.5 40t36.5 17q20 0 36 -17t16 -40q0 -24 -15.5 -40.5t-37.5 -16.5q-21 0 -36 16.5z" />
    <glyph glyph-name="at" unicode="@" horiz-adv-x="761" 
d="M573.5 581.5q65.5 -34.5 101.5 -98.5t36 -148q0 -26 -3 -53q-13 -94 -59.5 -146.5t-116.5 -52.5q-66 0 -95 45q-3 3 -6 0q-14 -24 -36.5 -35.5t-47.5 -11.5q-45 0 -72.5 26.5t-27.5 71.5q0 16 9 88q4 36 10 71q7 50 36 79t75 29q17 0 34 -7t29 -21q2 -2 3.5 -1t1.5 3
l1 12q1 9 10 9h32q5 0 8 -3.5t2 -7.5l-26 -204q-1 -6 -1 -18q0 -35 18.5 -56t50.5 -21q44 0 74 40t39 111q3 26 3 48q0 72 -29.5 126t-84 83t-126.5 29q-77 0 -144 -39t-111.5 -109.5t-55.5 -159.5q-3 -25 -3 -48q0 -76 31 -132.5t83.5 -86.5t117.5 -30q48 0 89 13.5
t67 32.5q2 2 6 2q5 0 8 -4l16 -23q2 -4 2 -6q0 -5 -5 -8q-33 -25 -83 -40.5t-109 -15.5q-80 0 -143 35.5t-98 102t-35 155.5q0 18 4 56q13 103 65.5 183.5t132.5 125t171 44.5q86 0 151.5 -34.5zM420 218l8 65l6 53q1 4 1 11q0 24 -14 39t-37 15q-26 0 -44.5 -18.5
t-22.5 -46.5q-2 -21 -4 -30q-4 -24 -5 -43l-9 -71q-2 -29 12 -47t39 -18t43 18t23 47z" />
    <glyph glyph-name="A" unicode="A" horiz-adv-x="455" 
d="M348 9l-25 124q0 2 -1.5 3t-3.5 1h-181q-2 0 -3.5 -1t-1.5 -3l-26 -124q-1 -9 -11 -9h-51q-5 0 -7.5 3t-1.5 8l151 680q2 9 11 9h60q10 0 11 -9l152 -680v-2q0 -9 -9 -9h-52q-9 0 -11 9zM149 195h157q3 0 3 4l-79 385q-1 3 -2 3t-2 -3l-80 -385q0 -4 3 -4z" />
    <glyph glyph-name="B" unicode="B" horiz-adv-x="449" 
d="M366 50q-49 -50 -131 -50h-153q-10 0 -10 10v680q0 10 10 10h144q86 0 135 -47.5t49 -135.5q0 -112 -83 -153q-2 -1 -2 -2t1 -2q88 -51 88 -170q1 -90 -48 -140zM143 634v-241q0 -4 4 -4h79q54 0 84 32t30 90q0 60 -30 93.5t-84 33.5h-79q-4 0 -4 -4zM313 98.5
q30 35.5 30 99.5q0 65 -30 101t-83 36h-83q-4 0 -4 -4v-264q0 -4 4 -4h83q53 0 83 35.5z" />
    <glyph glyph-name="C" unicode="C" horiz-adv-x="446" 
d="M101.5 39q-46.5 47 -46.5 126v371q0 78 46.5 125t123.5 47q78 0 124.5 -46.5t46.5 -125.5v-17q0 -10 -10 -10l-52 -3q-10 0 -10 10v25q0 47 -27 76t-72 29q-44 0 -71.5 -29t-27.5 -76v-382q0 -47 27.5 -76t71.5 -29q45 0 72 29t27 76v25q0 10 10 10l52 -3q10 0 10 -10
v-16q0 -79 -47 -126t-124 -47t-123.5 47z" />
    <glyph glyph-name="D" unicode="D" horiz-adv-x="465" 
d="M72 10v680q0 10 10 10h154q77 0 123 -50.5t46 -135.5v-328q0 -85 -46 -135.5t-123 -50.5h-154q-10 0 -10 10zM147 62l88 1q44 0 70.5 34t27.5 92v322q0 59 -26 93t-72 34h-88q-4 0 -4 -4v-568q0 -4 4 -4z" />
    <glyph glyph-name="E" unicode="E" horiz-adv-x="429" 
d="M379 638h-232q-4 0 -4 -4v-248q0 -4 4 -4h146q10 0 10 -10v-43q0 -10 -10 -10h-146q-4 0 -4 -4v-249q0 -4 4 -4h232q10 0 10 -10v-42q0 -10 -10 -10h-297q-10 0 -10 10v680q0 10 10 10h297q10 0 10 -10v-42q0 -10 -10 -10z" />
    <glyph glyph-name="F" unicode="F" horiz-adv-x="404" 
d="M377 638h-230q-4 0 -4 -4v-248q0 -4 4 -4h145q10 0 10 -10v-43q0 -10 -10 -10h-145q-4 0 -4 -4v-305q0 -10 -10 -10h-51q-10 0 -10 10v680q0 10 10 10h295q10 0 10 -10v-42q0 -10 -10 -10z" />
    <glyph glyph-name="G" unicode="G" horiz-adv-x="445" 
d="M102 37.5q-46 45.5 -46 121.5v382q0 76 46 121.5t123 45.5t123.5 -46t46.5 -122v-43q0 -10 -10 -10h-51q-10 0 -10 10v45q0 47 -27 75.5t-72 28.5q-44 0 -71.5 -29t-27.5 -75v-384q0 -46 27.5 -75t71.5 -29q45 0 72 28.5t27 75.5v128q0 4 -4 4h-86q-10 0 -10 10v42
q0 10 10 10h151q10 0 10 -10v-183q0 -76 -46.5 -121.5t-123.5 -45.5t-123 45.5z" />
    <glyph glyph-name="H" unicode="H" horiz-adv-x="472" 
d="M339 700h51q10 0 10 -10v-680q0 -10 -10 -10h-51q-10 0 -10 10v305q0 4 -4 4h-178q-4 0 -4 -4v-305q0 -10 -10 -10h-51q-10 0 -10 10v680q0 10 10 10h51q10 0 10 -10v-304q0 -4 4 -4h178q4 0 4 4v304q0 10 10 10z" />
    <glyph glyph-name="I" unicode="I" horiz-adv-x="215" 
d="M72 10v680q0 10 10 10h51q10 0 10 -10v-680q0 -10 -10 -10h-51q-10 0 -10 10z" />
    <glyph glyph-name="J" unicode="J" horiz-adv-x="426" 
d="M68 38.5q-46 46.5 -46 122.5v84q0 10 10 10h51q10 0 10 -10v-85q0 -47 26 -76.5t69 -29.5q42 0 68.5 29.5t26.5 76.5v530q0 10 10 10h51q10 0 10 -10v-529q0 -76 -46 -122.5t-120 -46.5t-120 46.5z" />
    <glyph glyph-name="K" unicode="K" horiz-adv-x="452" 
d="M72 10v680q0 10 10 10h51q10 0 10 -10v-324q0 -3 2 -4t3 2l193 329q5 7 12 7h56q6 0 8 -3.5t-1 -8.5l-156 -271q-2 -4 -1 -6l172 -399l1 -4q0 -8 -9 -8h-57q-8 0 -11 8l-144 340q-1 4 -5 0l-62 -96q-1 -1 -1 -5v-237q0 -10 -10 -10h-51q-10 0 -10 10z" />
    <glyph glyph-name="L" unicode="L" horiz-adv-x="396" 
d="M72 10v680q0 10 10 10h51q10 0 10 -10v-624q0 -4 4 -4h229q10 0 10 -10v-42q0 -10 -10 -10h-294q-10 0 -10 10z" />
    <glyph glyph-name="M" unicode="M" horiz-adv-x="519" 
d="M71 10v680q0 10 10 10h52q8 0 11 -8l112 -271q1 -2 3 -2t3 2l113 271q3 8 11 8h52q10 0 10 -10v-680q0 -10 -10 -10h-51q-10 0 -10 10v512q0 3 -2 3t-3 -2l-102 -232q-3 -8 -9 -8q-7 0 -10 8l-104 233q-1 2 -3 2t-2 -3v-513q0 -10 -10 -10h-51q-10 0 -10 10z" />
    <glyph glyph-name="N" unicode="N" horiz-adv-x="493" 
d="M72 10v680q0 10 10 10h53q8 0 11 -8l201 -504q1 -3 3 -3t2 3v502q0 10 10 10h50q10 0 10 -10v-680q0 -10 -10 -10h-53q-8 0 -11 8l-201 504q-1 3 -3 2.5t-2 -3.5l1 -501q0 -10 -10 -10h-51q-10 0 -10 10z" />
    <glyph glyph-name="O" unicode="O" horiz-adv-x="456" 
d="M102.5 40q-47.5 48 -47.5 127v366q0 79 47.5 127t124.5 48q78 0 126 -48t48 -127v-366q0 -78 -48 -126.5t-126 -48.5q-77 0 -124.5 48zM301.5 84.5q28.5 30.5 28.5 78.5v373q0 49 -28.5 79.5t-74.5 30.5q-45 0 -73 -30.5t-28 -79.5v-373q0 -48 28 -78.5t73 -30.5
q46 0 74.5 30.5z" />
    <glyph glyph-name="P" unicode="P" horiz-adv-x="442" 
d="M364 647.5q45 -53.5 45 -140.5q0 -86 -44 -138.5t-116 -52.5h-103q-4 0 -4 -4v-302q0 -10 -10 -10h-51q-10 0 -10 10v681q0 10 10 10h165q73 0 118 -53.5zM310 410q28 36 28 96t-28 96.5t-73 36.5h-91q-4 0 -4 -4v-257q0 -4 4 -4h91q45 0 73 36z" />
    <glyph glyph-name="Q" unicode="Q" horiz-adv-x="443" 
d="M342 659q46 -49 46 -129v-360q0 -69 -34.5 -115.5t-92.5 -58.5q-4 -1 -4 -5v-96q0 -10 -10 -10h-51q-10 0 -10 10v96q0 4 -4 5q-58 13 -92.5 59.5t-34.5 114.5v360q0 79 46.5 128.5t120.5 49.5t120 -49zM317 537q0 48 -26 78.5t-69 30.5t-69.5 -30.5t-26.5 -78.5v-374
q0 -48 26.5 -78.5t69.5 -30.5t69 30.5t26 78.5v374z" />
    <glyph glyph-name="R" unicode="R" horiz-adv-x="443" 
d="M340 8l-103 311q-1 3 -4 3h-86q-4 0 -4 -4v-308q0 -10 -10 -10h-51q-10 0 -10 10v681q0 10 10 10h165q73 0 118 -53t45 -139q0 -66 -28 -113t-76 -65q-4 -1 -3 -5l109 -315l1 -4q0 -7 -9 -7h-52q-9 0 -12 8zM143 635v-252q0 -4 4 -4h90q46 0 74 35.5t28 93.5
q0 60 -28 95.5t-74 35.5h-90q-4 0 -4 -4z" />
    <glyph glyph-name="S" unicode="S" horiz-adv-x="426" 
d="M97 41q-46 49 -46 128v24q0 10 10 10h50q10 0 10 -10v-21q0 -53 27 -85.5t69 -32.5t70 31t28 82q0 34 -13.5 58.5t-35 43t-71.5 56.5q-50 37 -79 63.5t-47.5 63.5t-18.5 87q0 78 45 123.5t117 45.5q76 0 121.5 -49.5t45.5 -131.5v-25q0 -10 -10 -10h-50q-10 0 -10 10v26
q0 53 -26.5 85.5t-70.5 32.5q-40 0 -66 -28.5t-26 -80.5q0 -31 11.5 -54.5t34.5 -44.5t68 -55q60 -44 89.5 -71.5t45.5 -60t16 -78.5q0 -82 -47 -131.5t-121 -49.5t-120 49z" />
    <glyph glyph-name="T" unicode="T" horiz-adv-x="423" 
d="M389 690v-42q0 -10 -10 -10h-132q-4 0 -4 -4v-624q0 -10 -10 -10h-51q-10 0 -10 10v624q0 4 -4 4h-124q-10 0 -10 10v42q0 10 10 10h335q10 0 10 -10z" />
    <glyph glyph-name="U" unicode="U" horiz-adv-x="476" 
d="M113 45q-47 53 -47 140v505q0 10 10 10h51q10 0 10 -10v-513q0 -55 27.5 -89t72.5 -34q46 0 74 34t28 89v513q0 10 10 10h51q10 0 10 -10v-505q0 -87 -47.5 -140t-125.5 -53q-77 0 -124 53z" />
    <glyph glyph-name="V" unicode="V" horiz-adv-x="439" 
d="M180 9l-145 680v2q0 9 9 9h56q10 0 11 -9l108 -559q1 -2 2 -2t2 2l107 559q2 9 11 9h54q11 0 9 -11l-145 -680q-1 -9 -11 -9h-57q-9 0 -11 9z" />
    <glyph glyph-name="W" unicode="W" horiz-adv-x="623" 
d="M161 9l-132 680v2q0 9 9 9h53q10 0 11 -9l94 -526q1 -2 2 -2t2 2l81 526q2 9 10 9h46q9 0 10 -9l85 -526q1 -2 2 -2t2 2l86 526q2 9 10 9h53q5 0 7.5 -3t1.5 -8l-124 -680q-1 -9 -11 -9h-49q-8 0 -10 9l-84 528q-1 2 -2.5 2t-1.5 -2l-82 -528q-1 -9 -10 -9h-48
q-9 0 -11 9z" />
    <glyph glyph-name="X" unicode="X" horiz-adv-x="434" 
d="M38.5 3.5q-2.5 3.5 -0.5 8.5l140 335q2 3 0 6l-140 335l-1 4q0 8 9 8h53q8 0 11 -8l104 -266q1 -3 3 -3t3 3l104 266q3 8 11 8h53q5 0 7.5 -3.5t0.5 -8.5l-141 -336q-1 -3 0 -6l141 -334l1 -4q0 -8 -9 -8h-53q-8 0 -11 8l-104 265q-1 3 -3 3t-3 -3l-104 -265
q-3 -8 -11 -8h-53q-5 0 -7.5 3.5z" />
    <glyph glyph-name="Y" unicode="Y" horiz-adv-x="424" 
d="M177 11v299q0 4 -1 5l-139 373l-1 4q0 8 9 8h54q9 0 12 -8l98 -293q1 -2 3 -2t3 2l98 293q3 8 12 8h54q5 0 7.5 -3.5t0.5 -8.5l-138 -373q-1 -1 -1 -5v-299q0 -10 -10 -10h-51q-10 0 -10 10z" />
    <glyph glyph-name="Z" unicode="Z" horiz-adv-x="395" 
d="M33 10v46q0 5 3 12l243 565q1 2 0 3.5t-3 1.5h-233q-10 0 -10 10v42q0 10 10 10h303q10 0 10 -10v-46q0 -4 -3 -12l-242 -565q-1 -2 0 -3.5t3 -1.5h232q10 0 10 -10v-42q0 -10 -10 -10h-303q-10 0 -10 10z" />
    <glyph glyph-name="bracketleft" unicode="[" horiz-adv-x="303" 
d="M26 -111v875q0 10 10 10h155q10 0 10 -10v-42q0 -10 -10 -10h-90q-4 0 -4 -4v-763q0 -4 4 -4h91q10 0 10 -10v-42q0 -10 -10 -10h-156q-10 0 -10 10z" />
    <glyph glyph-name="backslash" unicode="\" horiz-adv-x="301" 
d="M277 8q0 -8 -10 -8h-50q-9 0 -11 9l-181 680l-1 3q0 8 10 8h50q9 0 11 -9l181 -680z" />
    <glyph glyph-name="bracketright" unicode="]" horiz-adv-x="303" 
d="M267 -121h-156q-10 0 -10 10v42q0 10 10 10h91q4 0 4 4v763q0 4 -4 4h-90q-10 0 -10 10v42q0 10 10 10h155q10 0 10 -10v-875q0 -10 -10 -10z" />
    <glyph glyph-name="asciicircum" unicode="^" horiz-adv-x="396" 
d="M36 318l127 374q3 8 12 8h45q9 0 12 -8l128 -374l1 -4q0 -7 -9 -7h-41q-9 0 -12 8l-98 303q-1 2 -3 2t-3 -2l-98 -303q-3 -8 -12 -8h-41q-11 0 -8 11z" />
    <glyph glyph-name="underscore" unicode="_" horiz-adv-x="376" 
d="M22 10v37q0 10 10 10h312q10 0 10 -10v-37q0 -10 -10 -10h-312q-10 0 -10 10z" />
    <glyph glyph-name="grave" unicode="`" horiz-adv-x="186" 
d="M159 583q0 -6 -9 -6h-38q-7 0 -12 7l-70 109q-2 4 -2 6q0 6 8 6h47q7 0 12 -7l62 -109q2 -4 2 -6z" />
    <glyph glyph-name="a" unicode="a" horiz-adv-x="411" 
d="M319.5 468.5q41.5 -45.5 41.5 -121.5v-337q0 -10 -10 -10h-51q-10 0 -10 10v29q0 2 -1.5 2.5t-3.5 -1.5q-37 -48 -110 -48q-55 0 -95.5 31.5t-40.5 111.5q0 85 49 124.5t129 39.5h69q4 0 4 4v39q0 50 -22.5 80t-61.5 30q-30 0 -52 -20t-25 -51q-1 -10 -11 -10l-55 1
q-5 0 -7.5 3t-1.5 7q5 59 48 95.5t106 36.5q70 0 111.5 -45.5zM260.5 80.5q29.5 26.5 29.5 73.5v84q0 4 -4 4h-70q-48 0 -76 -25.5t-28 -75.5q0 -44 21.5 -65.5t56.5 -21.5q41 0 70.5 26.5z" />
    <glyph glyph-name="b" unicode="b" horiz-adv-x="423" 
d="M372 256q0 -74 -1 -111q-3 -68 -39.5 -110.5t-95.5 -42.5q-31 0 -56.5 12.5t-42.5 36.5q-2 2 -3.5 1t-1.5 -3v-29q0 -10 -10 -10h-51q-10 0 -10 10v680q0 10 10 10h51q10 0 10 -10v-222q0 -2 1.5 -3t3.5 1q34 48 99 48q60 0 96.5 -41.5t38.5 -108.5q1 -37 1 -108zM278 82
q24 28 23 72v99v64v35q1 45 -23 72.5t-63 27.5q-36 0 -59.5 -27.5t-23.5 -72.5v-198q0 -45 23.5 -72.5t59.5 -27.5q39 0 63 28z" />
    <glyph glyph-name="c" unicode="c" horiz-adv-x="402" 
d="M92.5 34q-42.5 42 -42.5 111v216q0 68 43 110.5t113 42.5q47 0 83 -19t55.5 -50.5t19.5 -69.5v-10q0 -10 -10 -10l-51 -2q-4 0 -7 2.5t-3 6.5v8q0 33 -24.5 57.5t-62.5 24.5t-61.5 -26.5t-23.5 -69.5v-206q0 -43 23.5 -69.5t61.5 -26.5t62.5 24.5t24.5 57.5v7q0 10 10 10
l51 -1q10 0 10 -10v-11q0 -60 -43.5 -99.5t-114.5 -39.5t-113.5 42z" />
    <glyph glyph-name="d" unicode="d" horiz-adv-x="423" 
d="M301 700h51q10 0 10 -10v-680q0 -10 -10 -10h-51q-10 0 -10 10v29q0 2 -1.5 3t-3.5 -1q-17 -24 -42.5 -36.5t-56.5 -12.5q-59 0 -95.5 42.5t-39.5 110.5q-1 37 -1 111q0 71 1 108q2 67 38.5 108.5t96.5 41.5q65 0 99 -48q2 -2 3.5 -1t1.5 3v222q0 10 10 10zM267.5 81.5
q23.5 27.5 23.5 72.5v198q0 45 -23.5 72.5t-59.5 27.5q-39 0 -63 -27.5t-23 -72.5v-35v-64v-99q-1 -44 23 -72t63 -28q36 0 59.5 27.5z" />
    <glyph glyph-name="e" unicode="e" horiz-adv-x="407" 
d="M353 226h-228q-4 0 -4 -4v-73q0 -42 23.5 -68.5t61.5 -26.5q32 0 54.5 19.5t29.5 50.5q3 9 11 9l50 -2q4 0 7 -3t2 -8q-8 -59 -48.5 -93.5t-105.5 -34.5q-71 0 -113.5 42t-42.5 111v216q0 68 42.5 110.5t113.5 42.5q72 0 114.5 -42.5t42.5 -110.5v-125q0 -10 -10 -10z
M144.5 425.5q-23.5 -26.5 -23.5 -69.5v-67q0 -4 4 -4h164q4 0 4 4v67q0 43 -24 69.5t-63 26.5q-38 0 -61.5 -26.5z" />
    <glyph glyph-name="f" unicode="f" horiz-adv-x="276" 
d="M168 620.5q-16 -25.5 -16 -79.5v-31q0 -4 4 -4h77q10 0 10 -10v-33q0 -10 -10 -10h-77q-4 0 -4 -4v-439q0 -10 -10 -10h-50q-10 0 -10 10v439q0 4 -4 4h-40q-10 0 -10 10v33q0 10 10 10h40q4 0 4 4v32q0 87 32 126t107 39h14q10 0 10 -10l-1 -41q0 -10 -10 -10h-12
q-38 0 -54 -25.5z" />
    <glyph glyph-name="g" unicode="g" horiz-adv-x="413" 
d="M301 506h51q10 0 10 -10v-486q0 -107 -49.5 -162.5t-165.5 -50.5q-10 1 -10 11v43q0 10 10 10q80 -2 112 36.5t32 118.5v30q0 2 -1.5 3t-3.5 -1q-17 -25 -43.5 -38t-56.5 -13q-63 0 -99.5 42t-36.5 111v211q0 70 36.5 111.5t99.5 41.5q30 0 56.5 -12.5t43.5 -37.5
q2 -3 3.5 -2.5t1.5 3.5v31q0 10 10 10zM267.5 85.5q23.5 26.5 23.5 68.5v202q0 43 -23.5 69.5t-60.5 26.5q-38 0 -62 -26.5t-24 -69.5v-202q0 -42 24 -68.5t62 -26.5q37 0 60.5 26.5z" />
    <glyph glyph-name="h" unicode="h" horiz-adv-x="424" 
d="M335.5 471q33.5 -42 33.5 -117v-344q0 -10 -10 -10h-51q-10 0 -10 10v338q0 49 -21 76t-59 27q-40 0 -63 -29t-23 -79v-333q0 -10 -10 -10h-51q-10 0 -10 10v680q0 10 10 10h51q10 0 10 -10v-227q0 -2 2 -2.5t3 1.5q37 51 104 51q61 0 94.5 -42z" />
    <glyph glyph-name="i" unicode="i" horiz-adv-x="202" 
d="M66 611q-14 15 -14 38q0 22 14 36.5t36 14.5q21 0 34.5 -14.5t13.5 -36.5q0 -23 -13.5 -38t-34.5 -15q-22 0 -36 15zM66 10v486q0 10 10 10h51q10 0 10 -10v-486q0 -10 -10 -10h-51q-10 0 -10 10z" />
    <glyph glyph-name="j" unicode="j" horiz-adv-x="193" 
d="M60.5 611.5q-13.5 14.5 -13.5 37.5t14.5 37.5t34.5 14.5q21 0 35.5 -14.5t14.5 -37.5t-14 -37.5t-36 -14.5t-35.5 14.5zM-30 -198v42q0 10 10 10q81 3 81 102v540q0 10 10 10h51q10 0 10 -10v-540q0 -82 -32 -123t-120 -41q-10 0 -10 10z" />
    <glyph glyph-name="k" unicode="k" horiz-adv-x="405" 
d="M61 10v680q0 10 10 10h51q10 0 10 -10v-402q0 -2 2 -3t3 1l150 214q4 6 12 6h52q6 0 8 -3.5t-2 -8.5l-99 -142q-3 -3 -1 -6l118 -335l1 -4q0 -7 -9 -7h-53q-9 0 -12 8l-89 278q-1 6 -6 1l-73 -104q-2 -2 -2 -5v-168q0 -10 -10 -10h-51q-10 0 -10 10z" />
    <glyph glyph-name="l" unicode="l" horiz-adv-x="181" 
d="M55 10v680q0 10 10 10h51q10 0 10 -10v-680q0 -10 -10 -10h-51q-10 0 -10 10z" />
    <glyph glyph-name="m" unicode="m" horiz-adv-x="647" 
d="M559 469q33 -44 33 -122v-337q0 -10 -10 -10h-50q-10 0 -10 10v331q0 51 -21.5 80.5t-56.5 29.5q-38 0 -60 -29t-22 -79v-333q0 -10 -10 -10h-51q-10 0 -10 10v331q0 51 -21.5 80.5t-55.5 29.5q-38 0 -60.5 -29t-22.5 -79v-333q0 -10 -10 -10h-50q-10 0 -10 10v486
q0 10 10 10h50q10 0 10 -10v-31q0 -2 1.5 -2.5t3.5 1.5q19 25 45 37t55 12q38 0 66 -18.5t43 -52.5q1 -2 3 -2t3 3q18 36 49 53t66 17q60 0 93 -44z" />
    <glyph glyph-name="n" unicode="n" horiz-adv-x="424" 
d="M335.5 471q33.5 -42 33.5 -117v-344q0 -10 -10 -10h-51q-10 0 -10 10v338q0 49 -21 76t-59 27q-40 0 -63 -29t-23 -79v-333q0 -10 -10 -10h-51q-10 0 -10 10v486q0 10 10 10h51q10 0 10 -10v-33q0 -2 2 -2.5t3 1.5q37 51 104 51q61 0 94.5 -42z" />
    <glyph glyph-name="o" unicode="o" horiz-adv-x="414" 
d="M92.5 34q-42.5 42 -42.5 111v216q0 68 43 110.5t114 42.5t114.5 -42.5t43.5 -110.5v-216q0 -69 -43 -111t-115 -42t-114.5 42zM269.5 80.5q24.5 26.5 24.5 68.5v207q0 43 -24.5 69.5t-62.5 26.5t-62 -26.5t-24 -69.5v-207q0 -42 24 -68.5t62 -26.5t62.5 26.5z" />
    <glyph glyph-name="p" unicode="p" horiz-adv-x="428" 
d="M378 250q0 -71 -1 -108q-2 -67 -38.5 -108.5t-96.5 -41.5q-64 0 -99 48q-2 2 -3.5 1t-1.5 -3v-222q0 -10 -10 -10h-51q-10 0 -10 10v680q0 10 10 10h51q10 0 10 -10v-29q0 -2 1.5 -3t3.5 1q17 24 42.5 36.5t56.5 12.5q59 0 95.5 -42.5t39.5 -110.5q1 -37 1 -111z
M284 81.5q24 27.5 23 72.5v35v64v99q1 44 -23 72t-63 28q-36 0 -59.5 -27.5t-23.5 -72.5v-198q0 -45 23.5 -72.5t59.5 -27.5q39 0 63 27.5z" />
    <glyph glyph-name="q" unicode="q" horiz-adv-x="428" 
d="M301 506h51q10 0 10 -10v-680q0 -10 -10 -10h-51q-10 0 -10 10v222q0 2 -1.5 3t-3.5 -1q-34 -48 -99 -48q-60 0 -96.5 41.5t-38.5 108.5q-1 37 -1 108q0 74 1 111q3 68 39.5 110.5t95.5 42.5q31 0 56.5 -12.5t42.5 -36.5q2 -2 3.5 -1t1.5 3v29q0 10 10 10zM267.5 81.5
q23.5 27.5 23.5 72.5v198q0 45 -23.5 72.5t-59.5 27.5q-39 0 -63 -28t-23 -72v-99v-64v-35q-1 -45 23 -72.5t63 -27.5q36 0 59.5 27.5z" />
    <glyph glyph-name="r" unicode="r" horiz-adv-x="293" 
d="M275 500q7 -4 5 -13l-11 -51q-1 -9 -13 -6q-12 5 -27 5q-10 0 -15 -1q-36 -2 -59 -37.5t-23 -86.5v-300q0 -10 -10 -10h-51q-10 0 -10 10v486q0 10 10 10h51q10 0 10 -10v-60q0 -3 1.5 -3t3.5 2q29 76 95 76q25 0 43 -11z" />
    <glyph glyph-name="s" unicode="s" horiz-adv-x="374" 
d="M82.5 30.5q-41.5 35.5 -41.5 94.5v7q0 10 10 10h48q10 0 10 -8v-8q0 -32 23.5 -54t61.5 -22q36 0 58 22t22 56q0 26 -14 43.5t-32.5 27.5t-55.5 26q-39 16 -64.5 31.5t-44 44t-18.5 72.5q0 64 39.5 101t106.5 37q68 0 108 -38t40 -101v-3q0 -10 -10 -10h-46q-10 0 -10 8
v8q0 34 -22.5 56t-58.5 22t-57.5 -22.5t-21.5 -55.5q0 -24 13 -40.5t32 -27t53 -25.5q41 -18 67.5 -34t46.5 -45t20 -72q0 -62 -41 -99t-111 -37q-69 0 -110.5 35.5z" />
    <glyph glyph-name="t" unicode="t" horiz-adv-x="267" 
d="M229 453h-76q-4 0 -4 -4v-306q0 -46 16 -63.5t49 -16.5h10q10 0 10 -10v-43q0 -10 -10 -10h-25q-59 0 -89.5 25.5t-30.5 96.5v327q0 4 -4 4h-39q-10 0 -10 10v33q0 10 10 10h39q4 0 4 4v112q0 10 10 10h50q10 0 10 -10v-112q0 -4 4 -4h76q10 0 10 -10v-33q0 -10 -10 -10z
" />
    <glyph glyph-name="u" unicode="u" horiz-adv-x="424" 
d="M302 506h51q10 0 10 -10v-486q0 -10 -10 -10h-51q-10 0 -10 10v34q0 3 -1.5 3t-3.5 -2q-31 -52 -100 -52q-60 0 -95.5 36.5t-35.5 110.5v356q0 10 10 10h51q10 0 10 -10v-340q0 -50 20.5 -75.5t59.5 -25.5q40 0 62.5 29t22.5 79v333q0 10 10 10z" />
    <glyph glyph-name="v" unicode="v" horiz-adv-x="379" 
d="M149 9l-124 486l-1 4q0 7 9 7h58q10 0 11 -9l86 -387q1 -3 2 -3t2 3l85 387q2 9 11 9l58 -1q5 0 7.5 -3t0.5 -8l-123 -485q-1 -9 -11 -9h-60q-9 0 -11 9z" />
    <glyph glyph-name="w" unicode="w" horiz-adv-x="554" 
d="M130 9l-106 486v2q0 9 9 9h49q10 0 11 -9l73 -389q1 -2 2 -2t2 2l73 389q2 9 11 9h45q10 0 11 -9l74 -390q1 -2 2 -2t2 2l74 390q2 9 11 9l48 -1q11 0 9 -11l-106 -485q-1 -9 -11 -9h-51q-9 0 -11 9l-74 366q-1 3 -2 3t-2 -3l-72 -366q-1 -9 -11 -9h-49q-9 0 -11 9z" />
    <glyph glyph-name="x" unicode="x" horiz-adv-x="376" 
d="M23 3.5q-2 3.5 0 8.5l122 238q2 3 0 6l-122 238q-1 2 -1 5q0 7 8 7h56q9 0 12 -7l87 -178q1 -2 3 -2t3 2l87 178q3 7 12 7h56q5 0 7 -3.5t0 -8.5l-122 -238q-1 -3 0 -6l122 -238q1 -2 1 -5q0 -7 -8 -7h-56q-9 0 -12 7l-87 179q-1 2 -3 2t-3 -2l-87 -179q-3 -7 -12 -7h-56
q-5 0 -7 3.5z" />
    <glyph glyph-name="y" unicode="y" horiz-adv-x="367" 
d="M40 -197q-2 3 -2 7v41q0 10 5 10h5q31 0 48.5 11t28.5 39t22 86q1 2 0.5 3.5t-0.5 2.5l-127 492l-1 3q0 8 10 8h54q10 0 11 -9l88 -393q1 -3 2 -3t2 3l87 393q2 9 11 9l56 -1q5 0 7.5 -3t0.5 -8l-139 -538q-18 -67 -35.5 -99t-45.5 -44.5t-79 -12.5h-5q-2 0 -4 3z" />
    <glyph glyph-name="z" unicode="z" horiz-adv-x="361" 
d="M33 10v48q0 7 3 13l205 365q1 2 0.5 3.5t-2.5 1.5h-192q-10 0 -10 10v45q0 10 10 10h270q10 0 10 -10v-48q0 -7 -3 -13l-207 -365q-1 -2 0 -3.5t3 -1.5h199q10 0 10 -10v-45q0 -10 -10 -10h-276q-10 0 -10 10z" />
    <glyph glyph-name="braceleft" unicode="{" horiz-adv-x="273" 
d="M110.5 -93q-24.5 28 -24.5 86v217q0 41 -12.5 63t-38.5 27q-9 2 -9 10v40q0 9 9 10q26 5 38.5 26.5t12.5 62.5v212q0 58 24.5 85.5t75.5 27.5h51q10 0 10 -10v-42q0 -10 -10 -10h-26q-54 0 -54 -74v-194q0 -45 -12 -72t-36 -40q-2 -1 -2 -2t2 -2q24 -14 36 -41t12 -72
v-199q0 -75 54 -75h26q10 0 10 -10v-42q0 -10 -10 -10h-51q-51 0 -75.5 28z" />
    <glyph glyph-name="bar" unicode="|" horiz-adv-x="144" 
d="M36 -70v820q0 10 10 10h51q10 0 10 -10v-820q0 -10 -10 -10h-51q-10 0 -10 10z" />
    <glyph glyph-name="braceright" unicode="}" horiz-adv-x="273" 
d="M36 -121q-10 0 -10 10v42q0 10 10 10h26q54 0 54 75v199q0 45 12 72t36 41q2 1 2 2t-2 2q-24 13 -36 40t-12 72v194q0 74 -54 74h-26q-10 0 -10 10v42q0 10 10 10h51q51 0 75.5 -27.5t24.5 -85.5v-212q0 -41 12.5 -62.5t38.5 -26.5q9 -1 9 -10v-40q0 -8 -9 -10
q-26 -5 -38.5 -27t-12.5 -63v-217q0 -58 -24.5 -86t-75.5 -28h-51z" />
    <glyph glyph-name="asciitilde" unicode="~" horiz-adv-x="461" 
d="M272 240.5q-20 8.5 -49 25.5q-23 13 -37.5 19.5t-32.5 6.5q-46 0 -72 -41q-5 -10 -14 -4l-27 16q-8 5 -5 14q16 35 45.5 56.5t66.5 21.5q24 0 42.5 -7t38.5 -20q27 -17 46 -25t43 -8q20 0 33.5 10t27.5 30q6 8 14 3l29 -19q8 -5 3 -13q-44 -74 -104 -74q-28 0 -48 8.5z
" />
    <glyph glyph-name="uni00A0" unicode="&#xa0;" horiz-adv-x="200" 
 />
    <glyph glyph-name="exclamdown" unicode="&#xa1;" horiz-adv-x="255" 
d="M165 691q16 -17 16 -42q0 -24 -17 -41.5t-38 -17.5t-38 17.5t-17 41.5q0 25 15.5 42t39.5 17q23 0 39 -17zM108 484h39q10 0 10 -10l6 -452q0 -10 -10 -10h-51q-10 0 -10 10l6 452q0 10 10 10z" />
    <glyph glyph-name="cent" unicode="&#xa2;" horiz-adv-x="402" 
d="M354 445l-51 -2q-4 0 -7 2.5t-3 6.5v8q0 33 -24.5 57.5t-62.5 24.5t-61.5 -26.5t-23.5 -69.5v-206q0 -43 23.5 -69.5t61.5 -26.5t62.5 24.5t24.5 57.5v7q0 10 10 10l51 -1q10 0 10 -10v-11q0 -52 -34 -89.5t-91 -46.5q-4 -1 -4 -5l2 -69q0 -10 -10 -10h-42q-10 0 -10 10
l2 69q0 4 -4 5q-57 9 -90 49t-33 101v216q0 59 33 99.5t90 50.5q4 1 4 5l-2 69q0 10 10 10h42q10 0 10 -10l-2 -69q0 -4 4 -5q57 -10 91 -48t34 -88v-10q0 -10 -10 -10z" />
    <glyph glyph-name="sterling" unicode="&#xa3;" horiz-adv-x="503" 
d="M183 62h277q10 0 10 -10v-42q0 -10 -10 -10h-351q-10 0 -10 10v44q0 8 6 12q18 16 28.5 47.5t10.5 73.5v117q0 4 -4 4h-58q-10 0 -10 10v39q0 10 10 10h58q4 0 4 4v141q0 92 44.5 144t121.5 52q58 0 96 -35t54 -101v-2q0 -8 -8 -10l-48 -7h-2q-8 0 -10 9
q-11 43 -31.5 63.5t-53.5 20.5q-45 0 -69.5 -34t-24.5 -97v-144q0 -4 4 -4h144q10 0 10 -10v-39q0 -10 -10 -10h-144q-4 0 -4 -4v-115q0 -40 -8.5 -71.5t-23.5 -50.5q-3 -5 2 -5z" />
    <glyph glyph-name="currency" unicode="&#xa4;" horiz-adv-x="511" 
d="M415 188q-2 -3 1 -6l65 -64q3 -3 3 -6q0 -4 -4 -8l-32 -28q-3 -3 -6 -3q-4 0 -8 4l-63 61q-3 3 -6 1q-51 -35 -113 -35q-61 0 -110 33q-3 2 -6 -1l-59 -59q-3 -3 -7 -3.5t-7 2.5l-32 28q-7 8 -1 14l61 60q3 3 1 6q-40 53 -40 117q0 63 37 114q2 3 -1 6l-64 64q-3 3 -3 6
q0 4 4 8l31 28q3 3 6 3q4 0 8 -4l62 -62q3 -3 6 -1q50 36 114 36q67 0 118 -39q3 -2 6 1l65 65q8 8 14 1l31 -28q8 -7 1 -14l-69 -68q-3 -3 -1 -6q34 -48 34 -110q0 -63 -36 -113zM133.5 233q18.5 -31 50 -49.5t68.5 -18.5t68 18t49.5 49.5t18.5 68.5t-18.5 68.5t-50 50
t-67.5 18.5q-37 0 -68.5 -18.5t-50 -50t-18.5 -68.5t18.5 -68z" />
    <glyph glyph-name="yen" unicode="&#xa5;" horiz-adv-x="523" 
d="M434 297h-136q-4 0 -4 -4v-68q0 -4 4 -4h136q10 0 10 -10v-23q0 -10 -10 -10h-136q-4 0 -4 -4v-163q0 -10 -10 -10h-51q-10 0 -10 10v163q0 4 -4 4h-131q-10 0 -10 10v23q0 10 10 10h131q4 0 4 4v68q0 4 -4 4h-131q-10 0 -10 10v23q0 10 10 10h120q2 0 3 1.5t0 3.5
l-128 343l-1 4q0 8 9 8h54q9 0 12 -8l98 -293q1 -2 3 -2t3 2l98 293q3 8 12 8h54q5 0 7.5 -3.5t0.5 -8.5l-127 -343q-1 -2 0 -3.5t3 -1.5h125q10 0 10 -10v-23q0 -10 -10 -10z" />
    <glyph glyph-name="brokenbar" unicode="&#xa6;" horiz-adv-x="144" 
d="M36 395v355q0 10 10 10h51q10 0 10 -10v-355q0 -10 -10 -10h-51q-10 0 -10 10zM36 -70v348q0 10 10 10h51q10 0 10 -10v-348q0 -10 -10 -10h-51q-10 0 -10 10z" />
    <glyph glyph-name="section" unicode="&#xa7;" horiz-adv-x="397" 
d="M97 -163q-40 43 -40 114v14q0 10 10 10h51q10 0 10 -10v-10q0 -44 21 -71.5t54 -27.5t54.5 28t21.5 69q0 34 -16.5 57t-38 36t-54.5 28q-41 19 -65 37.5t-38 51.5q-16 37 -16 83q0 50 25 93q22 43 61 57q6 2 1 5q-38 22 -61 61t-23 90q0 68 41 112t106 44q66 0 106 -44
t41 -116v-12q0 -10 -10 -10h-52q-10 0 -10 10v9q0 45 -20.5 73t-54.5 28t-55 -28.5t-21 -71.5q0 -46 25 -73t77 -49q40 -19 62.5 -33t39.5 -40q27 -39 27 -97q0 -53 -20 -93q-24 -48 -67 -62q-4 -1 -1 -5q82 -47 82 -144q0 -68 -41 -112t-107 -44q-65 0 -105 43zM272 185
q14 32 14 66q0 41 -21 72q-11 16 -27.5 25t-36.5 9q-23 0 -40.5 -14t-25.5 -33q-12 -28 -12 -62q0 -35 13 -64q20 -44 68 -44t68 45z" />
    <glyph glyph-name="dieresis" unicode="&#xa8;" horiz-adv-x="263" 
d="M34.5 607q-12.5 13 -12.5 34q0 20 13 33t32 13t30.5 -13t11.5 -33q0 -21 -11.5 -34t-30.5 -13q-20 0 -32.5 13zM165.5 607q-12.5 13 -12.5 34q0 20 13 33t32 13t31 -13t12 -33q0 -21 -12 -34t-31 -13q-20 0 -32.5 13z" />
    <glyph glyph-name="copyright" unicode="&#xa9;" horiz-adv-x="835" 
d="M233 39.5q-83 47.5 -130.5 129.5t-47.5 181t47.5 181t130.5 129.5t184 47.5q102 0 184.5 -47.5t130 -129.5t47.5 -181t-47.5 -181t-130 -129.5t-184.5 -47.5q-101 0 -184 47.5zM577.5 77.5q72.5 41.5 114 113.5t41.5 159t-41.5 159t-114 113.5t-160.5 41.5t-160.5 -41.5
t-114 -113.5t-41.5 -159t41.5 -159t114 -113.5t160.5 -41.5t160.5 41.5zM355.5 203q-23.5 22 -23.5 59v171q0 37 23.5 58.5t62.5 21.5t63 -21.5t24 -58.5v-6q0 -10 -10 -10l-23 -1q-10 0 -10 10v10q0 17 -12.5 28t-31.5 11t-31.5 -11t-12.5 -28v-177q0 -18 12 -28.5
t32 -10.5t32 10.5t12 28.5v10q0 10 10 10l23 -1q10 0 10 -8v-8q0 -37 -24 -59t-63 -22t-62.5 22z" />
    <glyph glyph-name="ordfeminine" unicode="&#xaa;" horiz-adv-x="274" 
d="M182 563q4 0 4 4v28q0 31 -14 50t-40 19q-19 0 -33.5 -11.5t-18.5 -29.5q-2 -11 -11 -9l-31 2q-11 2 -9 11q4 36 33 58.5t70 22.5q49 0 77 -29.5t28 -79.5v-220q0 -10 -10 -10h-31q-10 0 -10 10v12q0 2 -1.5 3t-3.5 -1q-23 -29 -67 -29q-37 0 -65 21t-28 75
q0 103 116 103h45zM167.5 422q18.5 16 18.5 46v49q0 4 -4 4h-44q-30 0 -48 -15.5t-18 -46.5q0 -27 14 -40t37 -13q26 0 44.5 16zM29 317h210q10 0 10 -10v-27q0 -10 -10 -10h-210q-10 0 -10 10v27q0 10 10 10z" />
    <glyph glyph-name="guillemotleft" unicode="&#xab;" horiz-adv-x="472" 
d="M245 114q0 -7 -9 -7h-45q-8 0 -12 6l-106 161q-2 3 -2 7t2 7l106 161q5 6 12 6h45q6 0 8 -3.5t-1 -8.5l-105 -159q-1 -3 0 -6l105 -159zM394 114q0 -7 -9 -7h-45q-8 0 -12 6l-106 161q-2 3 -2 7t2 7l106 161q5 6 12 6h45q6 0 8 -3.5t-1 -8.5l-105 -159q-1 -3 0 -6
l105 -159z" />
    <glyph glyph-name="logicalnot" unicode="&#xac;" horiz-adv-x="442" 
d="M410 334v-35q0 -4 -0.5 -6.5t-0.5 -3.5h-1v-102q0 -10 -10 -10h-37q-10 0 -10 10v98q0 4 -4 4h-305q-10 0 -10 10v35q0 10 10 10h358q10 0 10 -10z" />
    <glyph glyph-name="uni00AD" unicode="&#xad;" horiz-adv-x="313" 
d="M32 290v42q0 10 10 10h229q10 0 10 -10v-42q0 -10 -10 -10h-229q-10 0 -10 10z" />
    <glyph glyph-name="registered" unicode="&#xae;" horiz-adv-x="438" 
d="M318 688q45 -26 71.5 -70.5t26.5 -97.5q0 -54 -26 -99t-71.5 -71t-99.5 -26t-99.5 26t-71.5 71t-26 99q0 53 26.5 97.5t71.5 70.5t99 26t99 -26zM300 380.5q37 21.5 58.5 58.5t21.5 81q0 43 -21.5 79.5t-58.5 58t-81 21.5t-81 -21.5t-58.5 -58t-21.5 -79.5
q0 -44 21.5 -81t58.5 -58.5t81 -21.5t81 21.5zM275 527q-7 -12 -19 -17q-4 -3 -3 -6l26 -63l1 -4q0 -8 -9 -8h-13q-8 0 -11 8l-25 64q-1 3 -4 3h-16q-4 0 -4 -4v-61q0 -10 -10 -10h-11q-10 0 -10 10v159q0 10 10 10h53q23 0 37.5 -15t14.5 -38q0 -16 -7 -28zM198 577v-45
q0 -4 4 -4h24q11 0 18 7.5t7 18.5q0 13 -7 20t-18 7h-24q-4 0 -4 -4z" />
    <glyph glyph-name="macron" unicode="&#xaf;" horiz-adv-x="491" 
d="M143 605v32q0 10 10 10h183q10 0 10 -10v-32q0 -10 -10 -10h-183q-10 0 -10 10z" />
    <glyph glyph-name="degree" unicode="&#xb0;" horiz-adv-x="358" 
d="M100 511q-36 21 -57 57.5t-21 80.5t21 80.5t57 57.5t79 21t79 -21t57 -57.5t21 -80.5t-21 -80.5t-57 -57.5t-79 -21t-79 21zM254 571.5q31 31.5 31 77.5t-31 77.5t-75 31.5t-75 -31.5t-31 -77.5t31 -77.5t75 -31.5t75 31.5z" />
    <glyph glyph-name="plusminus" unicode="&#xb1;" horiz-adv-x="442" 
d="M410 368v-35q0 -10 -10 -10h-147q-4 0 -4 -4v-147q0 -10 -10 -10h-36q-10 0 -10 10v147q0 4 -4 4h-147q-10 0 -10 10v35q0 10 10 10h147q4 0 4 4v147q0 10 10 10h36q10 0 10 -10v-147q0 -4 4 -4h147q10 0 10 -10zM32 38v35q0 10 10 10h358q10 0 10 -10v-35q0 -10 -10 -10
h-358q-10 0 -10 10z" />
    <glyph glyph-name="uni00B2" unicode="&#xb2;" horiz-adv-x="245" 
d="M22 452v27q0 8 4 13l38 58q46 70 67 105q36 60 36 104q0 30 -13 46.5t-35 16.5q-21 0 -34 -16.5t-13 -44.5v-19q0 -10 -10 -10h-31q-10 0 -10 10v21q1 48 28 76t71 28t71 -28.5t27 -81.5q0 -55 -36 -120q-25 -46 -66 -110l-23 -36q-1 -2 0 -3.5t3 -1.5h123q10 0 10 -10
v-24q0 -10 -10 -10h-187q-10 0 -10 10z" />
    <glyph glyph-name="uni00B3" unicode="&#xb3;" horiz-adv-x="263" 
d="M227 570q0 -35 -8 -62q-8 -33 -32 -52t-61 -19q-41 0 -67.5 25t-31.5 65q-2 22 -2 33q0 10 10 10h30q10 0 10 -10q0 -9 2 -23q3 -26 15.5 -40.5t33.5 -14.5q34 0 46 37q7 24 7 56q0 31 -5 50q-11 46 -48 46q-7 0 -11 -3q-2 -1 -7 -1q-4 0 -7 3l-15 15q-5 7 -1 14l79 114
q1 1 0 3t-3 2h-123q-10 0 -10 10v24q0 10 10 10h176q10 0 10 -10v-27q0 -8 -4 -13l-69 -103q-1 -1 -0.5 -2.5t2.5 -1.5q26 -4 44 -26t24 -54q6 -24 6 -55z" />
    <glyph glyph-name="acute" unicode="&#xb4;" horiz-adv-x="186" 
d="M28 580.5q-2 3.5 1 8.5l62 109q5 7 12 7h47q6 0 7.5 -3.5t-1.5 -8.5l-70 -109q-5 -7 -12 -7h-38q-6 0 -8 3.5z" />
    <glyph glyph-name="uni00B5" unicode="&#xb5;" horiz-adv-x="429" 
d="M308 506h51q10 0 10 -10v-486q0 -10 -10 -10h-51q-10 0 -10 10v34q0 3 -1.5 3t-3.5 -2q-31 -52 -100 -52q-32 0 -56 10q-5 2 -5 -3v-190q0 -10 -10 -10h-51q-10 0 -10 10v686q0 10 10 10h52q10 0 10 -10v-340q0 -50 20.5 -75.5t59.5 -25.5q40 0 62.5 29t22.5 79v333
q0 10 10 10z" />
    <glyph glyph-name="paragraph" unicode="&#xb6;" horiz-adv-x="470" 
d="M388 700q10 0 10 -10v-880q0 -10 -10 -10h-40q-10 0 -10 10v827q0 4 -4 4h-79q-4 0 -4 -4v-827q0 -10 -10 -10h-41q-10 0 -10 10v437q0 4 -4 4q-69 8 -111 70.5t-42 153.5q0 63 21.5 114.5t60.5 81t90 29.5h183z" />
    <glyph glyph-name="periodcentered" unicode="&#xb7;" horiz-adv-x="110" 
d="M15.5 20q-15.5 17 -15.5 42q0 24 16.5 41.5t37.5 17.5q22 0 38.5 -17.5t16.5 -41.5q0 -25 -16 -42t-39 -17t-38.5 17z" />
    <glyph glyph-name="cedilla" unicode="&#xb8;" horiz-adv-x="121" 
d="M5 -170l3 21q1 5 4.5 6.5t7.5 0.5t11 -1q18 0 29.5 11t11.5 35q0 42 -41 85q-4 3 -4 7q0 5 8 5h27q7 0 10 -3l4 -4q23 -21 34 -46t11 -50q0 -44 -23.5 -63t-56.5 -19q-16 0 -29 3q-8 3 -7 12z" />
    <glyph glyph-name="uni00B9" unicode="&#xb9;" horiz-adv-x="145" 
d="M71 862h34q10 0 10 -10v-400q0 -10 -10 -10h-31q-10 0 -10 10v357q0 2 -1.5 3.5t-3.5 0.5l-21 -7l-4 -1q-7 0 -7 9v18q0 7 7 12l24 15q4 3 13 3z" />
    <glyph glyph-name="ordmasculine" unicode="&#xba;" horiz-adv-x="280" 
d="M62.5 391q-28.5 28 -28.5 75v140q0 46 28.5 74t76.5 28q49 0 78 -28t29 -74v-140q0 -47 -29 -75t-78 -28q-48 0 -76.5 28zM179.5 424q15.5 17 15.5 44v134q0 27 -15.5 44.5t-40.5 17.5q-24 0 -39.5 -17.5t-15.5 -44.5v-134q0 -27 15.5 -44t39.5 -17q25 0 40.5 17zM25 280
v27q0 10 10 10h210q10 0 10 -10v-27q0 -10 -10 -10h-210q-10 0 -10 10z" />
    <glyph glyph-name="guillemotright" unicode="&#xbb;" horiz-adv-x="472" 
d="M79 110.5q-2 3.5 1 8.5l105 159q2 3 0 6l-105 159l-2 5q0 7 9 7h45q8 0 12 -6l106 -161q2 -3 2 -7t-2 -7l-106 -161q-4 -6 -12 -6h-45q-6 0 -8 3.5zM228 110.5q-2 3.5 1 8.5l105 159q2 3 0 6l-105 159l-2 5q0 7 9 7h45q8 0 12 -6l106 -161q2 -3 2 -7t-2 -7l-106 -161
q-4 -6 -12 -6h-45q-6 0 -8 3.5z" />
    <glyph glyph-name="onequarter" unicode="&#xbc;" horiz-adv-x="663" 
d="M71 700h34q10 0 10 -10v-400q0 -10 -10 -10h-31q-10 0 -10 10v357q0 2 -1.5 3.5t-3.5 0.5l-21 -7l-4 -1q-7 0 -7 9v18q0 7 7 12l24 15q4 3 13 3zM67.5 3.5q-1.5 3.5 1.5 8.5l431 681q5 7 12 7h33q6 0 7.5 -3.5t-1.5 -8.5l-431 -681q-5 -7 -12 -7h-33q-6 0 -7.5 3.5z
M650 149v-26q0 -10 -10 -10h-13q-4 0 -4 -4v-99q0 -10 -10 -10h-30q-10 0 -10 10v99q0 4 -4 4h-134q-10 0 -10 10v23q0 4 2 12l86 254q3 8 12 8h33q11 0 8 -11l-81 -245q-1 -2 0.5 -3.5t3.5 -1.5h80q4 0 4 4v81q0 10 10 10h30q10 0 10 -10v-81q0 -4 4 -4h13q10 0 10 -10z
" />
    <glyph glyph-name="onehalf" unicode="&#xbd;" horiz-adv-x="665" 
d="M71 700h34q10 0 10 -10v-400q0 -10 -10 -10h-31q-10 0 -10 10v357q0 2 -1.5 3.5t-3.5 0.5l-21 -7l-4 -1q-7 0 -7 9v18q0 7 7 12l24 15q4 3 13 3zM67.5 3.5q-1.5 3.5 1.5 8.5l431 681q5 7 12 7h33q6 0 7.5 -3.5t-1.5 -8.5l-431 -681q-5 -7 -12 -7h-33q-6 0 -7.5 3.5z
M442 10v27q0 8 4 13l38 58q46 70 67 105q36 60 36 104q0 30 -13 46.5t-35 16.5q-21 0 -34 -16.5t-13 -44.5v-19q0 -10 -10 -10h-31q-10 0 -10 10v21q1 48 28 76t71 28t71 -28.5t27 -81.5q0 -55 -36 -120q-25 -46 -66 -110l-23 -36q-1 -2 0 -3.5t3 -1.5h123q10 0 10 -10v-24
q0 -10 -10 -10h-187q-10 0 -10 10z" />
    <glyph glyph-name="threequarters" unicode="&#xbe;" horiz-adv-x="732" 
d="M227 406q0 -35 -8 -62q-8 -33 -32 -52t-61 -19q-41 0 -67.5 25t-31.5 65q-2 22 -2 33q0 10 10 10h30q10 0 10 -10q0 -9 2 -23q3 -26 15.5 -40.5t33.5 -14.5q34 0 46 37q7 24 7 56q0 31 -5 50q-11 46 -48 46q-7 0 -11 -3q-2 -1 -7 -1q-4 0 -7 3l-15 15q-5 7 -1 14l79 114
q1 1 0 3t-3 2h-123q-10 0 -10 10v24q0 10 10 10h176q10 0 10 -10v-27q0 -8 -4 -13l-69 -103q-1 -1 -0.5 -2.5t2.5 -1.5q26 -4 44 -26t24 -54q6 -24 6 -55zM136.5 3.5q-1.5 3.5 1.5 8.5l431 681q5 7 12 7h33q6 0 7.5 -3.5t-1.5 -8.5l-431 -681q-5 -7 -12 -7h-33
q-6 0 -7.5 3.5zM719 149v-26q0 -10 -10 -10h-13q-4 0 -4 -4v-99q0 -10 -10 -10h-30q-10 0 -10 10v99q0 4 -4 4h-134q-10 0 -10 10v23q0 4 2 12l86 254q3 8 12 8h33q11 0 8 -11l-81 -245q-1 -2 0.5 -3.5t3.5 -1.5h80q4 0 4 4v81q0 10 10 10h30q10 0 10 -10v-81q0 -4 4 -4h13
q10 0 10 -10z" />
    <glyph glyph-name="questiondown" unicode="&#xbf;" horiz-adv-x="370" 
d="M232 481.5q15 -16.5 15 -40.5q0 -23 -15.5 -40t-36.5 -17q-20 0 -36 17t-16 40q0 24 15.5 40.5t37.5 16.5q21 0 36 -16.5zM235 290v-59q0 -43 -16.5 -70.5t-49.5 -60.5q-34 -34 -50.5 -61.5t-16.5 -71.5q0 -50 22.5 -80.5t59.5 -30.5q40 0 63.5 31t23.5 81v31q0 10 10 10
l51 -3q10 0 10 -10v-28q0 -79 -44 -128t-115 -49q-70 0 -111.5 48t-41.5 128q0 44 11.5 76t27 52t41.5 46q27 26 40 46t13 48v55q0 10 10 10h52q10 0 10 -10z" />
    <glyph glyph-name="Agrave" unicode="&#xc0;" horiz-adv-x="455" 
d="M348 9l-25 124q0 2 -1.5 3t-3.5 1h-181q-2 0 -3.5 -1t-1.5 -3l-26 -124q-1 -9 -11 -9h-51q-5 0 -7.5 3t-1.5 8l151 680q2 9 11 9h60q10 0 11 -9l152 -680v-2q0 -9 -9 -9h-52q-9 0 -11 9zM149 195h157q3 0 3 4l-79 385q-1 3 -2 3t-2 -3l-80 -385q0 -4 3 -4zM253 777
q0 -6 -9 -6h-38q-7 0 -12 7l-70 109q-2 4 -2 6q0 6 8 6h47q7 0 12 -7l62 -109q2 -4 2 -6z" />
    <glyph glyph-name="Aacute" unicode="&#xc1;" horiz-adv-x="455" 
d="M348 9l-25 124q0 2 -1.5 3t-3.5 1h-181q-2 0 -3.5 -1t-1.5 -3l-26 -124q-1 -9 -11 -9h-51q-5 0 -7.5 3t-1.5 8l151 680q2 9 11 9h60q10 0 11 -9l152 -680v-2q0 -9 -9 -9h-52q-9 0 -11 9zM149 195h157q3 0 3 4l-79 385q-1 3 -2 3t-2 -3l-80 -385q0 -4 3 -4zM181 774.5
q-2 3.5 1 8.5l62 109q5 7 12 7h47q6 0 7.5 -3.5t-1.5 -8.5l-70 -109q-5 -7 -12 -7h-38q-6 0 -8 3.5z" />
    <glyph glyph-name="Acircumflex" unicode="&#xc2;" horiz-adv-x="455" 
d="M348 9l-25 124q0 2 -1.5 3t-3.5 1h-181q-2 0 -3.5 -1t-1.5 -3l-26 -124q-1 -9 -11 -9h-51q-5 0 -7.5 3t-1.5 8l151 680q2 9 11 9h60q10 0 11 -9l152 -680v-2q0 -9 -9 -9h-52q-9 0 -11 9zM149 195h157q3 0 3 4l-79 385q-1 3 -2 3t-2 -3l-80 -385q0 -4 3 -4zM117.5 767.5
q-1.5 3.5 1.5 8.5l66 103q5 7 12 7h57q7 0 12 -7l68 -103l2 -5q0 -7 -9 -7h-42q-7 0 -12 7l-44 73q-1 2 -3 2t-3 -2l-43 -73q-5 -7 -12 -7h-43q-6 0 -7.5 3.5z" />
    <glyph glyph-name="Atilde" unicode="&#xc3;" horiz-adv-x="455" 
d="M348 9l-25 124q0 2 -1.5 3t-3.5 1h-181q-2 0 -3.5 -1t-1.5 -3l-26 -124q-1 -9 -11 -9h-51q-5 0 -7.5 3t-1.5 8l151 680q2 9 11 9h60q10 0 11 -9l152 -680v-2q0 -9 -9 -9h-52q-9 0 -11 9zM149 195h157q3 0 3 4l-79 385q-1 3 -2 3t-2 -3l-80 -385q0 -4 3 -4zM264 793.5
q-11 5.5 -29 16.5q-4 3 -13 9t-16 8.5t-15 2.5q-14 0 -24.5 -5.5t-20.5 -20.5q-6 -9 -14 -3l-18 13q-8 6 -4 14q27 52 76 52q15 0 27.5 -6t30.5 -17q2 -2 11 -8t17.5 -9.5t16.5 -3.5q26 0 43 28q2 4 6 5t8 -1l18 -12q4 -3 4 -8t-4 -12q-14 -25 -35 -36.5t-40 -11.5
q-14 0 -25 5.5z" />
    <glyph glyph-name="Adieresis" unicode="&#xc4;" horiz-adv-x="455" 
d="M348 9l-25 124q0 2 -1.5 3t-3.5 1h-181q-2 0 -3.5 -1t-1.5 -3l-26 -124q-1 -9 -11 -9h-51q-5 0 -7.5 3t-1.5 8l151 680q2 9 11 9h60q10 0 11 -9l152 -680v-2q0 -9 -9 -9h-52q-9 0 -11 9zM149 195h157q3 0 3 4l-79 385q-1 3 -2 3t-2 -3l-80 -385q0 -4 3 -4zM130.5 801
q-12.5 13 -12.5 34q0 20 13 33t32 13t30.5 -13t11.5 -33q0 -21 -11.5 -34t-30.5 -13q-20 0 -32.5 13zM261.5 801q-12.5 13 -12.5 34q0 20 13 33t32 13t31 -13t12 -33q0 -21 -12 -34t-31 -13q-20 0 -32.5 13z" />
    <glyph glyph-name="Aring" unicode="&#xc5;" horiz-adv-x="455" 
d="M348 9l-25 124q0 2 -1.5 3t-3.5 1h-181q-2 0 -3.5 -1t-1.5 -3l-26 -124q-1 -9 -11 -9h-51q-5 0 -7.5 3t-1.5 8l151 680q2 9 11 9h60q10 0 11 -9l152 -680v-2q0 -9 -9 -9h-52q-9 0 -11 9zM149 195h157q3 0 3 4l-79 385q-1 3 -2 3t-2 -3l-80 -385q0 -4 3 -4zM155.5 796
q-29.5 30 -29.5 73t29.5 73t71.5 30q43 0 72 -30t29 -73t-29 -73t-72 -30q-42 0 -71.5 30zM271 823.5q18 18.5 18 45.5q0 28 -18 46.5t-44 18.5t-44 -18.5t-18 -46.5q0 -27 18 -45.5t44 -18.5t44 18.5z" />
    <glyph glyph-name="AE" unicode="&#xc6;" horiz-adv-x="722" 
d="M671 638h-232q-4 0 -4 -4v-248q0 -4 4 -4h147q10 0 10 -10v-43q0 -10 -10 -10h-147q-4 0 -4 -4v-249q0 -4 4 -4h232q10 0 10 -10v-42q0 -10 -10 -10h-297q-10 0 -10 10v123q0 4 -4 4h-192q-2 0 -4 -3l-54 -126q-3 -8 -11 -8h-53q-5 0 -7.5 3.5t-0.5 8.5l298 680q3 8 11 8
h324q10 0 10 -10v-42q0 -10 -10 -10zM192 196.5q1 -1.5 3 -1.5h165q4 0 4 4v392q0 3 -2 3t-3 -2l-167 -392q-1 -2 0 -3.5z" />
    <glyph glyph-name="Ccedilla" unicode="&#xc7;" horiz-adv-x="446" 
d="M386 509l-52 -3q-10 0 -10 10v25q0 47 -27 76t-72 29q-44 0 -71.5 -29t-27.5 -76v-382q0 -47 27.5 -76t71.5 -29q45 0 72 29t27 76v25q0 10 10 10l52 -3q10 0 10 -10v-16q0 -70 -37.5 -115.5t-101.5 -54.5q-5 -2 -2 -5q41 -44 41 -91q0 -45 -23.5 -64t-57.5 -19
q-16 0 -29 3q-8 3 -7 12l3 21q1 5 4.5 6.5t7.5 0.5t11 -1q18 0 29.5 11.5t11.5 36.5q0 21 -12 43.5t-32 41.5q-1 2 -5 2q-65 9 -103.5 55t-38.5 117v371q0 78 46.5 125t123.5 47q78 0 124.5 -46.5t46.5 -125.5v-17q0 -10 -10 -10z" />
    <glyph glyph-name="Egrave" unicode="&#xc8;" horiz-adv-x="429" 
d="M379 638h-232q-4 0 -4 -4v-248q0 -4 4 -4h146q10 0 10 -10v-43q0 -10 -10 -10h-146q-4 0 -4 -4v-249q0 -4 4 -4h232q10 0 10 -10v-42q0 -10 -10 -10h-297q-10 0 -10 10v680q0 10 10 10h297q10 0 10 -10v-42q0 -10 -10 -10zM257 788q0 -6 -9 -6h-38q-7 0 -12 7l-70 109
q-2 4 -2 6q0 6 8 6h47q7 0 12 -7l62 -109q2 -4 2 -6z" />
    <glyph glyph-name="Eacute" unicode="&#xc9;" horiz-adv-x="429" 
d="M379 638h-232q-4 0 -4 -4v-248q0 -4 4 -4h146q10 0 10 -10v-43q0 -10 -10 -10h-146q-4 0 -4 -4v-249q0 -4 4 -4h232q10 0 10 -10v-42q0 -10 -10 -10h-297q-10 0 -10 10v680q0 10 10 10h297q10 0 10 -10v-42q0 -10 -10 -10zM185 785.5q-2 3.5 1 8.5l62 109q5 7 12 7h47
q6 0 7.5 -3.5t-1.5 -8.5l-70 -109q-5 -7 -12 -7h-38q-6 0 -8 3.5z" />
    <glyph glyph-name="Ecircumflex" unicode="&#xca;" horiz-adv-x="429" 
d="M379 638h-232q-4 0 -4 -4v-248q0 -4 4 -4h146q10 0 10 -10v-43q0 -10 -10 -10h-146q-4 0 -4 -4v-249q0 -4 4 -4h232q10 0 10 -10v-42q0 -10 -10 -10h-297q-10 0 -10 10v680q0 10 10 10h297q10 0 10 -10v-42q0 -10 -10 -10zM121.5 778.5q-1.5 3.5 1.5 8.5l66 103q5 7 12 7
h57q7 0 12 -7l68 -103l2 -5q0 -7 -9 -7h-42q-7 0 -12 7l-44 73q-1 2 -3 2t-3 -2l-43 -73q-5 -7 -12 -7h-43q-6 0 -7.5 3.5z" />
    <glyph glyph-name="Edieresis" unicode="&#xcb;" horiz-adv-x="429" 
d="M379 638h-232q-4 0 -4 -4v-248q0 -4 4 -4h146q10 0 10 -10v-43q0 -10 -10 -10h-146q-4 0 -4 -4v-249q0 -4 4 -4h232q10 0 10 -10v-42q0 -10 -10 -10h-297q-10 0 -10 10v680q0 10 10 10h297q10 0 10 -10v-42q0 -10 -10 -10zM134.5 812q-12.5 13 -12.5 34q0 20 13 33t32 13
t30.5 -13t11.5 -33q0 -21 -11.5 -34t-30.5 -13q-20 0 -32.5 13zM265.5 812q-12.5 13 -12.5 34q0 20 13 33t32 13t31 -13t12 -33q0 -21 -12 -34t-31 -13q-20 0 -32.5 13z" />
    <glyph glyph-name="Igrave" unicode="&#xcc;" horiz-adv-x="215" 
d="M72 10v680q0 10 10 10h51q10 0 10 -10v-680q0 -10 -10 -10h-51q-10 0 -10 10zM133 788q0 -6 -9 -6h-38q-7 0 -12 7l-70 109q-2 4 -2 6q0 6 8 6h47q7 0 12 -7l62 -109q2 -4 2 -6z" />
    <glyph glyph-name="Iacute" unicode="&#xcd;" horiz-adv-x="215" 
d="M72 10v680q0 10 10 10h51q10 0 10 -10v-680q0 -10 -10 -10h-51q-10 0 -10 10zM61 785.5q-2 3.5 1 8.5l62 109q5 7 12 7h47q6 0 7.5 -3.5t-1.5 -8.5l-70 -109q-5 -7 -12 -7h-38q-6 0 -8 3.5z" />
    <glyph glyph-name="Icircumflex" unicode="&#xce;" horiz-adv-x="215" 
d="M72 10v680q0 10 10 10h51q10 0 10 -10v-680q0 -10 -10 -10h-51q-10 0 -10 10zM-2.5 778.5q-1.5 3.5 1.5 8.5l66 103q5 7 12 7h57q7 0 12 -7l68 -103l2 -5q0 -7 -9 -7h-42q-7 0 -12 7l-44 73q-1 2 -3 2t-3 -2l-43 -73q-5 -7 -12 -7h-43q-6 0 -7.5 3.5z" />
    <glyph glyph-name="Idieresis" unicode="&#xcf;" horiz-adv-x="215" 
d="M72 10v680q0 10 10 10h51q10 0 10 -10v-680q0 -10 -10 -10h-51q-10 0 -10 10zM10.5 812q-12.5 13 -12.5 34q0 20 13 33t32 13t30.5 -13t11.5 -33q0 -21 -11.5 -34t-30.5 -13q-20 0 -32.5 13zM141.5 812q-12.5 13 -12.5 34q0 20 13 33t32 13t31 -13t12 -33q0 -21 -12 -34
t-31 -13q-20 0 -32.5 13z" />
    <glyph glyph-name="Eth" unicode="&#xd0;" horiz-adv-x="509" 
d="M402 649.5q46 -50.5 46 -135.5v-328q0 -85 -46 -135.5t-123 -50.5h-154q-10 0 -10 10v329q0 4 -4 4h-29q-10 0 -10 10v26q0 10 10 10h29q4 0 4 4v297q0 10 10 10h154q77 0 123 -50.5zM376 511q0 59 -26 93t-72 34h-88q-4 0 -4 -4v-241q0 -4 4 -4h75q10 0 10 -10v-26
q0 -10 -10 -10h-75q-4 0 -4 -4v-273q0 -4 4 -4l88 1q44 0 70.5 34t27.5 92v322z" />
    <glyph glyph-name="Ntilde" unicode="&#xd1;" horiz-adv-x="493" 
d="M72 10v680q0 10 10 10h53q8 0 11 -8l201 -504q1 -3 3 -3t2 3v502q0 10 10 10h50q10 0 10 -10v-680q0 -10 -10 -10h-53q-8 0 -11 8l-201 504q-1 3 -3 2.5t-2 -3.5l1 -501q0 -10 -10 -10h-51q-10 0 -10 10zM284 804.5q-11 5.5 -29 16.5q-4 3 -13 9t-16 8.5t-15 2.5
q-14 0 -24.5 -5.5t-20.5 -20.5q-6 -9 -14 -3l-18 13q-8 6 -4 14q27 52 76 52q15 0 27.5 -6t30.5 -17q2 -2 11 -8t17.5 -9.5t16.5 -3.5q26 0 43 28q2 4 6 5t8 -1l18 -12q4 -3 4 -8t-4 -12q-14 -25 -35 -36.5t-40 -11.5q-14 0 -25 5.5z" />
    <glyph glyph-name="Ograve" unicode="&#xd2;" horiz-adv-x="456" 
d="M102.5 40q-47.5 48 -47.5 127v366q0 79 47.5 127t124.5 48q78 0 126 -48t48 -127v-366q0 -78 -48 -126.5t-126 -48.5q-77 0 -124.5 48zM301.5 84.5q28.5 30.5 28.5 78.5v373q0 49 -28.5 79.5t-74.5 30.5q-45 0 -73 -30.5t-28 -79.5v-373q0 -48 28 -78.5t73 -30.5
q46 0 74.5 30.5zM253 779q0 -6 -9 -6h-38q-7 0 -12 7l-70 109q-2 4 -2 6q0 6 8 6h47q7 0 12 -7l62 -109q2 -4 2 -6z" />
    <glyph glyph-name="Oacute" unicode="&#xd3;" horiz-adv-x="456" 
d="M102.5 40q-47.5 48 -47.5 127v366q0 79 47.5 127t124.5 48q78 0 126 -48t48 -127v-366q0 -78 -48 -126.5t-126 -48.5q-77 0 -124.5 48zM301.5 84.5q28.5 30.5 28.5 78.5v373q0 49 -28.5 79.5t-74.5 30.5q-45 0 -73 -30.5t-28 -79.5v-373q0 -48 28 -78.5t73 -30.5
q46 0 74.5 30.5zM181 776.5q-2 3.5 1 8.5l62 109q5 7 12 7h47q6 0 7.5 -3.5t-1.5 -8.5l-70 -109q-5 -7 -12 -7h-38q-6 0 -8 3.5z" />
    <glyph glyph-name="Ocircumflex" unicode="&#xd4;" horiz-adv-x="456" 
d="M102.5 40q-47.5 48 -47.5 127v366q0 79 47.5 127t124.5 48q78 0 126 -48t48 -127v-366q0 -78 -48 -126.5t-126 -48.5q-77 0 -124.5 48zM301.5 84.5q28.5 30.5 28.5 78.5v373q0 49 -28.5 79.5t-74.5 30.5q-45 0 -73 -30.5t-28 -79.5v-373q0 -48 28 -78.5t73 -30.5
q46 0 74.5 30.5zM117.5 769.5q-1.5 3.5 1.5 8.5l66 103q5 7 12 7h57q7 0 12 -7l68 -103l2 -5q0 -7 -9 -7h-42q-7 0 -12 7l-44 73q-1 2 -3 2t-3 -2l-43 -73q-5 -7 -12 -7h-43q-6 0 -7.5 3.5z" />
    <glyph glyph-name="Otilde" unicode="&#xd5;" horiz-adv-x="456" 
d="M102.5 40q-47.5 48 -47.5 127v366q0 79 47.5 127t124.5 48q78 0 126 -48t48 -127v-366q0 -78 -48 -126.5t-126 -48.5q-77 0 -124.5 48zM301.5 84.5q28.5 30.5 28.5 78.5v373q0 49 -28.5 79.5t-74.5 30.5q-45 0 -73 -30.5t-28 -79.5v-373q0 -48 28 -78.5t73 -30.5
q46 0 74.5 30.5zM264 795.5q-11 5.5 -29 16.5q-4 3 -13 9t-16 8.5t-15 2.5q-14 0 -24.5 -5.5t-20.5 -20.5q-6 -9 -14 -3l-18 13q-8 6 -4 14q27 52 76 52q15 0 27.5 -6t30.5 -17q2 -2 11 -8t17.5 -9.5t16.5 -3.5q26 0 43 28q2 4 6 5t8 -1l18 -12q4 -3 4 -8t-4 -12
q-14 -25 -35 -36.5t-40 -11.5q-14 0 -25 5.5z" />
    <glyph glyph-name="Odieresis" unicode="&#xd6;" horiz-adv-x="456" 
d="M102.5 40q-47.5 48 -47.5 127v366q0 79 47.5 127t124.5 48q78 0 126 -48t48 -127v-366q0 -78 -48 -126.5t-126 -48.5q-77 0 -124.5 48zM301.5 84.5q28.5 30.5 28.5 78.5v373q0 49 -28.5 79.5t-74.5 30.5q-45 0 -73 -30.5t-28 -79.5v-373q0 -48 28 -78.5t73 -30.5
q46 0 74.5 30.5zM130.5 803q-12.5 13 -12.5 34q0 20 13 33t32 13t30.5 -13t11.5 -33q0 -21 -11.5 -34t-30.5 -13q-20 0 -32.5 13zM261.5 803q-12.5 13 -12.5 34q0 20 13 33t32 13t31 -13t12 -33q0 -21 -12 -34t-31 -13q-20 0 -32.5 13z" />
    <glyph glyph-name="multiply" unicode="&#xd7;" horiz-adv-x="370" 
d="M334 426q0 -4 -3 -7l-104 -104q-3 -3 0 -6l104 -104q3 -3 3 -7t-3 -7l-25 -26q-3 -3 -7 -3t-7 3l-104 104q-3 3 -6 0l-104 -104q-3 -3 -7 -3t-7 3l-25 25q-3 3 -3 7t3 7l104 104q3 3 0 6l-104 104q-3 3 -3 7t3 7l26 26q3 3 7 3t7 -3l103 -104q3 -3 6 0l104 104q3 3 7 3
t7 -3l25 -25q3 -3 3 -7z" />
    <glyph glyph-name="Oslash" unicode="&#xd8;" horiz-adv-x="490" 
d="M429.5 741.5q2.5 -3.5 0.5 -8.5l-43 -102q-2 -3 1 -6q22 -38 22 -92v-366q0 -78 -48 -126.5t-126 -48.5q-57 0 -99 28q-4 1 -6 -2l-20 -49q-3 -8 -11 -8h-31q-5 0 -7.5 3.5t-0.5 8.5l34 82q1 2 -1 6q-30 44 -30 106v366q0 79 47.5 127t124.5 48q65 0 111 -35q4 -3 6 1
l26 63q3 8 11 8h32q5 0 7.5 -3.5zM137 161q2 0 3 2l181 434q2 3 -1 6q-29 43 -84 43q-45 0 -73 -30.5t-28 -79.5v-372q0 -3 2 -3zM339 503q0 3 -2 3t-3 -2l-172 -414q-1 -3 1 -5q26 -31 73 -31q46 0 74.5 30.5t28.5 78.5v340z" />
    <glyph glyph-name="Ugrave" unicode="&#xd9;" horiz-adv-x="476" 
d="M113 45q-47 53 -47 140v505q0 10 10 10h51q10 0 10 -10v-513q0 -55 27.5 -89t72.5 -34q46 0 74 34t28 89v513q0 10 10 10h51q10 0 10 -10v-505q0 -87 -47.5 -140t-125.5 -53q-77 0 -124 53zM263 788q0 -6 -9 -6h-38q-7 0 -12 7l-70 109q-2 4 -2 6q0 6 8 6h47q7 0 12 -7
l62 -109q2 -4 2 -6z" />
    <glyph glyph-name="Uacute" unicode="&#xda;" horiz-adv-x="476" 
d="M113 45q-47 53 -47 140v505q0 10 10 10h51q10 0 10 -10v-513q0 -55 27.5 -89t72.5 -34q46 0 74 34t28 89v513q0 10 10 10h51q10 0 10 -10v-505q0 -87 -47.5 -140t-125.5 -53q-77 0 -124 53zM191 785.5q-2 3.5 1 8.5l62 109q5 7 12 7h47q6 0 7.5 -3.5t-1.5 -8.5l-70 -109
q-5 -7 -12 -7h-38q-6 0 -8 3.5z" />
    <glyph glyph-name="Ucircumflex" unicode="&#xdb;" horiz-adv-x="476" 
d="M113 45q-47 53 -47 140v505q0 10 10 10h51q10 0 10 -10v-513q0 -55 27.5 -89t72.5 -34q46 0 74 34t28 89v513q0 10 10 10h51q10 0 10 -10v-505q0 -87 -47.5 -140t-125.5 -53q-77 0 -124 53zM127.5 778.5q-1.5 3.5 1.5 8.5l66 103q5 7 12 7h57q7 0 12 -7l68 -103l2 -5
q0 -7 -9 -7h-42q-7 0 -12 7l-44 73q-1 2 -3 2t-3 -2l-43 -73q-5 -7 -12 -7h-43q-6 0 -7.5 3.5z" />
    <glyph glyph-name="Udieresis" unicode="&#xdc;" horiz-adv-x="476" 
d="M113 45q-47 53 -47 140v505q0 10 10 10h51q10 0 10 -10v-513q0 -55 27.5 -89t72.5 -34q46 0 74 34t28 89v513q0 10 10 10h51q10 0 10 -10v-505q0 -87 -47.5 -140t-125.5 -53q-77 0 -124 53zM140.5 812q-12.5 13 -12.5 34q0 20 13 33t32 13t30.5 -13t11.5 -33
q0 -21 -11.5 -34t-30.5 -13q-20 0 -32.5 13zM271.5 812q-12.5 13 -12.5 34q0 20 13 33t32 13t31 -13t12 -33q0 -21 -12 -34t-31 -13q-20 0 -32.5 13z" />
    <glyph glyph-name="Yacute" unicode="&#xdd;" horiz-adv-x="424" 
d="M177 11v299q0 4 -1 5l-139 373l-1 4q0 8 9 8h54q9 0 12 -8l98 -293q1 -2 3 -2t3 2l98 293q3 8 12 8h54q5 0 7.5 -3.5t0.5 -8.5l-138 -373q-1 -1 -1 -5v-299q0 -10 -10 -10h-51q-10 0 -10 10zM166 774.5q-2 3.5 1 8.5l62 109q5 7 12 7h47q6 0 7.5 -3.5t-1.5 -8.5l-70 -109
q-5 -7 -12 -7h-38q-6 0 -8 3.5z" />
    <glyph glyph-name="Thorn" unicode="&#xde;" horiz-adv-x="442" 
d="M364 490.5q45 -53.5 45 -140.5q0 -86 -44 -138.5t-116 -52.5h-103q-4 0 -4 -4v-145q0 -10 -10 -10h-51q-10 0 -10 10v680q0 10 10 10h51q10 0 10 -10v-142q0 -4 4 -4h100q73 0 118 -53.5zM310 252.5q28 35.5 28 95.5q0 61 -28 97.5t-74 36.5h-90q-4 0 -4 -4v-257
q0 -4 4 -4h90q46 0 74 35.5z" />
    <glyph glyph-name="germandbls" unicode="&#xdf;" horiz-adv-x="430" 
d="M61 10v500q0 94 40 146.5t112 52.5q75 0 118 -51t43 -138q0 -54 -18.5 -91.5t-50.5 -55.5q-5 -2 0 -5q36 -20 56 -65.5t20 -108.5q0 -91 -45.5 -142.5t-126.5 -51.5h-29q-10 0 -10 10v41q0 10 10 10l30 1q48 1 74.5 37t26.5 102t-23 102t-65 38h-30q-10 0 -10 10v38
q0 10 10 10h30q38 0 59.5 31t21.5 86q0 61 -24.5 96t-65.5 35q-39 0 -60.5 -33.5t-21.5 -94.5v-509q0 -10 -10 -10h-51q-10 0 -10 10z" />
    <glyph glyph-name="agrave" unicode="&#xe0;" horiz-adv-x="411" 
d="M319.5 468.5q41.5 -45.5 41.5 -121.5v-337q0 -10 -10 -10h-51q-10 0 -10 10v29q0 2 -1.5 2.5t-3.5 -1.5q-37 -48 -110 -48q-55 0 -95.5 31.5t-40.5 111.5q0 85 49 124.5t129 39.5h69q4 0 4 4v39q0 50 -22.5 80t-61.5 30q-30 0 -52 -20t-25 -51q-1 -10 -11 -10l-55 1
q-5 0 -7.5 3t-1.5 7q5 59 48 95.5t106 36.5q70 0 111.5 -45.5zM260.5 80.5q29.5 26.5 29.5 73.5v84q0 4 -4 4h-70q-48 0 -76 -25.5t-28 -75.5q0 -44 21.5 -65.5t56.5 -21.5q41 0 70.5 26.5zM232 591q0 -6 -9 -6h-38q-7 0 -12 7l-70 109q-2 4 -2 6q0 6 8 6h47q7 0 12 -7
l62 -109q2 -4 2 -6z" />
    <glyph glyph-name="aacute" unicode="&#xe1;" horiz-adv-x="411" 
d="M319.5 468.5q41.5 -45.5 41.5 -121.5v-337q0 -10 -10 -10h-51q-10 0 -10 10v29q0 2 -1.5 2.5t-3.5 -1.5q-37 -48 -110 -48q-55 0 -95.5 31.5t-40.5 111.5q0 85 49 124.5t129 39.5h69q4 0 4 4v39q0 50 -22.5 80t-61.5 30q-30 0 -52 -20t-25 -51q-1 -10 -11 -10l-55 1
q-5 0 -7.5 3t-1.5 7q5 59 48 95.5t106 36.5q70 0 111.5 -45.5zM260.5 80.5q29.5 26.5 29.5 73.5v84q0 4 -4 4h-70q-48 0 -76 -25.5t-28 -75.5q0 -44 21.5 -65.5t56.5 -21.5q41 0 70.5 26.5zM160 588.5q-2 3.5 1 8.5l62 109q5 7 12 7h47q6 0 7.5 -3.5t-1.5 -8.5l-70 -109
q-5 -7 -12 -7h-38q-6 0 -8 3.5z" />
    <glyph glyph-name="acircumflex" unicode="&#xe2;" horiz-adv-x="411" 
d="M319.5 468.5q41.5 -45.5 41.5 -121.5v-337q0 -10 -10 -10h-51q-10 0 -10 10v29q0 2 -1.5 2.5t-3.5 -1.5q-37 -48 -110 -48q-55 0 -95.5 31.5t-40.5 111.5q0 85 49 124.5t129 39.5h69q4 0 4 4v39q0 50 -22.5 80t-61.5 30q-30 0 -52 -20t-25 -51q-1 -10 -11 -10l-55 1
q-5 0 -7.5 3t-1.5 7q5 59 48 95.5t106 36.5q70 0 111.5 -45.5zM260.5 80.5q29.5 26.5 29.5 73.5v84q0 4 -4 4h-70q-48 0 -76 -25.5t-28 -75.5q0 -44 21.5 -65.5t56.5 -21.5q41 0 70.5 26.5zM96.5 581.5q-1.5 3.5 1.5 8.5l66 103q5 7 12 7h57q7 0 12 -7l68 -103l2 -5
q0 -7 -9 -7h-42q-7 0 -12 7l-44 73q-1 2 -3 2t-3 -2l-43 -73q-5 -7 -12 -7h-43q-6 0 -7.5 3.5z" />
    <glyph glyph-name="atilde" unicode="&#xe3;" horiz-adv-x="411" 
d="M319.5 468.5q41.5 -45.5 41.5 -121.5v-337q0 -10 -10 -10h-51q-10 0 -10 10v29q0 2 -1.5 2.5t-3.5 -1.5q-37 -48 -110 -48q-55 0 -95.5 31.5t-40.5 111.5q0 85 49 124.5t129 39.5h69q4 0 4 4v39q0 50 -22.5 80t-61.5 30q-30 0 -52 -20t-25 -51q-1 -10 -11 -10l-55 1
q-5 0 -7.5 3t-1.5 7q5 59 48 95.5t106 36.5q70 0 111.5 -45.5zM260.5 80.5q29.5 26.5 29.5 73.5v84q0 4 -4 4h-70q-48 0 -76 -25.5t-28 -75.5q0 -44 21.5 -65.5t56.5 -21.5q41 0 70.5 26.5zM243 607.5q-11 5.5 -29 16.5q-4 3 -13 9t-16 8.5t-15 2.5q-14 0 -24.5 -5.5
t-20.5 -20.5q-6 -9 -14 -3l-18 13q-8 6 -4 14q27 52 76 52q15 0 27.5 -6t30.5 -17q2 -2 11 -8t17.5 -9.5t16.5 -3.5q26 0 43 28q2 4 6 5t8 -1l18 -12q4 -3 4 -8t-4 -12q-14 -25 -35 -36.5t-40 -11.5q-14 0 -25 5.5z" />
    <glyph glyph-name="adieresis" unicode="&#xe4;" horiz-adv-x="411" 
d="M319.5 468.5q41.5 -45.5 41.5 -121.5v-337q0 -10 -10 -10h-51q-10 0 -10 10v29q0 2 -1.5 2.5t-3.5 -1.5q-37 -48 -110 -48q-55 0 -95.5 31.5t-40.5 111.5q0 85 49 124.5t129 39.5h69q4 0 4 4v39q0 50 -22.5 80t-61.5 30q-30 0 -52 -20t-25 -51q-1 -10 -11 -10l-55 1
q-5 0 -7.5 3t-1.5 7q5 59 48 95.5t106 36.5q70 0 111.5 -45.5zM260.5 80.5q29.5 26.5 29.5 73.5v84q0 4 -4 4h-70q-48 0 -76 -25.5t-28 -75.5q0 -44 21.5 -65.5t56.5 -21.5q41 0 70.5 26.5zM109.5 615q-12.5 13 -12.5 34q0 20 13 33t32 13t30.5 -13t11.5 -33
q0 -21 -11.5 -34t-30.5 -13q-20 0 -32.5 13zM240.5 615q-12.5 13 -12.5 34q0 20 13 33t32 13t31 -13t12 -33q0 -21 -12 -34t-31 -13q-20 0 -32.5 13z" />
    <glyph glyph-name="aring" unicode="&#xe5;" horiz-adv-x="411" 
d="M319.5 468.5q41.5 -45.5 41.5 -121.5v-337q0 -10 -10 -10h-51q-10 0 -10 10v29q0 2 -1.5 2.5t-3.5 -1.5q-37 -48 -110 -48q-55 0 -95.5 31.5t-40.5 111.5q0 85 49 124.5t129 39.5h69q4 0 4 4v39q0 50 -22.5 80t-61.5 30q-30 0 -52 -20t-25 -51q-1 -10 -11 -10l-55 1
q-5 0 -7.5 3t-1.5 7q5 59 48 95.5t106 36.5q70 0 111.5 -45.5zM260.5 80.5q29.5 26.5 29.5 73.5v84q0 4 -4 4h-70q-48 0 -76 -25.5t-28 -75.5q0 -44 21.5 -65.5t56.5 -21.5q41 0 70.5 26.5zM134.5 610q-29.5 30 -29.5 73t29.5 73t71.5 30q43 0 72 -30t29 -73t-29 -73
t-72 -30q-42 0 -71.5 30zM250 637.5q18 18.5 18 45.5q0 28 -18 46.5t-44 18.5t-44 -18.5t-18 -46.5q0 -27 18 -45.5t44 -18.5t44 18.5z" />
    <glyph glyph-name="ae" unicode="&#xe6;" horiz-adv-x="651" 
d="M78 22.5q-39 30.5 -39 111.5q0 84 44.5 119.5t125.5 35.5h76q4 0 4 4v49q0 51 -22 80.5t-63 29.5q-32 0 -56 -19.5t-28 -51.5q-1 -10 -11 -10l-51 3q-10 0 -10 10q5 59 49 94.5t106 35.5q78 0 118 -68q3 -4 6 0q18 31 50.5 49.5t74.5 18.5q69 0 112 -42.5t43 -110.5v-122
q0 -10 -10 -10h-229q-4 0 -4 -4v-76q0 -39 24 -65t62 -26q31 0 53 18.5t31 48.5q3 9 11 8l50 -5q11 -2 9 -11q-9 -58 -49 -91.5t-101 -33.5q-48 0 -82.5 21.5t-47.5 53.5q-1 2 -2 3t-2 -1q-13 -35 -53.5 -56t-93.5 -21q-56 0 -95 30.5zM368 289h164q4 0 4 4v63
q0 43 -24 69.5t-62 26.5t-62 -26.5t-24 -69.5v-63q0 -4 4 -4zM259.5 75q29.5 25 29.5 70v79q0 4 -4 4h-71q-47 0 -75.5 -23t-28.5 -69q0 -43 22.5 -64.5t57.5 -21.5q40 0 69.5 25z" />
    <glyph glyph-name="ccedilla" unicode="&#xe7;" horiz-adv-x="402" 
d="M354 355l-51 -2q-4 0 -7 2.5t-3 6.5v8q0 33 -24.5 57.5t-62.5 24.5t-61.5 -26.5t-23.5 -69.5v-206q0 -43 23.5 -69.5t61.5 -26.5t62.5 24.5t24.5 57.5v7q0 10 10 10l51 -1q10 0 10 -10v-11q0 -52 -34.5 -89.5t-91.5 -46.5q-5 -2 -2 -5q41 -44 41 -91q0 -45 -23.5 -64
t-57.5 -19q-15 0 -29 3q-8 3 -7 12l3 21q1 5 4.5 6.5t7.5 0.5t11 -1q18 0 29.5 11.5t11.5 36.5q0 21 -12 43.5t-32 41.5q-1 2 -5 2q-59 8 -93.5 49t-34.5 103v216q0 68 43 110.5t113 42.5q47 0 83 -19t55.5 -50.5t19.5 -69.5v-10q0 -10 -10 -10z" />
    <glyph glyph-name="egrave" unicode="&#xe8;" horiz-adv-x="407" 
d="M353 226h-228q-4 0 -4 -4v-73q0 -42 23.5 -68.5t61.5 -26.5q32 0 54.5 19.5t29.5 50.5q3 9 11 9l50 -2q4 0 7 -3t2 -8q-8 -59 -48.5 -93.5t-105.5 -34.5q-71 0 -113.5 42t-42.5 111v216q0 68 42.5 110.5t113.5 42.5q72 0 114.5 -42.5t42.5 -110.5v-125q0 -10 -10 -10z
M144.5 425.5q-23.5 -26.5 -23.5 -69.5v-67q0 -4 4 -4h164q4 0 4 4v67q0 43 -24 69.5t-63 26.5q-38 0 -61.5 -26.5zM232 591q0 -6 -9 -6h-38q-7 0 -12 7l-70 109q-2 4 -2 6q0 6 8 6h47q7 0 12 -7l62 -109q2 -4 2 -6z" />
    <glyph glyph-name="eacute" unicode="&#xe9;" horiz-adv-x="407" 
d="M353 226h-228q-4 0 -4 -4v-73q0 -42 23.5 -68.5t61.5 -26.5q32 0 54.5 19.5t29.5 50.5q3 9 11 9l50 -2q4 0 7 -3t2 -8q-8 -59 -48.5 -93.5t-105.5 -34.5q-71 0 -113.5 42t-42.5 111v216q0 68 42.5 110.5t113.5 42.5q72 0 114.5 -42.5t42.5 -110.5v-125q0 -10 -10 -10z
M144.5 425.5q-23.5 -26.5 -23.5 -69.5v-67q0 -4 4 -4h164q4 0 4 4v67q0 43 -24 69.5t-63 26.5q-38 0 -61.5 -26.5zM160 588.5q-2 3.5 1 8.5l62 109q5 7 12 7h47q6 0 7.5 -3.5t-1.5 -8.5l-70 -109q-5 -7 -12 -7h-38q-6 0 -8 3.5z" />
    <glyph glyph-name="ecircumflex" unicode="&#xea;" horiz-adv-x="407" 
d="M353 226h-228q-4 0 -4 -4v-73q0 -42 23.5 -68.5t61.5 -26.5q32 0 54.5 19.5t29.5 50.5q3 9 11 9l50 -2q4 0 7 -3t2 -8q-8 -59 -48.5 -93.5t-105.5 -34.5q-71 0 -113.5 42t-42.5 111v216q0 68 42.5 110.5t113.5 42.5q72 0 114.5 -42.5t42.5 -110.5v-125q0 -10 -10 -10z
M144.5 425.5q-23.5 -26.5 -23.5 -69.5v-67q0 -4 4 -4h164q4 0 4 4v67q0 43 -24 69.5t-63 26.5q-38 0 -61.5 -26.5zM96.5 581.5q-1.5 3.5 1.5 8.5l66 103q5 7 12 7h57q7 0 12 -7l68 -103l2 -5q0 -7 -9 -7h-42q-7 0 -12 7l-44 73q-1 2 -3 2t-3 -2l-43 -73q-5 -7 -12 -7h-43
q-6 0 -7.5 3.5z" />
    <glyph glyph-name="edieresis" unicode="&#xeb;" horiz-adv-x="407" 
d="M353 226h-228q-4 0 -4 -4v-73q0 -42 23.5 -68.5t61.5 -26.5q32 0 54.5 19.5t29.5 50.5q3 9 11 9l50 -2q4 0 7 -3t2 -8q-8 -59 -48.5 -93.5t-105.5 -34.5q-71 0 -113.5 42t-42.5 111v216q0 68 42.5 110.5t113.5 42.5q72 0 114.5 -42.5t42.5 -110.5v-125q0 -10 -10 -10z
M144.5 425.5q-23.5 -26.5 -23.5 -69.5v-67q0 -4 4 -4h164q4 0 4 4v67q0 43 -24 69.5t-63 26.5q-38 0 -61.5 -26.5zM109.5 615q-12.5 13 -12.5 34q0 20 13 33t32 13t30.5 -13t11.5 -33q0 -21 -11.5 -34t-30.5 -13q-20 0 -32.5 13zM240.5 615q-12.5 13 -12.5 34q0 20 13 33
t32 13t31 -13t12 -33q0 -21 -12 -34t-31 -13q-20 0 -32.5 13z" />
    <glyph glyph-name="igrave" unicode="&#xec;" horiz-adv-x="188" 
d="M57 10v486q0 10 10 10h51q10 0 10 -10v-486q0 -10 -10 -10h-51q-10 0 -10 10zM118 593q0 -6 -9 -6h-38q-7 0 -12 7l-70 109q-2 4 -2 6q0 6 8 6h47q7 0 12 -7l62 -109q2 -4 2 -6z" />
    <glyph glyph-name="iacute" unicode="&#xed;" horiz-adv-x="188" 
d="M57 10v486q0 10 10 10h51q10 0 10 -10v-486q0 -10 -10 -10h-51q-10 0 -10 10zM46 590.5q-2 3.5 1 8.5l62 109q5 7 12 7h47q6 0 7.5 -3.5t-1.5 -8.5l-70 -109q-5 -7 -12 -7h-38q-6 0 -8 3.5z" />
    <glyph glyph-name="icircumflex" unicode="&#xee;" horiz-adv-x="188" 
d="M57 10v486q0 10 10 10h51q10 0 10 -10v-486q0 -10 -10 -10h-51q-10 0 -10 10zM-17.5 583.5q-1.5 3.5 1.5 8.5l66 103q5 7 12 7h57q7 0 12 -7l68 -103l2 -5q0 -7 -9 -7h-42q-7 0 -12 7l-44 73q-1 2 -3 2t-3 -2l-43 -73q-5 -7 -12 -7h-43q-6 0 -7.5 3.5z" />
    <glyph glyph-name="idieresis" unicode="&#xef;" horiz-adv-x="188" 
d="M57 10v486q0 10 10 10h51q10 0 10 -10v-486q0 -10 -10 -10h-51q-10 0 -10 10zM-4.5 617q-12.5 13 -12.5 34q0 20 13 33t32 13t30.5 -13t11.5 -33q0 -21 -11.5 -34t-30.5 -13q-20 0 -32.5 13zM126.5 617q-12.5 13 -12.5 34q0 20 13 33t32 13t31 -13t12 -33q0 -21 -12 -34
t-31 -13q-20 0 -32.5 13z" />
    <glyph glyph-name="eth" unicode="&#xf0;" horiz-adv-x="432" 
d="M380 627q0 -6 -7 -9l-69 -20q-3 -2 -2 -5q60 -103 63 -244v-204q0 -69 -43 -111t-115 -42t-114.5 42t-42.5 111v204q0 67 41.5 110t105.5 43q53 0 84 -34q4 -3 4 2q-10 53 -40 107q-2 4 -5 2l-74 -21l-4 -1q-6 0 -9 8l-4 16l-1 4q0 6 8 9l61 18q5 2 2 5q-25 37 -56 71
q-3 3 -3 6q0 6 8 6h47q6 0 12 -6q35 -39 49 -61q2 -4 5 -2l82 24l4 1q5 0 8 -8l5 -18v-3zM269.5 413.5q-24.5 26.5 -62.5 26.5t-62 -26.5t-24 -69.5v-194q0 -43 24 -69.5t62 -26.5t62.5 26.5t24.5 69.5v194q0 43 -24.5 69.5z" />
    <glyph glyph-name="ntilde" unicode="&#xf1;" horiz-adv-x="424" 
d="M163.5 635.5q-8.5 -5.5 -17.5 -19.5q-7 -10 -15 -3l-14 12q-7 5 -4 13q24 53 67 53q13 0 24 -6t27 -17q13 -11 21 -16t19 -5t20 6t17 21q2 5 6 6t8 -2l14 -11q7 -5 4 -13q-12 -29 -31.5 -42t-37.5 -13q-13 0 -22.5 5.5t-25.5 16.5q-4 3 -11.5 9t-13.5 8.5t-13 2.5
q-13 0 -21.5 -5.5zM335.5 471q33.5 -42 33.5 -117v-344q0 -10 -10 -10h-51q-10 0 -10 10v338q0 49 -21 76t-59 27q-40 0 -63 -29t-23 -79v-333q0 -10 -10 -10h-51q-10 0 -10 10v486q0 10 10 10h51q10 0 10 -10v-33q0 -2 2 -2.5t3 1.5q37 51 104 51q61 0 94.5 -42z" />
    <glyph glyph-name="ograve" unicode="&#xf2;" horiz-adv-x="414" 
d="M92.5 34q-42.5 42 -42.5 111v216q0 68 43 110.5t114 42.5t114.5 -42.5t43.5 -110.5v-216q0 -69 -43 -111t-115 -42t-114.5 42zM269.5 80.5q24.5 26.5 24.5 68.5v207q0 43 -24.5 69.5t-62.5 26.5t-62 -26.5t-24 -69.5v-207q0 -42 24 -68.5t62 -26.5t62.5 26.5zM233 591
q0 -6 -9 -6h-38q-7 0 -12 7l-70 109q-2 4 -2 6q0 6 8 6h47q7 0 12 -7l62 -109q2 -4 2 -6z" />
    <glyph glyph-name="oacute" unicode="&#xf3;" horiz-adv-x="414" 
d="M92.5 34q-42.5 42 -42.5 111v216q0 68 43 110.5t114 42.5t114.5 -42.5t43.5 -110.5v-216q0 -69 -43 -111t-115 -42t-114.5 42zM269.5 80.5q24.5 26.5 24.5 68.5v207q0 43 -24.5 69.5t-62.5 26.5t-62 -26.5t-24 -69.5v-207q0 -42 24 -68.5t62 -26.5t62.5 26.5zM161 588.5
q-2 3.5 1 8.5l62 109q5 7 12 7h47q6 0 7.5 -3.5t-1.5 -8.5l-70 -109q-5 -7 -12 -7h-38q-6 0 -8 3.5z" />
    <glyph glyph-name="ocircumflex" unicode="&#xf4;" horiz-adv-x="414" 
d="M92.5 34q-42.5 42 -42.5 111v216q0 68 43 110.5t114 42.5t114.5 -42.5t43.5 -110.5v-216q0 -69 -43 -111t-115 -42t-114.5 42zM269.5 80.5q24.5 26.5 24.5 68.5v207q0 43 -24.5 69.5t-62.5 26.5t-62 -26.5t-24 -69.5v-207q0 -42 24 -68.5t62 -26.5t62.5 26.5zM97.5 581.5
q-1.5 3.5 1.5 8.5l66 103q5 7 12 7h57q7 0 12 -7l68 -103l2 -5q0 -7 -9 -7h-42q-7 0 -12 7l-44 73q-1 2 -3 2t-3 -2l-43 -73q-5 -7 -12 -7h-43q-6 0 -7.5 3.5z" />
    <glyph glyph-name="otilde" unicode="&#xf5;" horiz-adv-x="414" 
d="M92.5 34q-42.5 42 -42.5 111v216q0 68 43 110.5t114 42.5t114.5 -42.5t43.5 -110.5v-216q0 -69 -43 -111t-115 -42t-114.5 42zM269.5 80.5q24.5 26.5 24.5 68.5v207q0 43 -24.5 69.5t-62.5 26.5t-62 -26.5t-24 -69.5v-207q0 -42 24 -68.5t62 -26.5t62.5 26.5zM244 607.5
q-11 5.5 -29 16.5q-4 3 -13 9t-16 8.5t-15 2.5q-14 0 -24.5 -5.5t-20.5 -20.5q-6 -9 -14 -3l-18 13q-8 6 -4 14q27 52 76 52q15 0 27.5 -6t30.5 -17q2 -2 11 -8t17.5 -9.5t16.5 -3.5q26 0 43 28q2 4 6 5t8 -1l18 -12q4 -3 4 -8t-4 -12q-14 -25 -35 -36.5t-40 -11.5
q-14 0 -25 5.5z" />
    <glyph glyph-name="odieresis" unicode="&#xf6;" horiz-adv-x="414" 
d="M92.5 34q-42.5 42 -42.5 111v216q0 68 43 110.5t114 42.5t114.5 -42.5t43.5 -110.5v-216q0 -69 -43 -111t-115 -42t-114.5 42zM269.5 80.5q24.5 26.5 24.5 68.5v207q0 43 -24.5 69.5t-62.5 26.5t-62 -26.5t-24 -69.5v-207q0 -42 24 -68.5t62 -26.5t62.5 26.5zM110.5 615
q-12.5 13 -12.5 34q0 20 13 33t32 13t30.5 -13t11.5 -33q0 -21 -11.5 -34t-30.5 -13q-20 0 -32.5 13zM241.5 615q-12.5 13 -12.5 34q0 20 13 33t32 13t31 -13t12 -33q0 -21 -12 -34t-31 -13q-20 0 -32.5 13z" />
    <glyph glyph-name="divide" unicode="&#xf7;" horiz-adv-x="442" 
d="M183 441q-15 15 -15 37t15.5 37t36.5 15q22 0 37.5 -15t15.5 -37t-15.5 -37t-37.5 -15t-37 15zM32 308v35q0 10 10 10h358q10 0 10 -10v-35q0 -10 -10 -10h-358q-10 0 -10 10zM183 138q-15 15 -15 37q0 21 15.5 36.5t36.5 15.5q22 0 37.5 -15.5t15.5 -36.5
q0 -22 -15.5 -37t-37.5 -15t-37 15z" />
    <glyph glyph-name="oslash" unicode="&#xf8;" horiz-adv-x="430" 
d="M375 511q1 -4 -1 -8l-25 -49q-1 -2 1 -6q24 -34 24 -87v-216q0 -69 -43 -111t-115 -42q-49 0 -84 20q-5 2 -6 -2l-16 -34q-5 -10 -14 -4l-33 19q-4 2 -5 6t1 8l24 47q1 2 -1 6q-23 35 -23 87v216q0 68 43 110.5t114 42.5q49 0 84 -20q5 -2 6 2l17 35q2 4 6 5t8 -1l33 -18
q4 -2 5 -6zM131.5 153.5q1.5 -0.5 3.5 1.5l136 273q1 4 -1 5q-22 19 -54 19q-38 0 -62 -26.5t-24 -69.5v-199q0 -3 1.5 -3.5zM301.5 354.5q-1.5 0.5 -3.5 -1.5l-137 -275q-1 -4 1 -5q22 -19 54 -19q38 0 62.5 26.5t24.5 68.5v202q0 3 -1.5 3.5z" />
    <glyph glyph-name="ugrave" unicode="&#xf9;" horiz-adv-x="424" 
d="M302 506h51q10 0 10 -10v-486q0 -10 -10 -10h-51q-10 0 -10 10v34q0 3 -1.5 3t-3.5 -2q-31 -52 -100 -52q-60 0 -95.5 36.5t-35.5 110.5v356q0 10 10 10h51q10 0 10 -10v-340q0 -50 20.5 -75.5t59.5 -25.5q40 0 62.5 29t22.5 79v333q0 10 10 10zM235 583q0 -6 -9 -6h-38
q-7 0 -12 7l-70 109q-2 4 -2 6q0 6 8 6h47q7 0 12 -7l62 -109q2 -4 2 -6z" />
    <glyph glyph-name="uacute" unicode="&#xfa;" horiz-adv-x="424" 
d="M302 506h51q10 0 10 -10v-486q0 -10 -10 -10h-51q-10 0 -10 10v34q0 3 -1.5 3t-3.5 -2q-31 -52 -100 -52q-60 0 -95.5 36.5t-35.5 110.5v356q0 10 10 10h51q10 0 10 -10v-340q0 -50 20.5 -75.5t59.5 -25.5q40 0 62.5 29t22.5 79v333q0 10 10 10zM163 580.5q-2 3.5 1 8.5
l62 109q5 7 12 7h47q6 0 7.5 -3.5t-1.5 -8.5l-70 -109q-5 -7 -12 -7h-38q-6 0 -8 3.5z" />
    <glyph glyph-name="ucircumflex" unicode="&#xfb;" horiz-adv-x="424" 
d="M302 506h51q10 0 10 -10v-486q0 -10 -10 -10h-51q-10 0 -10 10v34q0 3 -1.5 3t-3.5 -2q-31 -52 -100 -52q-60 0 -95.5 36.5t-35.5 110.5v356q0 10 10 10h51q10 0 10 -10v-340q0 -50 20.5 -75.5t59.5 -25.5q40 0 62.5 29t22.5 79v333q0 10 10 10zM99.5 573.5
q-1.5 3.5 1.5 8.5l66 103q5 7 12 7h57q7 0 12 -7l68 -103l2 -5q0 -7 -9 -7h-42q-7 0 -12 7l-44 73q-1 2 -3 2t-3 -2l-43 -73q-5 -7 -12 -7h-43q-6 0 -7.5 3.5z" />
    <glyph glyph-name="udieresis" unicode="&#xfc;" horiz-adv-x="424" 
d="M302 506h51q10 0 10 -10v-486q0 -10 -10 -10h-51q-10 0 -10 10v34q0 3 -1.5 3t-3.5 -2q-31 -52 -100 -52q-60 0 -95.5 36.5t-35.5 110.5v356q0 10 10 10h51q10 0 10 -10v-340q0 -50 20.5 -75.5t59.5 -25.5q40 0 62.5 29t22.5 79v333q0 10 10 10zM112.5 607
q-12.5 13 -12.5 34q0 20 13 33t32 13t30.5 -13t11.5 -33q0 -21 -11.5 -34t-30.5 -13q-20 0 -32.5 13zM243.5 607q-12.5 13 -12.5 34q0 20 13 33t32 13t31 -13t12 -33q0 -21 -12 -34t-31 -13q-20 0 -32.5 13z" />
    <glyph glyph-name="yacute" unicode="&#xfd;" horiz-adv-x="367" 
d="M40 -197q-2 3 -2 7v41q0 10 5 10h5q31 0 48.5 11t28.5 39t22 86q1 2 0.5 3.5t-0.5 2.5l-127 492l-1 3q0 8 10 8h54q10 0 11 -9l88 -393q1 -3 2 -3t2 3l87 393q2 9 11 9l56 -1q5 0 7.5 -3t0.5 -8l-139 -538q-18 -67 -35.5 -99t-45.5 -44.5t-79 -12.5h-5q-2 0 -4 3z
M138 580.5q-2 3.5 1 8.5l62 109q5 7 12 7h47q6 0 7.5 -3.5t-1.5 -8.5l-70 -109q-5 -7 -12 -7h-38q-6 0 -8 3.5z" />
    <glyph glyph-name="thorn" unicode="&#xfe;" horiz-adv-x="417" 
d="M367 256q0 -74 -1 -111q-3 -68 -39.5 -110.5t-95.5 -42.5q-65 0 -100 51q-2 2 -3.5 1.5t-1.5 -3.5v-231q0 -10 -10 -10h-51q-10 0 -10 10v880q0 10 10 10h51q10 0 10 -10v-224q0 -2 1.5 -3t3.5 1q17 24 43 37t57 13q60 0 96.5 -41.5t38.5 -108.5q1 -37 1 -108zM273 82
q24 28 23 72v99v64v35q1 45 -23 72.5t-63 27.5q-36 0 -59.5 -27.5t-23.5 -72.5v-198q0 -45 23.5 -72.5t59.5 -27.5q39 0 63 28z" />
    <glyph glyph-name="ydieresis" unicode="&#xff;" horiz-adv-x="367" 
d="M40 -197q-2 3 -2 7v41q0 10 5 10h5q31 0 48.5 11t28.5 39t22 86q1 2 0.5 3.5t-0.5 2.5l-127 492l-1 3q0 8 10 8h54q10 0 11 -9l88 -393q1 -3 2 -3t2 3l87 393q2 9 11 9l56 -1q5 0 7.5 -3t0.5 -8l-139 -538q-18 -67 -35.5 -99t-45.5 -44.5t-79 -12.5h-5q-2 0 -4 3z
M87.5 607q-12.5 13 -12.5 34q0 20 13 33t32 13t30.5 -13t11.5 -33q0 -21 -11.5 -34t-30.5 -13q-20 0 -32.5 13zM218.5 607q-12.5 13 -12.5 34q0 20 13 33t32 13t31 -13t12 -33q0 -21 -12 -34t-31 -13q-20 0 -32.5 13z" />
    <glyph glyph-name="Amacron" unicode="&#x100;" horiz-adv-x="455" 
d="M348 9l-25 124q0 2 -1.5 3t-3.5 1h-181q-2 0 -3.5 -1t-1.5 -3l-26 -124q-1 -9 -11 -9h-51q-5 0 -7.5 3t-1.5 8l151 680q2 9 11 9h60q10 0 11 -9l152 -680v-2q0 -9 -9 -9h-52q-9 0 -11 9zM149 195h157q3 0 3 4l-79 385q-1 3 -2 3t-2 -3l-80 -385q0 -4 3 -4zM124 799v32
q0 10 10 10h183q10 0 10 -10v-32q0 -10 -10 -10h-183q-10 0 -10 10z" />
    <glyph glyph-name="amacron" unicode="&#x101;" horiz-adv-x="411" 
d="M319.5 468.5q41.5 -45.5 41.5 -121.5v-337q0 -10 -10 -10h-51q-10 0 -10 10v29q0 2 -1.5 2.5t-3.5 -1.5q-37 -48 -110 -48q-55 0 -95.5 31.5t-40.5 111.5q0 85 49 124.5t129 39.5h69q4 0 4 4v39q0 50 -22.5 80t-61.5 30q-30 0 -52 -20t-25 -51q-1 -10 -11 -10l-55 1
q-5 0 -7.5 3t-1.5 7q5 59 48 95.5t106 36.5q70 0 111.5 -45.5zM260.5 80.5q29.5 26.5 29.5 73.5v84q0 4 -4 4h-70q-48 0 -76 -25.5t-28 -75.5q0 -44 21.5 -65.5t56.5 -21.5q41 0 70.5 26.5zM103 613v32q0 10 10 10h183q10 0 10 -10v-32q0 -10 -10 -10h-183q-10 0 -10 10z
" />
    <glyph glyph-name="Abreve" unicode="&#x102;" horiz-adv-x="455" 
d="M348 9l-25 124q0 2 -1.5 3t-3.5 1h-181q-2 0 -3.5 -1t-1.5 -3l-26 -124q-1 -9 -11 -9h-51q-5 0 -7.5 3t-1.5 8l151 680q2 9 11 9h60q10 0 11 -9l152 -680v-2q0 -9 -9 -9h-52q-9 0 -11 9zM149 195h157q3 0 3 4l-79 385q-1 3 -2 3t-2 -3l-80 -385q0 -4 3 -4zM155 779
q-29 27 -33 68q0 10 10 10h23q10 0 11 -10q3 -25 20 -41t41 -16t41 16t20 41q1 10 11 10h23q10 0 10 -10q-4 -42 -33 -68.5t-72 -26.5t-72 27z" />
    <glyph glyph-name="abreve" unicode="&#x103;" horiz-adv-x="411" 
d="M319.5 468.5q41.5 -45.5 41.5 -121.5v-337q0 -10 -10 -10h-51q-10 0 -10 10v29q0 2 -1.5 2.5t-3.5 -1.5q-37 -48 -110 -48q-55 0 -95.5 31.5t-40.5 111.5q0 85 49 124.5t129 39.5h69q4 0 4 4v39q0 50 -22.5 80t-61.5 30q-30 0 -52 -20t-25 -51q-1 -10 -11 -10l-55 1
q-5 0 -7.5 3t-1.5 7q5 59 48 95.5t106 36.5q70 0 111.5 -45.5zM260.5 80.5q29.5 26.5 29.5 73.5v84q0 4 -4 4h-70q-48 0 -76 -25.5t-28 -75.5q0 -44 21.5 -65.5t56.5 -21.5q41 0 70.5 26.5zM134 593q-29 27 -33 68q0 10 10 10h23q10 0 11 -10q3 -25 20 -41t41 -16t41 16
t20 41q1 10 11 10h23q10 0 10 -10q-4 -42 -33 -68.5t-72 -26.5t-72 27z" />
    <glyph glyph-name="Aogonek" unicode="&#x104;" horiz-adv-x="472" 
d="M348 9l-25 124q0 2 -1.5 3t-3.5 1h-181q-2 0 -3.5 -1t-1.5 -3l-26 -124q-1 -9 -11 -9h-51q-5 0 -7.5 3t-1.5 8l151 680q2 9 11 9h60q10 0 11 -9l152 -680v-2q0 -9 -9 -9h-52q-9 0 -11 9zM149 195h157q3 0 3 4l-79 385q-1 3 -2 3t-2 -3l-80 -385q0 -4 3 -4zM432 -173
q0 -6 -7 -9q-13 -3 -29 -3q-34 0 -57 18.5t-23 63.5q0 25 11 50t34 46l4 4q3 3 10 3h27q8 0 8 -5q0 -4 -4 -7q-41 -43 -41 -85q0 -24 12 -35t30 -11q7 0 10 1l4 1q6 0 8 -8l3 -21v-3z" />
    <glyph glyph-name="aogonek" unicode="&#x105;" horiz-adv-x="600" 
d="M363 -141q6 0 8 -8l3 -21v-3q0 -6 -7 -9q-14 -3 -29 -3q-34 0 -57 18.5t-23 63.5q0 55 46 98q2 2 2.5 3.5t-1.5 1.5h-5q-10 0 -10 10v29q0 2 -1.5 2.5t-3.5 -1.5q-37 -48 -110 -48q-55 0 -95.5 31.5t-40.5 111.5q0 85 49 124.5t129 39.5h69q4 0 4 4v39q0 50 -22.5 80
t-61.5 30q-30 0 -52 -20t-25 -51q-1 -10 -11 -10l-55 1q-5 0 -7.5 3t-1.5 7q5 59 48.5 95.5t105.5 36.5q70 0 111.5 -45.5t41.5 -121.5v-340q0 -5 -5 -12q-23 -20 -36 -44t-13 -47q0 -24 12 -35.5t30 -11.5q7 0 10 1zM260.5 80.5q29.5 26.5 29.5 73.5v84q0 4 -4 4h-70
q-48 0 -76 -25.5t-28 -75.5q0 -44 21.5 -65.5t56.5 -21.5q41 0 70.5 26.5z" />
    <glyph glyph-name="Cacute" unicode="&#x106;" horiz-adv-x="446" 
d="M101.5 39q-46.5 47 -46.5 126v371q0 78 46.5 125t123.5 47q78 0 124.5 -46.5t46.5 -125.5v-17q0 -10 -10 -10l-52 -3q-10 0 -10 10v25q0 47 -27 76t-72 29q-44 0 -71.5 -29t-27.5 -76v-382q0 -47 27.5 -76t71.5 -29q45 0 72 29t27 76v25q0 10 10 10l52 -3q10 0 10 -10
v-16q0 -79 -47 -126t-124 -47t-123.5 47zM179 782.5q-2 3.5 1 8.5l62 109q5 7 12 7h47q6 0 7.5 -3.5t-1.5 -8.5l-70 -109q-5 -7 -12 -7h-38q-6 0 -8 3.5z" />
    <glyph glyph-name="cacute" unicode="&#x107;" horiz-adv-x="402" 
d="M92.5 34q-42.5 42 -42.5 111v216q0 68 43 110.5t113 42.5q47 0 83 -19t55.5 -50.5t19.5 -69.5v-10q0 -10 -10 -10l-51 -2q-4 0 -7 2.5t-3 6.5v8q0 33 -24.5 57.5t-62.5 24.5t-61.5 -26.5t-23.5 -69.5v-206q0 -43 23.5 -69.5t61.5 -26.5t62.5 24.5t24.5 57.5v7q0 10 10 10
l51 -1q10 0 10 -10v-11q0 -60 -43.5 -99.5t-114.5 -39.5t-113.5 42zM160 589.5q-2 3.5 1 8.5l62 109q5 7 12 7h47q6 0 7.5 -3.5t-1.5 -8.5l-70 -109q-5 -7 -12 -7h-38q-6 0 -8 3.5z" />
    <glyph glyph-name="Cdotaccent" unicode="&#x10a;" horiz-adv-x="446" 
d="M101.5 39q-46.5 47 -46.5 126v371q0 78 46.5 125t123.5 47q78 0 124.5 -46.5t46.5 -125.5v-17q0 -10 -10 -10l-52 -3q-10 0 -10 10v25q0 47 -27 76t-72 29q-44 0 -71.5 -29t-27.5 -76v-382q0 -47 27.5 -76t71.5 -29q45 0 72 29t27 76v25q0 10 10 10l52 -3q10 0 10 -10
v-16q0 -79 -47 -126t-124 -47t-123.5 47zM195 794.5q-12 12.5 -12 31.5t12 31.5t30 12.5t29 -12t11 -32q0 -19 -11 -31.5t-29 -12.5t-30 12.5z" />
    <glyph glyph-name="cdotaccent" unicode="&#x10b;" horiz-adv-x="402" 
d="M92.5 34q-42.5 42 -42.5 111v216q0 68 43 110.5t113 42.5q47 0 83 -19t55.5 -50.5t19.5 -69.5v-10q0 -10 -10 -10l-51 -2q-4 0 -7 2.5t-3 6.5v8q0 33 -24.5 57.5t-62.5 24.5t-61.5 -26.5t-23.5 -69.5v-206q0 -43 23.5 -69.5t61.5 -26.5t62.5 24.5t24.5 57.5v7q0 10 10 10
l51 -1q10 0 10 -10v-11q0 -60 -43.5 -99.5t-114.5 -39.5t-113.5 42zM176 601.5q-12 12.5 -12 31.5t12 31.5t30 12.5t29 -12t11 -32q0 -19 -11 -31.5t-29 -12.5t-30 12.5z" />
    <glyph glyph-name="Ccaron" unicode="&#x10c;" horiz-adv-x="446" 
d="M101.5 39q-46.5 47 -46.5 126v371q0 78 46.5 125t123.5 47q78 0 124.5 -46.5t46.5 -125.5v-17q0 -10 -10 -10l-52 -3q-10 0 -10 10v25q0 47 -27 76t-72 29q-44 0 -71.5 -29t-27.5 -76v-382q0 -47 27.5 -76t71.5 -29q45 0 72 29t27 76v25q0 10 10 10l52 -3q10 0 10 -10
v-16q0 -79 -47 -126t-124 -47t-123.5 47zM184 776l-66 102q-2 4 -2 6q0 6 8 6h42q7 0 12 -7l45 -72q1 -1 3 -1t3 1l43 72q5 7 12 7h39q6 0 8 -3.5t-1 -8.5l-68 -103q-4 -6 -12 -6h-54q-7 0 -12 7z" />
    <glyph glyph-name="ccaron" unicode="&#x10d;" horiz-adv-x="402" 
d="M92.5 34q-42.5 42 -42.5 111v216q0 68 43 110.5t113 42.5q47 0 83 -19t55.5 -50.5t19.5 -69.5v-10q0 -10 -10 -10l-51 -2q-4 0 -7 2.5t-3 6.5v8q0 33 -24.5 57.5t-62.5 24.5t-61.5 -26.5t-23.5 -69.5v-206q0 -43 23.5 -69.5t61.5 -26.5t62.5 24.5t24.5 57.5v7q0 10 10 10
l51 -1q10 0 10 -10v-11q0 -60 -43.5 -99.5t-114.5 -39.5t-113.5 42zM165 583l-66 102q-2 4 -2 6q0 6 8 6h42q7 0 12 -7l45 -72q1 -1 3 -1t3 1l43 72q5 7 12 7h39q6 0 8 -3.5t-1 -8.5l-68 -103q-4 -6 -12 -6h-54q-7 0 -12 7z" />
    <glyph glyph-name="Dcaron" unicode="&#x10e;" horiz-adv-x="465" 
d="M72 10v680q0 10 10 10h154q77 0 123 -50.5t46 -135.5v-328q0 -85 -46 -135.5t-123 -50.5h-154q-10 0 -10 10zM147 62l88 1q44 0 70.5 34t27.5 92v322q0 59 -26 93t-72 34h-88q-4 0 -4 -4v-568q0 -4 4 -4zM189 765l-66 103q-2 4 -2 6q0 6 8 6h42q7 0 12 -7l45 -72
q1 -1 3 -1t3 1l43 72q5 7 12 7h40q6 0 7.5 -3.5t-1.5 -8.5l-68 -103q-5 -7 -12 -7h-54q-7 0 -12 7z" />
    <glyph glyph-name="dcaron" unicode="&#x10f;" horiz-adv-x="556" 
d="M301 700h51q10 0 10 -10v-680q0 -10 -10 -10h-51q-10 0 -10 10v29q0 2 -1.5 3t-3.5 -1q-17 -24 -42.5 -36.5t-56.5 -12.5q-59 0 -95.5 42.5t-39.5 110.5q-1 37 -1 111q0 71 1 108q2 67 38.5 108.5t96.5 41.5q65 0 99 -48q2 -2 3.5 -1t1.5 3v222q0 10 10 10zM267.5 81.5
q23.5 27.5 23.5 72.5v198q0 45 -23.5 72.5t-59.5 27.5q-39 0 -63 -27.5t-23 -72.5v-35v-64v-99q-1 -44 23 -72t63 -28q36 0 59.5 27.5zM420 580.5q-2 3.5 1 8.5l62 109q5 7 12 7h47q6 0 7.5 -3.5t-1.5 -8.5l-70 -109q-5 -7 -12 -7h-38q-6 0 -8 3.5z" />
    <glyph glyph-name="Dcroat" unicode="&#x110;" horiz-adv-x="509" 
d="M402 649.5q46 -50.5 46 -135.5v-328q0 -85 -46 -135.5t-123 -50.5h-154q-10 0 -10 10v329q0 4 -4 4h-29q-10 0 -10 10v26q0 10 10 10h29q4 0 4 4v297q0 10 10 10h154q77 0 123 -50.5zM376 511q0 59 -26 93t-72 34h-88q-4 0 -4 -4v-241q0 -4 4 -4h75q10 0 10 -10v-26
q0 -10 -10 -10h-75q-4 0 -4 -4v-273q0 -4 4 -4l88 1q44 0 70.5 34t27.5 92v322z" />
    <glyph glyph-name="dcroat" unicode="&#x111;" horiz-adv-x="600" 
d="M414 605v-28q0 -10 -10 -10h-38q-4 0 -4 -4v-553q0 -10 -10 -10h-51q-10 0 -10 10v29q0 2 -1.5 3t-3.5 -1q-17 -24 -42.5 -36.5t-56.5 -12.5q-59 0 -95.5 42.5t-39.5 110.5q-1 37 -1 111q0 71 1 108q2 67 38.5 108.5t96.5 41.5q65 0 99 -48q2 -2 3.5 -1t1.5 3v95
q0 4 -4 4h-135q-10 0 -10 10v28q0 10 10 10h135q4 0 4 4v71q0 10 10 10h51q10 0 10 -10v-71q0 -4 4 -4h38q10 0 10 -10zM267.5 81.5q23.5 27.5 23.5 72.5v198q0 45 -23.5 72.5t-59.5 27.5q-39 0 -63 -27.5t-23 -72.5v-35v-64v-99q-1 -44 23 -72t63 -28q36 0 59.5 27.5z" />
    <glyph glyph-name="Emacron" unicode="&#x112;" horiz-adv-x="429" 
d="M379 638h-232q-4 0 -4 -4v-248q0 -4 4 -4h146q10 0 10 -10v-43q0 -10 -10 -10h-146q-4 0 -4 -4v-249q0 -4 4 -4h232q10 0 10 -10v-42q0 -10 -10 -10h-297q-10 0 -10 10v680q0 10 10 10h297q10 0 10 -10v-42q0 -10 -10 -10zM128 810v32q0 10 10 10h183q10 0 10 -10v-32
q0 -10 -10 -10h-183q-10 0 -10 10z" />
    <glyph glyph-name="emacron" unicode="&#x113;" horiz-adv-x="407" 
d="M353 226h-228q-4 0 -4 -4v-73q0 -42 23.5 -68.5t61.5 -26.5q32 0 54.5 19.5t29.5 50.5q3 9 11 9l50 -2q4 0 7 -3t2 -8q-8 -59 -48.5 -93.5t-105.5 -34.5q-71 0 -113.5 42t-42.5 111v216q0 68 42.5 110.5t113.5 42.5q72 0 114.5 -42.5t42.5 -110.5v-125q0 -10 -10 -10z
M144.5 425.5q-23.5 -26.5 -23.5 -69.5v-67q0 -4 4 -4h164q4 0 4 4v67q0 43 -24 69.5t-63 26.5q-38 0 -61.5 -26.5zM103 613v32q0 10 10 10h183q10 0 10 -10v-32q0 -10 -10 -10h-183q-10 0 -10 10z" />
    <glyph glyph-name="Edotaccent" unicode="&#x116;" horiz-adv-x="429" 
d="M379 638h-232q-4 0 -4 -4v-248q0 -4 4 -4h146q10 0 10 -10v-43q0 -10 -10 -10h-146q-4 0 -4 -4v-249q0 -4 4 -4h232q10 0 10 -10v-42q0 -10 -10 -10h-297q-10 0 -10 10v680q0 10 10 10h297q10 0 10 -10v-42q0 -10 -10 -10zM201 797.5q-12 12.5 -12 31.5t12 31.5t30 12.5
t29 -12t11 -32q0 -19 -11 -31.5t-29 -12.5t-30 12.5z" />
    <glyph glyph-name="edotaccent" unicode="&#x117;" horiz-adv-x="407" 
d="M353 226h-228q-4 0 -4 -4v-73q0 -42 23.5 -68.5t61.5 -26.5q32 0 54.5 19.5t29.5 50.5q3 9 11 9l50 -2q4 0 7 -3t2 -8q-8 -59 -48.5 -93.5t-105.5 -34.5q-71 0 -113.5 42t-42.5 111v216q0 68 42.5 110.5t113.5 42.5q72 0 114.5 -42.5t42.5 -110.5v-125q0 -10 -10 -10z
M144.5 425.5q-23.5 -26.5 -23.5 -69.5v-67q0 -4 4 -4h164q4 0 4 4v67q0 43 -24 69.5t-63 26.5q-38 0 -61.5 -26.5zM176 600.5q-12 12.5 -12 31.5t12 31.5t30 12.5t29 -12t11 -32q0 -19 -11 -31.5t-29 -12.5t-30 12.5z" />
    <glyph glyph-name="Eogonek" unicode="&#x118;" horiz-adv-x="429" 
d="M379 638h-232q-4 0 -4 -4v-248q0 -4 4 -4h146q10 0 10 -10v-43q0 -10 -10 -10h-146q-4 0 -4 -4v-249q0 -4 4 -4h232q10 0 10 -10v-42q0 -10 -10 -10h-124q-3 0 -5 -2q-45 -45 -45 -87q0 -25 12 -36.5t30 -11.5q7 0 10 1l4 1q6 0 8 -8l3 -21v-3q0 -6 -7 -9q-13 -3 -29 -3
q-34 0 -57.5 18.5t-23.5 64.5q0 47 41 91q2 2 1 3.5t-3 1.5h-112q-10 0 -10 10v680q0 10 10 10h297q10 0 10 -10v-42q0 -10 -10 -10z" />
    <glyph glyph-name="eogonek" unicode="&#x119;" horiz-adv-x="407" 
d="M353 226h-228q-4 0 -4 -4v-73q0 -42 23.5 -68.5t61.5 -26.5q32 0 54.5 19.5t29.5 50.5q3 9 11 9l50 -2q4 0 7 -3t2 -8q-7 -52 -39 -85t-84 -41q-3 0 -5 -2q-47 -47 -47 -90q0 -24 12 -35.5t30 -11.5q7 0 10 1l4 1q6 0 8 -8l3 -21v-3q0 -6 -7 -9q-13 -3 -29 -3
q-34 0 -57.5 18.5t-23.5 64.5q0 50 44 93q3 3 -2 5q-59 8 -93 48.5t-34 102.5v216q0 68 42.5 110.5t113.5 42.5q72 0 114.5 -42.5t42.5 -110.5v-125q0 -10 -10 -10zM144.5 425.5q-23.5 -26.5 -23.5 -69.5v-67q0 -4 4 -4h164q4 0 4 4v67q0 43 -24 69.5t-63 26.5
q-38 0 -61.5 -26.5z" />
    <glyph glyph-name="Ecaron" unicode="&#x11a;" horiz-adv-x="429" 
d="M379 638h-232q-4 0 -4 -4v-248q0 -4 4 -4h146q10 0 10 -10v-43q0 -10 -10 -10h-146q-4 0 -4 -4v-249q0 -4 4 -4h232q10 0 10 -10v-42q0 -10 -10 -10h-297q-10 0 -10 10v680q0 10 10 10h297q10 0 10 -10v-42q0 -10 -10 -10zM190 779l-66 102q-2 4 -2 6q0 6 8 6h42
q7 0 12 -7l45 -72q1 -1 3 -1t3 1l43 72q5 7 12 7h39q6 0 8 -3.5t-1 -8.5l-68 -103q-4 -6 -12 -6h-54q-7 0 -12 7z" />
    <glyph glyph-name="ecaron" unicode="&#x11b;" horiz-adv-x="407" 
d="M353 226h-228q-4 0 -4 -4v-73q0 -42 23.5 -68.5t61.5 -26.5q32 0 54.5 19.5t29.5 50.5q3 9 11 9l50 -2q4 0 7 -3t2 -8q-8 -59 -48.5 -93.5t-105.5 -34.5q-71 0 -113.5 42t-42.5 111v216q0 68 42.5 110.5t113.5 42.5q72 0 114.5 -42.5t42.5 -110.5v-125q0 -10 -10 -10z
M144.5 425.5q-23.5 -26.5 -23.5 -69.5v-67q0 -4 4 -4h164q4 0 4 4v67q0 43 -24 69.5t-63 26.5q-38 0 -61.5 -26.5zM165 574l-66 103q-2 4 -2 6q0 6 8 6h42q7 0 12 -7l45 -72q1 -1 3 -1t3 1l43 72q5 7 12 7h40q6 0 7.5 -3.5t-1.5 -8.5l-68 -103q-5 -7 -12 -7h-54q-7 0 -12 7z
" />
    <glyph glyph-name="Gbreve" unicode="&#x11e;" horiz-adv-x="445" 
d="M102 37.5q-46 45.5 -46 121.5v382q0 76 46 121.5t123 45.5t123.5 -46t46.5 -122v-43q0 -10 -10 -10h-51q-10 0 -10 10v45q0 47 -27 75.5t-72 28.5q-44 0 -71.5 -29t-27.5 -75v-384q0 -46 27.5 -75t71.5 -29q45 0 72 28.5t27 75.5v128q0 4 -4 4h-86q-10 0 -10 10v42
q0 10 10 10h151q10 0 10 -10v-183q0 -76 -46.5 -121.5t-123.5 -45.5t-123 45.5zM153 787q-29 27 -33 68q0 10 10 10h23q10 0 11 -10q3 -25 20 -41t41 -16t41 16t20 41q1 10 11 10h23q10 0 10 -10q-4 -42 -33 -68.5t-72 -26.5t-72 27z" />
    <glyph glyph-name="gbreve" unicode="&#x11f;" horiz-adv-x="413" 
d="M301 506h51q10 0 10 -10v-486q0 -107 -49.5 -162.5t-165.5 -50.5q-10 1 -10 11v43q0 10 10 10q80 -2 112 36.5t32 118.5v30q0 2 -1.5 3t-3.5 -1q-17 -25 -43.5 -38t-56.5 -13q-63 0 -99.5 42t-36.5 111v211q0 70 36.5 111.5t99.5 41.5q30 0 56.5 -12.5t43.5 -37.5
q2 -3 3.5 -2.5t1.5 3.5v31q0 10 10 10zM267.5 85.5q23.5 26.5 23.5 68.5v202q0 43 -23.5 69.5t-60.5 26.5q-38 0 -62 -26.5t-24 -69.5v-202q0 -42 24 -68.5t62 -26.5q37 0 60.5 26.5zM135 591q-29 27 -33 68q0 10 10 10h23q10 0 11 -10q3 -25 20 -41t41 -16t41 16t20 41
q1 10 11 10h23q10 0 10 -10q-4 -42 -33 -68.5t-72 -26.5t-72 27z" />
    <glyph glyph-name="Gdotaccent" unicode="&#x120;" horiz-adv-x="445" 
d="M102 37.5q-46 45.5 -46 121.5v382q0 76 46 121.5t123 45.5t123.5 -46t46.5 -122v-43q0 -10 -10 -10h-51q-10 0 -10 10v45q0 47 -27 75.5t-72 28.5q-44 0 -71.5 -29t-27.5 -75v-384q0 -46 27.5 -75t71.5 -29q45 0 72 28.5t27 75.5v128q0 4 -4 4h-86q-10 0 -10 10v42
q0 10 10 10h151q10 0 10 -10v-183q0 -76 -46.5 -121.5t-123.5 -45.5t-123 45.5zM195 794.5q-12 12.5 -12 31.5t12 31.5t30 12.5t29 -12t11 -32q0 -19 -11 -31.5t-29 -12.5t-30 12.5z" />
    <glyph glyph-name="gdotaccent" unicode="&#x121;" horiz-adv-x="413" 
d="M301 506h51q10 0 10 -10v-486q0 -107 -49.5 -162.5t-165.5 -50.5q-10 1 -10 11v43q0 10 10 10q80 -2 112 36.5t32 118.5v30q0 2 -1.5 3t-3.5 -1q-17 -25 -43.5 -38t-56.5 -13q-63 0 -99.5 42t-36.5 111v211q0 70 36.5 111.5t99.5 41.5q30 0 56.5 -12.5t43.5 -37.5
q2 -3 3.5 -2.5t1.5 3.5v31q0 10 10 10zM267.5 85.5q23.5 26.5 23.5 68.5v202q0 43 -23.5 69.5t-60.5 26.5q-38 0 -62 -26.5t-24 -69.5v-202q0 -42 24 -68.5t62 -26.5q37 0 60.5 26.5zM177 598.5q-12 12.5 -12 31.5t12 31.5t30 12.5t29 -12t11 -32q0 -19 -11 -31.5t-29 -12.5
t-30 12.5z" />
    <glyph glyph-name="uni0122" unicode="&#x122;" horiz-adv-x="445" 
d="M102 37.5q-46 45.5 -46 121.5v382q0 76 46 121.5t123 45.5t123.5 -46t46.5 -122v-43q0 -10 -10 -10h-51q-10 0 -10 10v45q0 47 -27 75.5t-72 28.5q-44 0 -71.5 -29t-27.5 -75v-384q0 -46 27.5 -75t71.5 -29q45 0 72 28.5t27 75.5v128q0 4 -4 4h-86q-10 0 -10 10v42
q0 10 10 10h151q10 0 10 -10v-183q0 -76 -46.5 -121.5t-123.5 -45.5t-123 45.5zM173 -189.5q-2 3.5 1 8.5l62 109q5 7 12 7h47q6 0 7.5 -3.5t-1.5 -8.5l-70 -109q-5 -7 -12 -7h-38q-6 0 -8 3.5z" />
    <glyph glyph-name="uni0123" unicode="&#x123;" horiz-adv-x="413" 
d="M256 693.5q2 -3.5 -1 -8.5l-62 -109q-5 -7 -12 -7h-47q-6 0 -7.5 3.5t1.5 8.5l70 109q5 7 12 7h38q6 0 8 -3.5zM301 506h51q10 0 10 -10v-486q0 -107 -49.5 -162.5t-165.5 -50.5q-10 1 -10 11v43q0 10 10 10q80 -2 112 36.5t32 118.5v30q0 2 -1.5 3t-3.5 -1
q-17 -25 -43.5 -38t-56.5 -13q-63 0 -99.5 42t-36.5 111v211q0 70 36.5 111.5t99.5 41.5q30 0 56.5 -12.5t43.5 -37.5q2 -3 3.5 -2.5t1.5 3.5v31q0 10 10 10zM267.5 85.5q23.5 26.5 23.5 68.5v202q0 43 -23.5 69.5t-60.5 26.5q-38 0 -62 -26.5t-24 -69.5v-202
q0 -42 24 -68.5t62 -26.5q37 0 60.5 26.5z" />
    <glyph glyph-name="Hbar" unicode="&#x126;" horiz-adv-x="472" 
d="M448 549v-31q0 -10 -10 -10h-34q-4 0 -4 -4v-494q0 -10 -10 -10h-51q-10 0 -10 10v305q0 4 -4 4h-178q-4 0 -4 -4v-305q0 -10 -10 -10h-51q-10 0 -10 10v494q0 4 -4 4h-34q-10 0 -10 10v31q0 10 10 10h34q4 0 4 4v127q0 10 10 10h51q10 0 10 -10v-127q0 -4 4 -4h178
q4 0 4 4v127q0 10 10 10h51q10 0 10 -10v-127q0 -4 4 -4h34q10 0 10 -10zM329 386v118q0 4 -4 4h-178q-4 0 -4 -4v-118q0 -4 4 -4h178q4 0 4 4z" />
    <glyph glyph-name="hbar" unicode="&#x127;" horiz-adv-x="424" 
d="M335.5 471q33.5 -42 33.5 -117v-344q0 -10 -10 -10h-51q-10 0 -10 10v338q0 49 -21 76t-59 27q-40 0 -63 -29t-23 -79v-333q0 -10 -10 -10h-51q-10 0 -10 10v539q0 4 -4 4h-42q-10 0 -10 10v28q0 10 10 10h42q4 0 4 4v85q0 10 10 10h51q10 0 10 -10v-85q0 -4 4 -4h131
q10 0 10 -10v-28q0 -10 -10 -10h-131q-4 0 -4 -4v-86q0 -2 2 -2.5t3 1.5q37 51 104 51q61 0 94.5 -42z" />
    <glyph glyph-name="Imacron" unicode="&#x12a;" horiz-adv-x="215" 
d="M72 10v680q0 10 10 10h51q10 0 10 -10v-680q0 -10 -10 -10h-51q-10 0 -10 10zM4 810v32q0 10 10 10h183q10 0 10 -10v-32q0 -10 -10 -10h-183q-10 0 -10 10z" />
    <glyph glyph-name="imacron" unicode="&#x12b;" horiz-adv-x="188" 
d="M57 10v486q0 10 10 10h51q10 0 10 -10v-486q0 -10 -10 -10h-51q-10 0 -10 10zM-11 615v32q0 10 10 10h183q10 0 10 -10v-32q0 -10 -10 -10h-183q-10 0 -10 10z" />
    <glyph glyph-name="Iogonek" unicode="&#x12e;" horiz-adv-x="270" 
d="M109 10v680q0 10 10 10h51q10 0 10 -10v-680q0 -10 -10 -10h-51q-10 0 -10 10zM193 -173q0 -6 -7 -9q-13 -3 -29 -3q-34 0 -57 18.5t-23 63.5q0 25 11 50t34 46l4 4q3 3 10 3h27q8 0 8 -5q0 -4 -4 -7q-41 -43 -41 -85q0 -24 12 -35t30 -11q7 0 10 1l4 1q6 0 8 -8l3 -21
v-3z" />
    <glyph glyph-name="iogonek" unicode="&#x12f;" horiz-adv-x="230" 
d="M90 10v486q0 10 10 10h51q10 0 10 -10v-486q0 -10 -10 -10h-51q-10 0 -10 10zM95 602.5q-12 12.5 -12 31.5t12 31.5t30 12.5t29 -12t11 -32q0 -19 -11 -31.5t-29 -12.5t-30 12.5zM173 -173q0 -6 -7 -9q-13 -3 -29 -3q-34 0 -57 18.5t-23 63.5q0 25 11 50t34 46l4 4
q3 3 10 3h27q8 0 8 -5q0 -4 -4 -7q-41 -43 -41 -85q0 -24 12 -35t30 -11q7 0 10 1l4 1q6 0 8 -8l3 -21v-3z" />
    <glyph glyph-name="Idotaccent" unicode="&#x130;" horiz-adv-x="215" 
d="M72 10v680q0 10 10 10h51q10 0 10 -10v-680q0 -10 -10 -10h-51q-10 0 -10 10zM77 797.5q-12 12.5 -12 31.5t12 31.5t30 12.5t29 -12t11 -32q0 -19 -11 -31.5t-29 -12.5t-30 12.5z" />
    <glyph glyph-name="dotlessi" unicode="&#x131;" horiz-adv-x="188" 
d="M57 10v486q0 10 10 10h51q10 0 10 -10v-486q0 -10 -10 -10h-51q-10 0 -10 10z" />
    <glyph glyph-name="ij" unicode="&#x133;" horiz-adv-x="392" 
d="M66 611q-14 15 -14 38q0 22 14 36.5t36 14.5q21 0 34.5 -14.5t13.5 -36.5q0 -23 -13.5 -38t-34.5 -15q-22 0 -36 15zM66 10v486q0 10 10 10h51q10 0 10 -10v-486q0 -10 -10 -10h-51q-10 0 -10 10zM259.5 611.5q-13.5 14.5 -13.5 37.5t14.5 37.5t34.5 14.5
q21 0 35.5 -14.5t14.5 -37.5t-14 -37.5t-36 -14.5t-35.5 14.5zM169 -198v42q0 10 10 10q81 3 81 102v540q0 10 10 10h51q10 0 10 -10v-540q0 -82 -32 -123t-120 -41q-10 0 -10 10z" />
    <glyph glyph-name="uni0136" unicode="&#x136;" horiz-adv-x="452" 
d="M72 10v680q0 10 10 10h51q10 0 10 -10v-324q0 -3 2 -4t3 2l193 329q5 7 12 7h56q6 0 8 -3.5t-1 -8.5l-156 -271q-2 -4 -1 -6l172 -399l1 -4q0 -8 -9 -8h-57q-8 0 -11 8l-144 340q-1 4 -5 0l-62 -96q-1 -1 -1 -5v-237q0 -10 -10 -10h-51q-10 0 -10 10zM199 -181.5
q-2 3.5 1 8.5l62 109q5 7 12 7h47q6 0 7.5 -3.5t-1.5 -8.5l-70 -109q-5 -7 -12 -7h-38q-6 0 -8 3.5z" />
    <glyph glyph-name="uni0137" unicode="&#x137;" horiz-adv-x="405" 
d="M61 10v680q0 10 10 10h51q10 0 10 -10v-402q0 -2 2 -3t3 1l150 214q4 6 12 6h52q6 0 8 -3.5t-2 -8.5l-99 -142q-3 -3 -1 -6l118 -335l1 -4q0 -7 -9 -7h-53q-9 0 -12 8l-89 278q-1 6 -6 1l-73 -104q-2 -2 -2 -5v-168q0 -10 -10 -10h-51q-10 0 -10 10zM165 -181.5
q-2 3.5 1 8.5l62 109q5 7 12 7h47q6 0 7.5 -3.5t-1.5 -8.5l-70 -109q-5 -7 -12 -7h-38q-6 0 -8 3.5z" />
    <glyph glyph-name="Lacute" unicode="&#x139;" horiz-adv-x="396" 
d="M72 10v680q0 10 10 10h51q10 0 10 -10v-624q0 -4 4 -4h229q10 0 10 -10v-42q0 -10 -10 -10h-294q-10 0 -10 10zM61 774.5q-2 3.5 1 8.5l62 109q5 7 12 7h47q6 0 7.5 -3.5t-1.5 -8.5l-70 -109q-5 -7 -12 -7h-38q-6 0 -8 3.5z" />
    <glyph glyph-name="lacute" unicode="&#x13a;" horiz-adv-x="181" 
d="M55 10v680q0 10 10 10h51q10 0 10 -10v-680q0 -10 -10 -10h-51q-10 0 -10 10zM45 774.5q-2 3.5 1 8.5l62 109q5 7 12 7h47q6 0 7.5 -3.5t-1.5 -8.5l-70 -109q-5 -7 -12 -7h-38q-6 0 -8 3.5z" />
    <glyph glyph-name="uni013B" unicode="&#x13b;" horiz-adv-x="396" 
d="M72 10v680q0 10 10 10h51q10 0 10 -10v-624q0 -4 4 -4h229q10 0 10 -10v-42q0 -10 -10 -10h-294q-10 0 -10 10zM150 -181.5q-2 3.5 1 8.5l62 109q5 7 12 7h47q6 0 7.5 -3.5t-1.5 -8.5l-70 -109q-5 -7 -12 -7h-38q-6 0 -8 3.5z" />
    <glyph glyph-name="uni013C" unicode="&#x13c;" horiz-adv-x="181" 
d="M55 10v680q0 10 10 10h51q10 0 10 -10v-680q0 -10 -10 -10h-51q-10 0 -10 10zM-13 -181.5q-2 3.5 1 8.5l62 109q5 7 12 7h47q6 0 7.5 -3.5t-1.5 -8.5l-70 -109q-5 -7 -12 -7h-38q-6 0 -8 3.5z" />
    <glyph glyph-name="Lcaron" unicode="&#x13d;" horiz-adv-x="396" 
d="M72 10v680q0 10 10 10h51q10 0 10 -10v-624q0 -4 4 -4h229q10 0 10 -10v-42q0 -10 -10 -10h-294q-10 0 -10 10zM66 760l-66 103q-2 4 -2 6q0 6 8 6h42q7 0 12 -7l45 -72q1 -1 3 -1t3 1l43 72q5 7 12 7h40q6 0 7.5 -3.5t-1.5 -8.5l-68 -103q-5 -7 -12 -7h-54q-7 0 -12 7z
" />
    <glyph glyph-name="lcaron" unicode="&#x13e;" horiz-adv-x="181" 
d="M55 10v680q0 10 10 10h51q10 0 10 -10v-680q0 -10 -10 -10h-51q-10 0 -10 10zM50 760l-66 103q-2 4 -2 6q0 6 8 6h42q7 0 12 -7l45 -72q1 -1 3 -1t3 1l43 72q5 7 12 7h40q6 0 7.5 -3.5t-1.5 -8.5l-68 -103q-5 -7 -12 -7h-54q-7 0 -12 7z" />
    <glyph glyph-name="Lslash" unicode="&#x141;" horiz-adv-x="396" 
d="M147 62h229q10 0 10 -10v-42q0 -10 -10 -10h-294q-10 0 -10 10v233q0 2 -1.5 3t-3.5 -1l-68 -49q-2 -2 -6 -2q-5 0 -8 4l-23 28q-3 3 -3 7t4 7l107 78q2 2 2 5v367q0 10 10 10h51q10 0 10 -10v-312q0 -2 1.5 -3t3.5 1l158 115q2 2 6 2q5 0 8 -4l24 -29q2 -2 2 -6
q0 -5 -4 -8l-197 -143q-2 -2 -2 -5v-232q0 -4 4 -4z" />
    <glyph glyph-name="lslash" unicode="&#x142;" horiz-adv-x="181" 
d="M230 387q0 -6 -5 -9l-96 -56q-3 -1 -3 -5v-307q0 -10 -10 -10h-51q-10 0 -10 10v263q0 2 -1.5 3t-3.5 0l-39 -23l-5 -2q-5 0 -9 6l-17 30q-1 2 -1 5q0 6 5 9l68 40q3 2 3 5v344q0 10 10 10h51q10 0 10 -10v-300q0 -2 1.5 -3t3.5 0l66 39q4 2 6 2q5 0 8 -6l18 -30
q1 -2 1 -5z" />
    <glyph glyph-name="Nacute" unicode="&#x143;" horiz-adv-x="493" 
d="M72 10v680q0 10 10 10h53q8 0 11 -8l201 -504q1 -3 3 -3t2 3v502q0 10 10 10h50q10 0 10 -10v-680q0 -10 -10 -10h-53q-8 0 -11 8l-201 504q-1 3 -3 2.5t-2 -3.5l1 -501q0 -10 -10 -10h-51q-10 0 -10 10zM201 785.5q-2 3.5 1 8.5l62 109q5 7 12 7h47q6 0 7.5 -3.5
t-1.5 -8.5l-70 -109q-5 -7 -12 -7h-38q-6 0 -8 3.5z" />
    <glyph glyph-name="nacute" unicode="&#x144;" horiz-adv-x="424" 
d="M335.5 471q33.5 -42 33.5 -117v-344q0 -10 -10 -10h-51q-10 0 -10 10v338q0 49 -21 76t-59 27q-40 0 -63 -29t-23 -79v-333q0 -10 -10 -10h-51q-10 0 -10 10v486q0 10 10 10h51q10 0 10 -10v-33q0 -2 2 -2.5t3 1.5q37 51 104 51q61 0 94.5 -42zM170 585.5q-2 3.5 1 8.5
l62 109q5 7 12 7h47q6 0 7.5 -3.5t-1.5 -8.5l-70 -109q-5 -7 -12 -7h-38q-6 0 -8 3.5z" />
    <glyph glyph-name="uni0145" unicode="&#x145;" horiz-adv-x="493" 
d="M72 10v680q0 10 10 10h53q8 0 11 -8l201 -504q1 -3 3 -3t2 3v502q0 10 10 10h50q10 0 10 -10v-680q0 -10 -10 -10h-53q-8 0 -11 8l-201 504q-1 3 -3 2.5t-2 -3.5l1 -501q0 -10 -10 -10h-51q-10 0 -10 10zM200 -181.5q-2 3.5 1 8.5l62 109q5 7 12 7h47q6 0 7.5 -3.5
t-1.5 -8.5l-70 -109q-5 -7 -12 -7h-38q-6 0 -8 3.5z" />
    <glyph glyph-name="uni0146" unicode="&#x146;" horiz-adv-x="424" 
d="M335.5 471q33.5 -42 33.5 -117v-344q0 -10 -10 -10h-51q-10 0 -10 10v338q0 49 -21 76t-59 27q-40 0 -63 -29t-23 -79v-333q0 -10 -10 -10h-51q-10 0 -10 10v486q0 10 10 10h51q10 0 10 -10v-33q0 -2 2 -2.5t3 1.5q37 51 104 51q61 0 94.5 -42zM169 -181.5q-2 3.5 1 8.5
l62 109q5 7 12 7h47q6 0 7.5 -3.5t-1.5 -8.5l-70 -109q-5 -7 -12 -7h-38q-6 0 -8 3.5z" />
    <glyph glyph-name="Ncaron" unicode="&#x147;" horiz-adv-x="493" 
d="M72 10v680q0 10 10 10h53q8 0 11 -8l201 -504q1 -3 3 -3t2 3v502q0 10 10 10h50q10 0 10 -10v-680q0 -10 -10 -10h-53q-8 0 -11 8l-201 504q-1 3 -3 2.5t-2 -3.5l1 -501q0 -10 -10 -10h-51q-10 0 -10 10zM206 779l-66 102q-2 4 -2 6q0 6 8 6h42q7 0 12 -7l45 -72
q1 -1 3 -1t3 1l43 72q5 7 12 7h39q6 0 8 -3.5t-1 -8.5l-68 -103q-4 -6 -12 -6h-54q-7 0 -12 7z" />
    <glyph glyph-name="ncaron" unicode="&#x148;" horiz-adv-x="424" 
d="M335.5 471q33.5 -42 33.5 -117v-344q0 -10 -10 -10h-51q-10 0 -10 10v338q0 49 -21 76t-59 27q-40 0 -63 -29t-23 -79v-333q0 -10 -10 -10h-51q-10 0 -10 10v486q0 10 10 10h51q10 0 10 -10v-33q0 -2 2 -2.5t3 1.5q37 51 104 51q61 0 94.5 -42zM175 579l-66 102
q-2 4 -2 6q0 6 8 6h42q7 0 12 -7l45 -72q1 -1 3 -1t3 1l43 72q5 7 12 7h39q6 0 8 -3.5t-1 -8.5l-68 -103q-4 -6 -12 -6h-54q-7 0 -12 7z" />
    <glyph glyph-name="Eng" unicode="&#x14a;" horiz-adv-x="493" 
d="M362 700h50q10 0 10 -10v-690q0 -57 -7.5 -88.5t-36.5 -49.5t-90 -18q-10 0 -10 10v42q0 10 10 10q29 1 41 13t14 28.5t2 60.5v4q0 4 -1 5l-197 495q-1 3 -3 2.5t-2 -3.5l1 -501q0 -10 -10 -10h-51q-10 0 -10 10v680q0 10 10 10h53q8 0 11 -8l194 -486q1 -3 3 -3t2 3v253
q0 10 4 10q3 0 3 4v217q0 10 10 10z" />
    <glyph glyph-name="eng" unicode="&#x14b;" horiz-adv-x="424" 
d="M335.5 471q33.5 -42 33.5 -117v-362q0 -51 -9.5 -84t-40 -53t-89.5 -21q-10 0 -10 10v41q0 10 10 10q39 2 53.5 26.5t14.5 70.5v356q0 49 -21 76t-59 27q-40 0 -63 -29t-23 -79v-333q0 -10 -10 -10h-51q-10 0 -10 10v486q0 10 10 10h51q10 0 10 -10v-33q0 -2 2 -2.5
t3 1.5q37 51 104 51q61 0 94.5 -42z" />
    <glyph glyph-name="Omacron" unicode="&#x14c;" horiz-adv-x="456" 
d="M102.5 40q-47.5 48 -47.5 127v366q0 79 47.5 127t124.5 48q78 0 126 -48t48 -127v-366q0 -78 -48 -126.5t-126 -48.5q-77 0 -124.5 48zM301.5 84.5q28.5 30.5 28.5 78.5v373q0 49 -28.5 79.5t-74.5 30.5q-45 0 -73 -30.5t-28 -79.5v-373q0 -48 28 -78.5t73 -30.5
q46 0 74.5 30.5zM124 801v32q0 10 10 10h183q10 0 10 -10v-32q0 -10 -10 -10h-183q-10 0 -10 10z" />
    <glyph glyph-name="omacron" unicode="&#x14d;" horiz-adv-x="414" 
d="M92.5 34q-42.5 42 -42.5 111v216q0 68 43 110.5t114 42.5t114.5 -42.5t43.5 -110.5v-216q0 -69 -43 -111t-115 -42t-114.5 42zM269.5 80.5q24.5 26.5 24.5 68.5v207q0 43 -24.5 69.5t-62.5 26.5t-62 -26.5t-24 -69.5v-207q0 -42 24 -68.5t62 -26.5t62.5 26.5zM104 613v32
q0 10 10 10h183q10 0 10 -10v-32q0 -10 -10 -10h-183q-10 0 -10 10z" />
    <glyph glyph-name="Ohungarumlaut" unicode="&#x150;" horiz-adv-x="456" 
d="M102.5 40q-47.5 48 -47.5 127v366q0 79 47.5 127t124.5 48q78 0 126 -48t48 -127v-366q0 -78 -48 -126.5t-126 -48.5q-77 0 -124.5 48zM301.5 84.5q28.5 30.5 28.5 78.5v373q0 49 -28.5 79.5t-74.5 30.5q-45 0 -73 -30.5t-28 -79.5v-373q0 -48 28 -78.5t73 -30.5
q46 0 74.5 30.5zM140 774.5q-2 3.5 0 8.5l57 109q3 7 12 7h42q6 0 8 -3.5t-1 -8.5l-60 -109q-3 -7 -12 -7h-39q-5 0 -7 3.5zM265.5 774.5q-2.5 3.5 0.5 8.5l59 109q3 7 12 7h39q6 0 8 -3.5t-1 -8.5l-60 -109q-3 -7 -12 -7h-38q-5 0 -7.5 3.5z" />
    <glyph glyph-name="ohungarumlaut" unicode="&#x151;" horiz-adv-x="414" 
d="M92.5 34q-42.5 42 -42.5 111v216q0 68 43 110.5t114 42.5t114.5 -42.5t43.5 -110.5v-216q0 -69 -43 -111t-115 -42t-114.5 42zM269.5 80.5q24.5 26.5 24.5 68.5v207q0 43 -24.5 69.5t-62.5 26.5t-62 -26.5t-24 -69.5v-207q0 -42 24 -68.5t62 -26.5t62.5 26.5zM120 586.5
q-2 3.5 0 8.5l57 109q3 7 12 7h42q6 0 8 -3.5t-1 -8.5l-60 -109q-3 -7 -12 -7h-39q-5 0 -7 3.5zM245.5 586.5q-2.5 3.5 0.5 8.5l59 109q3 7 12 7h39q6 0 8 -3.5t-1 -8.5l-60 -109q-3 -7 -12 -7h-38q-5 0 -7.5 3.5z" />
    <glyph glyph-name="OE" unicode="&#x152;" horiz-adv-x="687" 
d="M636 638h-231q-4 0 -4 -4v-248q0 -4 4 -4h146q10 0 10 -10v-43q0 -10 -10 -10h-146q-4 0 -4 -4v-249q0 -4 4 -4h231q10 0 10 -10v-42q0 -10 -10 -10h-296q-10 0 -10 10v28q0 2 -1.5 3t-3.5 -1q-43 -48 -113 -48q-43 0 -79 22t-57 62t-21 91v366q0 51 21 91t57 62t79 22
q70 0 113 -48q2 -2 3.5 -1t1.5 3v28q0 10 10 10h296q10 0 10 -10v-42q0 -10 -10 -10zM301.5 84.5q28.5 30.5 28.5 78.5v373q0 49 -28.5 79.5t-74.5 30.5q-45 0 -73 -30.5t-28 -79.5v-373q0 -48 28 -78.5t73 -30.5q46 0 74.5 30.5z" />
    <glyph glyph-name="oe" unicode="&#x153;" horiz-adv-x="658" 
d="M604 233h-229q-4 0 -4 -4v-79q0 -43 24 -69.5t62 -26.5q32 0 54 19.5t30 50.5q3 9 11 9l50 -2q4 0 7 -3t2 -8q-9 -60 -49 -94t-105 -34q-80 0 -121 66q-3 3 -6 0q-43 -66 -123 -66q-72 0 -114.5 42t-42.5 111v215q0 68 43 111t114 43q79 0 123 -67q3 -3 6 0
q20 31 50.5 49t70.5 18q71 0 114 -43t43 -111v-117q0 -10 -10 -10zM270 425.5q-24 26.5 -63 26.5q-38 0 -62 -26.5t-24 -69.5v-206q0 -43 24 -69.5t62 -26.5q39 0 63 26.5t24 69.5v206q0 43 -24 69.5zM395 425.5q-24 -26.5 -24 -69.5v-70q0 -4 4 -4h164q4 0 4 4v70
q0 43 -24 69.5t-62 26.5t-62 -26.5z" />
    <glyph glyph-name="Racute" unicode="&#x154;" horiz-adv-x="443" 
d="M340 8l-103 311q-1 3 -4 3h-86q-4 0 -4 -4v-308q0 -10 -10 -10h-51q-10 0 -10 10v681q0 10 10 10h165q73 0 118 -53t45 -139q0 -66 -28 -113t-76 -65q-4 -1 -3 -5l109 -315l1 -4q0 -7 -9 -7h-52q-9 0 -12 8zM143 635v-252q0 -4 4 -4h90q46 0 74 35.5t28 93.5
q0 60 -28 95.5t-74 35.5h-90q-4 0 -4 -4zM178 774.5q-2 3.5 1 8.5l62 109q5 7 12 7h47q6 0 7.5 -3.5t-1.5 -8.5l-70 -109q-5 -7 -12 -7h-38q-6 0 -8 3.5z" />
    <glyph glyph-name="racute" unicode="&#x155;" horiz-adv-x="293" 
d="M275 500q7 -4 5 -13l-11 -51q-1 -9 -13 -6q-12 5 -27 5q-10 0 -15 -1q-36 -2 -59 -37.5t-23 -86.5v-300q0 -10 -10 -10h-51q-10 0 -10 10v486q0 10 10 10h51q10 0 10 -10v-60q0 -3 1.5 -3t3.5 2q29 76 95 76q25 0 43 -11zM127 587.5q-2 3.5 1 8.5l62 109q5 7 12 7h47
q6 0 7.5 -3.5t-1.5 -8.5l-70 -109q-5 -7 -12 -7h-38q-6 0 -8 3.5z" />
    <glyph glyph-name="uni0156" unicode="&#x156;" horiz-adv-x="443" 
d="M340 8l-103 311q-1 3 -4 3h-86q-4 0 -4 -4v-308q0 -10 -10 -10h-51q-10 0 -10 10v681q0 10 10 10h165q73 0 118 -53t45 -139q0 -66 -28 -113t-76 -65q-4 -1 -3 -5l109 -315l1 -4q0 -7 -9 -7h-52q-9 0 -12 8zM143 635v-252q0 -4 4 -4h90q46 0 74 35.5t28 93.5
q0 60 -28 95.5t-74 35.5h-90q-4 0 -4 -4zM185 -181.5q-2 3.5 1 8.5l62 109q5 7 12 7h47q6 0 7.5 -3.5t-1.5 -8.5l-70 -109q-5 -7 -12 -7h-38q-6 0 -8 3.5z" />
    <glyph glyph-name="uni0157" unicode="&#x157;" horiz-adv-x="292" 
d="M275 500q7 -4 5 -13l-11 -51q-1 -9 -13 -6q-12 5 -27 5q-10 0 -15 -1q-36 -2 -59 -37.5t-23 -86.5v-300q0 -10 -10 -10h-51q-10 0 -10 10v486q0 10 10 10h51q10 0 10 -10v-60q0 -3 1.5 -3t3.5 2q29 76 95 76q25 0 43 -11zM-8 -181.5q-2 3.5 1 8.5l62 109q5 7 12 7h47
q6 0 7.5 -3.5t-1.5 -8.5l-70 -109q-5 -7 -12 -7h-38q-6 0 -8 3.5z" />
    <glyph glyph-name="Rcaron" unicode="&#x158;" horiz-adv-x="443" 
d="M340 8l-103 311q-1 3 -4 3h-86q-4 0 -4 -4v-308q0 -10 -10 -10h-51q-10 0 -10 10v681q0 10 10 10h165q73 0 118 -53t45 -139q0 -66 -28 -113t-76 -65q-4 -1 -3 -5l109 -315l1 -4q0 -7 -9 -7h-52q-9 0 -12 8zM143 635v-252q0 -4 4 -4h90q46 0 74 35.5t28 93.5
q0 60 -28 95.5t-74 35.5h-90q-4 0 -4 -4zM183 768l-66 102q-2 4 -2 6q0 6 8 6h42q7 0 12 -7l45 -72q1 -1 3 -1t3 1l43 72q5 7 12 7h39q6 0 8 -3.5t-1 -8.5l-68 -103q-4 -6 -12 -6h-54q-7 0 -12 7z" />
    <glyph glyph-name="rcaron" unicode="&#x159;" horiz-adv-x="293" 
d="M275 500q7 -4 5 -13l-11 -51q-1 -9 -13 -6q-12 5 -27 5q-10 0 -15 -1q-36 -2 -59 -37.5t-23 -86.5v-300q0 -10 -10 -10h-51q-10 0 -10 10v486q0 10 10 10h51q10 0 10 -10v-60q0 -3 1.5 -3t3.5 2q29 76 95 76q25 0 43 -11zM132 581l-66 102q-2 4 -2 6q0 6 8 6h42
q7 0 12 -7l45 -72q1 -1 3 -1t3 1l43 72q5 7 12 7h39q6 0 8 -3.5t-1 -8.5l-68 -103q-4 -6 -12 -6h-54q-7 0 -12 7z" />
    <glyph glyph-name="Sacute" unicode="&#x15a;" horiz-adv-x="426" 
d="M97 41q-46 49 -46 128v24q0 10 10 10h50q10 0 10 -10v-21q0 -53 27 -85.5t69 -32.5t70 31t28 82q0 34 -13.5 58.5t-35 43t-71.5 56.5q-50 37 -79 63.5t-47.5 63.5t-18.5 87q0 78 45 123.5t117 45.5q76 0 121.5 -49.5t45.5 -131.5v-25q0 -10 -10 -10h-50q-10 0 -10 10v26
q0 53 -26.5 85.5t-70.5 32.5q-40 0 -66 -28.5t-26 -80.5q0 -31 11.5 -54.5t34.5 -44.5t68 -55q60 -44 89.5 -71.5t45.5 -60t16 -78.5q0 -82 -47 -131.5t-121 -49.5t-120 49zM166 782.5q-2 3.5 1 8.5l62 109q5 7 12 7h47q6 0 7.5 -3.5t-1.5 -8.5l-70 -109q-5 -7 -12 -7h-38
q-6 0 -8 3.5z" />
    <glyph glyph-name="sacute" unicode="&#x15b;" horiz-adv-x="374" 
d="M82.5 30.5q-41.5 35.5 -41.5 94.5v7q0 10 10 10h48q10 0 10 -8v-8q0 -32 23.5 -54t61.5 -22q36 0 58 22t22 56q0 26 -14 43.5t-32.5 27.5t-55.5 26q-39 16 -64.5 31.5t-44 44t-18.5 72.5q0 64 39.5 101t106.5 37q68 0 108 -38t40 -101v-3q0 -10 -10 -10h-46q-10 0 -10 8
v8q0 34 -22.5 56t-58.5 22t-57.5 -22.5t-21.5 -55.5q0 -24 13 -40.5t32 -27t53 -25.5q41 -18 67.5 -34t46.5 -45t20 -72q0 -62 -41 -99t-111 -37q-69 0 -110.5 35.5zM145 585.5q-2 3.5 1 8.5l62 109q5 7 12 7h47q6 0 7.5 -3.5t-1.5 -8.5l-70 -109q-5 -7 -12 -7h-38
q-6 0 -8 3.5z" />
    <glyph glyph-name="Scedilla" unicode="&#x15e;" horiz-adv-x="426" 
d="M348 52.5q-37 -47.5 -99 -57.5q-5 -2 -2 -5q41 -44 41 -91q0 -45 -23.5 -64t-57.5 -19q-16 0 -29 3q-8 3 -7 12l3 21q1 5 4.5 6.5t7.5 0.5t11 -1q18 0 29.5 11.5t11.5 36.5q0 42 -44 86q-2 2 -5 2q-62 9 -100 56.5t-38 118.5v24q0 10 10 10h50q10 0 10 -10v-21
q0 -53 27 -85.5t69 -32.5t70 31t28 82q0 34 -13.5 58.5t-35 43t-71.5 56.5q-50 37 -79 63.5t-47.5 63.5t-18.5 87q0 78 45 123.5t117 45.5q76 0 121.5 -49.5t45.5 -131.5v-25q0 -10 -10 -10h-50q-10 0 -10 10v26q0 53 -26.5 85.5t-70.5 32.5q-40 0 -66 -28.5t-26 -80.5
q0 -31 11.5 -54.5t34.5 -44.5t68 -55q60 -44 89.5 -71.5t45.5 -60t16 -78.5q0 -73 -37 -120.5z" />
    <glyph glyph-name="scedilla" unicode="&#x15f;" horiz-adv-x="374" 
d="M313 41.5q-32 -35.5 -88 -44.5q-5 -2 -2 -5q41 -42 41 -90q0 -45 -23.5 -64t-57.5 -19q-15 0 -29 3q-8 3 -7 12l3 21q1 5 4.5 6.5t7.5 0.5t11 -1q18 0 29.5 11.5t11.5 36.5q0 41 -44 85q-2 2 -5 2q-57 8 -90.5 42.5t-33.5 86.5v7q0 10 10 10h48q10 0 10 -8v-8
q0 -32 23.5 -54t61.5 -22q36 0 58 22t22 56q0 26 -14 43.5t-32.5 27.5t-55.5 26q-39 16 -64.5 31.5t-44 44t-18.5 72.5q0 64 39.5 101t106.5 37q68 0 108 -38t40 -101v-3q0 -10 -10 -10h-46q-10 0 -10 8v8q0 34 -22.5 56t-58.5 22t-57.5 -22.5t-21.5 -55.5q0 -24 13 -40.5
t32 -27t53 -25.5q41 -18 67.5 -34t46.5 -45t20 -72q0 -54 -32 -89.5z" />
    <glyph glyph-name="Scaron" unicode="&#x160;" horiz-adv-x="426" 
d="M97 41q-46 49 -46 128v24q0 10 10 10h50q10 0 10 -10v-21q0 -53 27 -85.5t69 -32.5t70 31t28 82q0 34 -13.5 58.5t-35 43t-71.5 56.5q-50 37 -79 63.5t-47.5 63.5t-18.5 87q0 78 45 123.5t117 45.5q76 0 121.5 -49.5t45.5 -131.5v-25q0 -10 -10 -10h-50q-10 0 -10 10v26
q0 53 -26.5 85.5t-70.5 32.5q-40 0 -66 -28.5t-26 -80.5q0 -31 11.5 -54.5t34.5 -44.5t68 -55q60 -44 89.5 -71.5t45.5 -60t16 -78.5q0 -82 -47 -131.5t-121 -49.5t-120 49zM171 776l-66 102q-2 4 -2 6q0 6 8 6h42q7 0 12 -7l45 -72q1 -1 3 -1t3 1l43 72q5 7 12 7h39
q6 0 8 -3.5t-1 -8.5l-68 -103q-4 -6 -12 -6h-54q-7 0 -12 7z" />
    <glyph glyph-name="scaron" unicode="&#x161;" horiz-adv-x="374" 
d="M82.5 30.5q-41.5 35.5 -41.5 94.5v7q0 10 10 10h48q10 0 10 -8v-8q0 -32 23.5 -54t61.5 -22q36 0 58 22t22 56q0 26 -14 43.5t-32.5 27.5t-55.5 26q-39 16 -64.5 31.5t-44 44t-18.5 72.5q0 64 39.5 101t106.5 37q68 0 108 -38t40 -101v-3q0 -10 -10 -10h-46q-10 0 -10 8
v8q0 34 -22.5 56t-58.5 22t-57.5 -22.5t-21.5 -55.5q0 -24 13 -40.5t32 -27t53 -25.5q41 -18 67.5 -34t46.5 -45t20 -72q0 -62 -41 -99t-111 -37q-69 0 -110.5 35.5zM150 579l-66 102q-2 4 -2 6q0 6 8 6h42q7 0 12 -7l45 -72q1 -1 3 -1t3 1l43 72q5 7 12 7h39q6 0 8 -3.5
t-1 -8.5l-68 -103q-4 -6 -12 -6h-54q-7 0 -12 7z" />
    <glyph glyph-name="uni0162" unicode="&#x162;" horiz-adv-x="423" 
d="M243 634v-624q0 -10 -4 -10q-2 0 -2 -1.5t2 -3.5q41 -44 41 -91q0 -45 -23.5 -64t-57.5 -19q-16 0 -29 3q-8 3 -7 12l3 21q1 5 4.5 6.5t7.5 0.5t11 -1q18 0 29.5 11.5t11.5 36.5q0 42 -45 87l-2 2h-1q-10 0 -10 10v624q0 4 -4 4h-124q-10 0 -10 10v42q0 10 10 10h335
q10 0 10 -10v-42q0 -10 -10 -10h-132q-4 0 -4 -4z" />
    <glyph glyph-name="uni0163" unicode="&#x163;" horiz-adv-x="267" 
d="M229 453h-76q-4 0 -4 -4v-306q0 -46 16 -63.5t49 -16.5h10q10 0 10 -10v-43q0 -10 -10 -10h-18q-5 0 -2 -5q27 -34 27 -74q0 -45 -23.5 -64t-57.5 -19q-15 0 -29 3q-8 3 -7 12l3 21q1 5 4.5 6.5t7.5 0.5t11 -1q18 0 29.5 11.5t11.5 35.5q0 38 -35 78l-5 3q-30 9 -46 36.5
t-16 77.5v327q0 4 -4 4h-39q-10 0 -10 10v33q0 10 10 10h39q4 0 4 4v112q0 10 10 10h50q10 0 10 -10v-112q0 -4 4 -4h76q10 0 10 -10v-33q0 -10 -10 -10z" />
    <glyph glyph-name="Tcaron" unicode="&#x164;" horiz-adv-x="423" 
d="M389 690v-42q0 -10 -10 -10h-132q-4 0 -4 -4v-624q0 -10 -10 -10h-51q-10 0 -10 10v624q0 4 -4 4h-124q-10 0 -10 10v42q0 10 10 10h335q10 0 10 -10zM169 760l-66 103q-2 4 -2 6q0 6 8 6h42q7 0 12 -7l45 -72q1 -1 3 -1t3 1l43 72q5 7 12 7h40q6 0 7.5 -3.5t-1.5 -8.5
l-68 -103q-5 -7 -12 -7h-54q-7 0 -12 7z" />
    <glyph glyph-name="tcaron" unicode="&#x165;" horiz-adv-x="267" 
d="M229 453h-76q-4 0 -4 -4v-306q0 -46 16 -63.5t49 -16.5h10q10 0 10 -10v-43q0 -10 -10 -10h-25q-59 0 -89.5 25.5t-30.5 96.5v327q0 4 -4 4h-39q-10 0 -10 10v33q0 10 10 10h39q4 0 4 4v112q0 10 10 10h50q10 0 10 -10v-112q0 -4 4 -4h76q10 0 10 -10v-33q0 -10 -10 -10z
M75 692l-66 103q-2 4 -2 6q0 6 8 6h42q7 0 12 -7l45 -72q1 -1 3 -1t3 1l43 72q5 7 12 7h40q6 0 7.5 -3.5t-1.5 -8.5l-68 -103q-5 -7 -12 -7h-54q-7 0 -12 7z" />
    <glyph glyph-name="Tbar" unicode="&#x166;" horiz-adv-x="600" 
d="M379 638h-132q-4 0 -4 -4v-212q0 -4 4 -4h82q10 0 10 -10v-28q0 -10 -10 -10h-82q-4 0 -4 -4v-356q0 -10 -10 -10h-51q-10 0 -10 10v356q0 4 -4 4h-91q-10 0 -10 10v28q0 10 10 10h91q4 0 4 4v212q0 4 -4 4h-124q-10 0 -10 10v42q0 10 10 10h335q10 0 10 -10v-42
q0 -10 -10 -10z" />
    <glyph glyph-name="tbar" unicode="&#x167;" horiz-adv-x="600" 
d="M232 389h-79q-4 0 -4 -4v-242q0 -46 16 -63.5t49 -16.5h10q10 0 10 -10v-43q0 -10 -10 -10h-25q-59 0 -89.5 25.5t-30.5 96.5v263q0 4 -4 4h-38q-10 0 -10 10v28q0 10 10 10h38q4 0 4 4v8q0 4 -4 4h-39q-10 0 -10 10v33q0 10 10 10h39q4 0 4 4v112q0 10 10 10h50
q10 0 10 -10v-112q0 -4 4 -4h76q10 0 10 -10v-33q0 -10 -10 -10h-76q-4 0 -4 -4v-8q0 -4 4 -4h79q10 0 10 -10v-28q0 -10 -10 -10z" />
    <glyph glyph-name="Umacron" unicode="&#x16a;" horiz-adv-x="476" 
d="M113 45q-47 53 -47 140v505q0 10 10 10h51q10 0 10 -10v-513q0 -55 27.5 -89t72.5 -34q46 0 74 34t28 89v513q0 10 10 10h51q10 0 10 -10v-505q0 -87 -47.5 -140t-125.5 -53q-77 0 -124 53zM134 810v32q0 10 10 10h183q10 0 10 -10v-32q0 -10 -10 -10h-183q-10 0 -10 10z
" />
    <glyph glyph-name="umacron" unicode="&#x16b;" horiz-adv-x="424" 
d="M302 506h51q10 0 10 -10v-486q0 -10 -10 -10h-51q-10 0 -10 10v34q0 3 -1.5 3t-3.5 -2q-31 -52 -100 -52q-60 0 -95.5 36.5t-35.5 110.5v356q0 10 10 10h51q10 0 10 -10v-340q0 -50 20.5 -75.5t59.5 -25.5q40 0 62.5 29t22.5 79v333q0 10 10 10zM106 605v32q0 10 10 10
h183q10 0 10 -10v-32q0 -10 -10 -10h-183q-10 0 -10 10z" />
    <glyph glyph-name="Uring" unicode="&#x16e;" horiz-adv-x="476" 
d="M113 45q-47 53 -47 140v505q0 10 10 10h51q10 0 10 -10v-513q0 -55 27.5 -89t72.5 -34q46 0 74 34t28 89v513q0 10 10 10h51q10 0 10 -10v-505q0 -87 -47.5 -140t-125.5 -53q-77 0 -124 53zM165.5 807q-29.5 30 -29.5 73t29.5 73t71.5 30q43 0 72 -30t29 -73t-29 -73
t-72 -30q-42 0 -71.5 30zM281 834.5q18 18.5 18 45.5q0 28 -18 46.5t-44 18.5t-44 -18.5t-18 -46.5q0 -27 18 -45.5t44 -18.5t44 18.5z" />
    <glyph glyph-name="uring" unicode="&#x16f;" horiz-adv-x="424" 
d="M302 506h51q10 0 10 -10v-486q0 -10 -10 -10h-51q-10 0 -10 10v34q0 3 -1.5 3t-3.5 -2q-31 -52 -100 -52q-60 0 -95.5 36.5t-35.5 110.5v356q0 10 10 10h51q10 0 10 -10v-340q0 -50 20.5 -75.5t59.5 -25.5q40 0 62.5 29t22.5 79v333q0 10 10 10zM137.5 602
q-29.5 30 -29.5 73t29.5 73t71.5 30q43 0 72 -30t29 -73t-29 -73t-72 -30q-42 0 -71.5 30zM253 629.5q18 18.5 18 45.5q0 28 -18 46.5t-44 18.5t-44 -18.5t-18 -46.5q0 -27 18 -45.5t44 -18.5t44 18.5z" />
    <glyph glyph-name="Uhungarumlaut" unicode="&#x170;" horiz-adv-x="476" 
d="M113 45q-47 53 -47 140v505q0 10 10 10h51q10 0 10 -10v-513q0 -55 27.5 -89t72.5 -34q46 0 74 34t28 89v513q0 10 10 10h51q10 0 10 -10v-505q0 -87 -47.5 -140t-125.5 -53q-77 0 -124 53zM150 783.5q-2 3.5 0 8.5l57 109q3 7 12 7h42q6 0 8 -3.5t-1 -8.5l-60 -109
q-3 -7 -12 -7h-39q-5 0 -7 3.5zM275.5 783.5q-2.5 3.5 0.5 8.5l59 109q3 7 12 7h39q6 0 8 -3.5t-1 -8.5l-60 -109q-3 -7 -12 -7h-38q-5 0 -7.5 3.5z" />
    <glyph glyph-name="uhungarumlaut" unicode="&#x171;" horiz-adv-x="424" 
d="M302 506h51q10 0 10 -10v-486q0 -10 -10 -10h-51q-10 0 -10 10v34q0 3 -1.5 3t-3.5 -2q-31 -52 -100 -52q-60 0 -95.5 36.5t-35.5 110.5v356q0 10 10 10h51q10 0 10 -10v-340q0 -50 20.5 -75.5t59.5 -25.5q40 0 62.5 29t22.5 79v333q0 10 10 10zM122 578.5q-2 3.5 0 8.5
l57 109q3 7 12 7h42q6 0 8 -3.5t-1 -8.5l-60 -109q-3 -7 -12 -7h-39q-5 0 -7 3.5zM247.5 578.5q-2.5 3.5 0.5 8.5l59 109q3 7 12 7h39q6 0 8 -3.5t-1 -8.5l-60 -109q-3 -7 -12 -7h-38q-5 0 -7.5 3.5z" />
    <glyph glyph-name="Uogonek" unicode="&#x172;" horiz-adv-x="476" 
d="M349 700h51q10 0 10 -10v-505q0 -80 -40.5 -131.5t-107.5 -60.5q-3 0 -5 -2q-39 -42 -39 -81q0 -24 12 -35.5t30 -11.5q7 0 10 1l4 1q6 0 8 -8l3 -21v-3q0 -6 -7 -9q-13 -3 -29 -3q-34 0 -57 18.5t-23 63.5q0 48 35 87q4 4 -2 5q-62 11 -99 62t-37 128v505q0 10 10 10h51
q10 0 10 -10v-513q0 -55 27.5 -89t72.5 -34q46 0 74 34t28 89v513q0 10 10 10z" />
    <glyph glyph-name="uogonek" unicode="&#x173;" horiz-adv-x="424" 
d="M365 -141q6 0 8 -8l3 -21v-3q0 -6 -7 -9q-13 -3 -29 -3q-34 0 -57 18.5t-23 63.5q0 55 46 98q2 2 2.5 3.5t-1.5 1.5h-5q-10 0 -10 10v34q0 3 -1.5 3t-3.5 -2q-31 -52 -100 -52q-60 0 -95.5 36.5t-35.5 110.5v356q0 10 10 10h51q10 0 10 -10v-340q0 -50 20.5 -75.5
t59.5 -25.5q40 0 62.5 29t22.5 79v333q0 10 10 10h51q10 0 10 -10v-489q0 -5 -5 -12q-23 -20 -36 -44t-13 -47q0 -24 12 -35.5t30 -11.5q7 0 10 1z" />
    <glyph glyph-name="Wcircumflex" unicode="&#x174;" horiz-adv-x="623" 
d="M161 9l-132 680v2q0 9 9 9h53q10 0 11 -9l94 -526q1 -2 2 -2t2 2l81 526q2 9 10 9h46q9 0 10 -9l85 -526q1 -2 2 -2t2 2l86 526q2 9 10 9h53q5 0 7.5 -3t1.5 -8l-124 -680q-1 -9 -11 -9h-49q-8 0 -10 9l-84 528q-1 2 -2.5 2t-1.5 -2l-82 -528q-1 -9 -10 -9h-48
q-9 0 -11 9zM201.5 767.5q-1.5 3.5 1.5 8.5l66 103q5 7 12 7h57q7 0 12 -7l68 -103l2 -5q0 -7 -9 -7h-42q-7 0 -12 7l-44 73q-1 2 -3 2t-3 -2l-43 -73q-5 -7 -12 -7h-43q-6 0 -7.5 3.5z" />
    <glyph glyph-name="wcircumflex" unicode="&#x175;" horiz-adv-x="554" 
d="M130 9l-106 486v2q0 9 9 9h49q10 0 11 -9l73 -389q1 -2 2 -2t2 2l73 389q2 9 11 9h45q10 0 11 -9l74 -390q1 -2 2 -2t2 2l74 390q2 9 11 9l48 -1q11 0 9 -11l-106 -485q-1 -9 -11 -9h-51q-9 0 -11 9l-74 366q-1 3 -2 3t-2 -3l-72 -366q-1 -9 -11 -9h-49q-9 0 -11 9z
M166.5 573.5q-1.5 3.5 1.5 8.5l66 103q5 7 12 7h57q7 0 12 -7l68 -103l2 -5q0 -7 -9 -7h-42q-7 0 -12 7l-44 73q-1 2 -3 2t-3 -2l-43 -73q-5 -7 -12 -7h-43q-6 0 -7.5 3.5z" />
    <glyph glyph-name="Ycircumflex" unicode="&#x176;" horiz-adv-x="424" 
d="M177 11v299q0 4 -1 5l-139 373l-1 4q0 8 9 8h54q9 0 12 -8l98 -293q1 -2 3 -2t3 2l98 293q3 8 12 8h54q5 0 7.5 -3.5t0.5 -8.5l-138 -373q-1 -1 -1 -5v-299q0 -10 -10 -10h-51q-10 0 -10 10zM102.5 767.5q-1.5 3.5 1.5 8.5l66 103q5 7 12 7h57q7 0 12 -7l68 -103l2 -5
q0 -7 -9 -7h-42q-7 0 -12 7l-44 73q-1 2 -3 2t-3 -2l-43 -73q-5 -7 -12 -7h-43q-6 0 -7.5 3.5z" />
    <glyph glyph-name="ycircumflex" unicode="&#x177;" horiz-adv-x="367" 
d="M40 -197q-2 3 -2 7v41q0 10 5 10h5q31 0 48.5 11t28.5 39t22 86q1 2 0.5 3.5t-0.5 2.5l-127 492l-1 3q0 8 10 8h54q10 0 11 -9l88 -393q1 -3 2 -3t2 3l87 393q2 9 11 9l56 -1q5 0 7.5 -3t0.5 -8l-139 -538q-18 -67 -35.5 -99t-45.5 -44.5t-79 -12.5h-5q-2 0 -4 3z
M74.5 573.5q-1.5 3.5 1.5 8.5l66 103q5 7 12 7h57q7 0 12 -7l68 -103l2 -5q0 -7 -9 -7h-42q-7 0 -12 7l-44 73q-1 2 -3 2t-3 -2l-43 -73q-5 -7 -12 -7h-43q-6 0 -7.5 3.5z" />
    <glyph glyph-name="Ydieresis" unicode="&#x178;" horiz-adv-x="424" 
d="M177 11v299q0 4 -1 5l-139 373l-1 4q0 8 9 8h54q9 0 12 -8l98 -293q1 -2 3 -2t3 2l98 293q3 8 12 8h54q5 0 7.5 -3.5t0.5 -8.5l-138 -373q-1 -1 -1 -5v-299q0 -10 -10 -10h-51q-10 0 -10 10zM115.5 801q-12.5 13 -12.5 34q0 20 13 33t32 13t30.5 -13t11.5 -33
q0 -21 -11.5 -34t-30.5 -13q-20 0 -32.5 13zM246.5 801q-12.5 13 -12.5 34q0 20 13 33t32 13t31 -13t12 -33q0 -21 -12 -34t-31 -13q-20 0 -32.5 13z" />
    <glyph glyph-name="Zacute" unicode="&#x179;" horiz-adv-x="395" 
d="M33 10v46q0 5 3 12l243 565q1 2 0 3.5t-3 1.5h-233q-10 0 -10 10v42q0 10 10 10h303q10 0 10 -10v-46q0 -4 -3 -12l-242 -565q-1 -2 0 -3.5t3 -1.5h232q10 0 10 -10v-42q0 -10 -10 -10h-303q-10 0 -10 10zM151 787.5q-2 3.5 1 8.5l62 109q5 7 12 7h47q6 0 7.5 -3.5
t-1.5 -8.5l-70 -109q-5 -7 -12 -7h-38q-6 0 -8 3.5z" />
    <glyph glyph-name="zacute" unicode="&#x17a;" horiz-adv-x="361" 
d="M33 10v48q0 7 3 13l205 365q1 2 0.5 3.5t-2.5 1.5h-192q-10 0 -10 10v45q0 10 10 10h270q10 0 10 -10v-48q0 -7 -3 -13l-207 -365q-1 -2 0 -3.5t3 -1.5h199q10 0 10 -10v-45q0 -10 -10 -10h-276q-10 0 -10 10zM137 590.5q-2 3.5 1 8.5l62 109q5 7 12 7h47q6 0 7.5 -3.5
t-1.5 -8.5l-70 -109q-5 -7 -12 -7h-38q-6 0 -8 3.5z" />
    <glyph glyph-name="Zdotaccent" unicode="&#x17b;" horiz-adv-x="395" 
d="M33 10v46q0 5 3 12l243 565q1 2 0 3.5t-3 1.5h-233q-10 0 -10 10v42q0 10 10 10h303q10 0 10 -10v-46q0 -4 -3 -12l-242 -565q-1 -2 0 -3.5t3 -1.5h232q10 0 10 -10v-42q0 -10 -10 -10h-303q-10 0 -10 10zM167 799.5q-12 12.5 -12 31.5t12 31.5t30 12.5t29 -12t11 -32
q0 -19 -11 -31.5t-29 -12.5t-30 12.5z" />
    <glyph glyph-name="zdotaccent" unicode="&#x17c;" horiz-adv-x="361" 
d="M33 10v48q0 7 3 13l205 365q1 2 0.5 3.5t-2.5 1.5h-192q-10 0 -10 10v45q0 10 10 10h270q10 0 10 -10v-48q0 -7 -3 -13l-207 -365q-1 -2 0 -3.5t3 -1.5h199q10 0 10 -10v-45q0 -10 -10 -10h-276q-10 0 -10 10zM153 602.5q-12 12.5 -12 31.5t12 31.5t30 12.5t29 -12
t11 -32q0 -19 -11 -31.5t-29 -12.5t-30 12.5z" />
    <glyph glyph-name="Zcaron" unicode="&#x17d;" horiz-adv-x="395" 
d="M33 10v46q0 5 3 12l243 565q1 2 0 3.5t-3 1.5h-233q-10 0 -10 10v42q0 10 10 10h303q10 0 10 -10v-46q0 -4 -3 -12l-242 -565q-1 -2 0 -3.5t3 -1.5h232q10 0 10 -10v-42q0 -10 -10 -10h-303q-10 0 -10 10zM156 781l-66 102q-2 4 -2 6q0 6 8 6h42q7 0 12 -7l45 -72
q1 -1 3 -1t3 1l43 72q5 7 12 7h39q6 0 8 -3.5t-1 -8.5l-68 -103q-4 -6 -12 -6h-54q-7 0 -12 7z" />
    <glyph glyph-name="zcaron" unicode="&#x17e;" horiz-adv-x="361" 
d="M33 10v48q0 7 3 13l205 365q1 2 0.5 3.5t-2.5 1.5h-192q-10 0 -10 10v45q0 10 10 10h270q10 0 10 -10v-48q0 -7 -3 -13l-207 -365q-1 -2 0 -3.5t3 -1.5h199q10 0 10 -10v-45q0 -10 -10 -10h-276q-10 0 -10 10zM142 584l-66 102q-2 4 -2 6q0 6 8 6h42q7 0 12 -7l45 -72
q1 -1 3 -1t3 1l43 72q5 7 12 7h39q6 0 8 -3.5t-1 -8.5l-68 -103q-4 -6 -12 -6h-54q-7 0 -12 7z" />
    <glyph glyph-name="florin" unicode="&#x192;" horiz-adv-x="466" 
d="M291 672.5q35 36.5 106 36.5q18 0 28 -1t10 -11l-2 -44q0 -10 -10 -10h-22q-40 0 -59.5 -27t-27.5 -82l-23 -142q0 -4 3 -4h72q10 0 10 -10v-33q0 -10 -10 -10h-80q-5 0 -5 -4l-62 -383q-13 -84 -47.5 -120.5t-106.5 -36.5q-17 0 -27 1t-10 11l2 44q0 10 10 10h22
q40 0 59 27t28 82l59 365q0 4 -3 4h-56q-10 0 -10 10v33q0 10 10 10h64q5 0 5 4l26 160q12 84 47 120.5z" />
    <glyph glyph-name="uni01CD" unicode="&#x1cd;" horiz-adv-x="455" 
d="M348 9l-25 124q0 2 -1.5 3t-3.5 1h-181q-2 0 -3.5 -1t-1.5 -3l-26 -124q-1 -9 -11 -9h-51q-5 0 -7.5 3t-1.5 8l151 680q2 9 11 9h60q10 0 11 -9l152 -680v-2q0 -9 -9 -9h-52q-9 0 -11 9zM149 195h157q3 0 3 4l-79 385q-1 3 -2 3t-2 -3l-80 -385q0 -4 3 -4zM186 760
l-66 103q-2 4 -2 6q0 6 8 6h42q7 0 12 -7l45 -72q1 -1 3 -1t3 1l43 72q5 7 12 7h40q6 0 7.5 -3.5t-1.5 -8.5l-68 -103q-5 -7 -12 -7h-54q-7 0 -12 7z" />
    <glyph glyph-name="uni01CE" unicode="&#x1ce;" horiz-adv-x="411" 
d="M319.5 468.5q41.5 -45.5 41.5 -121.5v-337q0 -10 -10 -10h-51q-10 0 -10 10v29q0 2 -1.5 2.5t-3.5 -1.5q-37 -48 -110 -48q-55 0 -95.5 31.5t-40.5 111.5q0 85 49 124.5t129 39.5h69q4 0 4 4v39q0 50 -22.5 80t-61.5 30q-30 0 -52 -20t-25 -51q-1 -10 -11 -10l-55 1
q-5 0 -7.5 3t-1.5 7q5 59 48 95.5t106 36.5q70 0 111.5 -45.5zM260.5 80.5q29.5 26.5 29.5 73.5v84q0 4 -4 4h-70q-48 0 -76 -25.5t-28 -75.5q0 -44 21.5 -65.5t56.5 -21.5q41 0 70.5 26.5zM165 574l-66 103q-2 4 -2 6q0 6 8 6h42q7 0 12 -7l45 -72q1 -1 3 -1t3 1l43 72
q5 7 12 7h40q6 0 7.5 -3.5t-1.5 -8.5l-68 -103q-5 -7 -12 -7h-54q-7 0 -12 7z" />
    <glyph glyph-name="uni0218" unicode="&#x218;" horiz-adv-x="426" 
d="M97 41q-46 49 -46 128v24q0 10 10 10h50q10 0 10 -10v-21q0 -53 27 -85.5t69 -32.5t70 31t28 82q0 34 -13.5 58.5t-35 43t-71.5 56.5q-50 37 -79 63.5t-47.5 63.5t-18.5 87q0 78 45 123.5t117 45.5q76 0 121.5 -49.5t45.5 -131.5v-25q0 -10 -10 -10h-50q-10 0 -10 10v26
q0 53 -26.5 85.5t-70.5 32.5q-40 0 -66 -28.5t-26 -80.5q0 -31 11.5 -54.5t34.5 -44.5t68 -55q60 -44 89.5 -71.5t45.5 -60t16 -78.5q0 -82 -47 -131.5t-121 -49.5t-120 49zM168 -189.5q-2 3.5 1 8.5l62 109q5 7 12 7h47q6 0 7.5 -3.5t-1.5 -8.5l-70 -109q-5 -7 -12 -7h-38
q-6 0 -8 3.5z" />
    <glyph glyph-name="uni0219" unicode="&#x219;" horiz-adv-x="374" 
d="M82.5 30.5q-41.5 35.5 -41.5 94.5v7q0 10 10 10h48q10 0 10 -8v-8q0 -32 23.5 -54t61.5 -22q36 0 58 22t22 56q0 26 -14 43.5t-32.5 27.5t-55.5 26q-39 16 -64.5 31.5t-44 44t-18.5 72.5q0 64 39.5 101t106.5 37q68 0 108 -38t40 -101v-3q0 -10 -10 -10h-46q-10 0 -10 8
v8q0 34 -22.5 56t-58.5 22t-57.5 -22.5t-21.5 -55.5q0 -24 13 -40.5t32 -27t53 -25.5q41 -18 67.5 -34t46.5 -45t20 -72q0 -62 -41 -99t-111 -37q-69 0 -110.5 35.5zM144 -186.5q-2 3.5 1 8.5l62 109q5 7 12 7h47q6 0 7.5 -3.5t-1.5 -8.5l-70 -109q-5 -7 -12 -7h-38
q-6 0 -8 3.5z" />
    <glyph glyph-name="uni021A" unicode="&#x21a;" horiz-adv-x="409" 
d="M389 690v-42q0 -10 -10 -10h-132q-4 0 -4 -4v-624q0 -10 -10 -10h-51q-10 0 -10 10v624q0 4 -4 4h-124q-10 0 -10 10v42q0 10 10 10h335q10 0 10 -10zM99 -184.5q-2 3.5 1 8.5l62 109q5 7 12 7h47q6 0 7.5 -3.5t-1.5 -8.5l-70 -109q-5 -7 -12 -7h-38q-6 0 -8 3.5z" />
    <glyph glyph-name="uni021B" unicode="&#x21b;" horiz-adv-x="267" 
d="M229 453h-76q-4 0 -4 -4v-306q0 -46 16 -63.5t49 -16.5h10q10 0 10 -10v-43q0 -10 -10 -10h-25q-59 0 -89.5 25.5t-30.5 96.5v327q0 4 -4 4h-39q-10 0 -10 10v33q0 10 10 10h39q4 0 4 4v112q0 10 10 10h50q10 0 10 -10v-112q0 -4 4 -4h76q10 0 10 -10v-33q0 -10 -10 -10z
M111 -167.5q-2 3.5 1 8.5l62 109q5 7 12 7h47q6 0 7.5 -3.5t-1.5 -8.5l-70 -109q-5 -7 -12 -7h-38q-6 0 -8 3.5z" />
    <glyph glyph-name="uni0228" unicode="&#x228;" horiz-adv-x="429" 
d="M379 638h-232q-4 0 -4 -4v-248q0 -4 4 -4h146q10 0 10 -10v-43q0 -10 -10 -10h-146q-4 0 -4 -4v-249q0 -4 4 -4h232q10 0 10 -10v-42q0 -10 -10 -10h-118q-2 0 -3 -1.5t1 -3.5q37 -40 37 -89q0 -44 -23.5 -63t-56.5 -19q-16 0 -29 3q-8 3 -7 12l3 21q1 5 4.5 6.5t7.5 0.5
t11 -1q18 0 29.5 11.5t11.5 35.5q0 39 -42 85q-2 2 -5 2h-118q-10 0 -10 10v680q0 10 10 10h297q10 0 10 -10v-42q0 -10 -10 -10z" />
    <glyph glyph-name="uni0229" unicode="&#x229;" horiz-adv-x="407" 
d="M353 226h-228q-4 0 -4 -4v-73q0 -42 23.5 -68.5t61.5 -26.5q32 0 54.5 19.5t29.5 50.5q3 9 11 9l50 -2q4 0 7 -3t2 -8q-7 -52 -38.5 -84.5t-83.5 -40.5q-5 -2 -2 -5q41 -44 41 -91q0 -45 -23.5 -64t-57.5 -19q-15 0 -29 3q-8 3 -7 12l3 21q1 5 4.5 6.5t7.5 0.5t11 -1
q18 0 29.5 11.5t11.5 36.5q0 21 -12 43.5t-32 41.5q-1 2 -5 2q-59 8 -93.5 49t-34.5 103v216q0 68 42.5 110.5t113.5 42.5q72 0 114.5 -42.5t42.5 -110.5v-125q0 -10 -10 -10zM144.5 425.5q-23.5 -26.5 -23.5 -69.5v-67q0 -4 4 -4h164q4 0 4 4v67q0 43 -24 69.5t-63 26.5
q-38 0 -61.5 -26.5z" />
    <glyph glyph-name="circumflex" unicode="&#x2c6;" horiz-adv-x="232" 
d="M6.5 573.5q-1.5 3.5 1.5 8.5l66 103q5 7 12 7h57q7 0 12 -7l68 -103l2 -5q0 -7 -9 -7h-42q-7 0 -12 7l-44 73q-1 2 -3 2t-3 -2l-43 -73q-5 -7 -12 -7h-43q-6 0 -7.5 3.5z" />
    <glyph glyph-name="caron" unicode="&#x2c7;" horiz-adv-x="272" 
d="M96 576l-66 102q-2 4 -2 6q0 6 8 6h42q7 0 12 -7l45 -72q1 -1 3 -1t3 1l43 72q5 7 12 7h39q6 0 8 -3.5t-1 -8.5l-68 -103q-4 -6 -12 -6h-54q-7 0 -12 7z" />
    <glyph glyph-name="uni02C9" unicode="&#x2c9;" horiz-adv-x="491" 
d="M143 605v32q0 10 10 10h183q10 0 10 -10v-32q0 -10 -10 -10h-183q-10 0 -10 10z" />
    <glyph glyph-name="breve" unicode="&#x2d8;" horiz-adv-x="254" 
d="M55 585q-29 27 -33 68q0 10 10 10h23q10 0 11 -10q3 -25 20 -41t41 -16t41 16t20 41q1 10 11 10h23q10 0 10 -10q-4 -42 -33 -68.5t-72 -26.5t-72 27z" />
    <glyph glyph-name="dotaccent" unicode="&#x2d9;" horiz-adv-x="127" 
d="M34 592.5q-12 12.5 -12 31.5t12 31.5t30 12.5t29 -12t11 -32q0 -19 -11 -31.5t-29 -12.5t-30 12.5z" />
    <glyph glyph-name="ring" unicode="&#x2da;" horiz-adv-x="246" 
d="M51.5 602q-29.5 30 -29.5 73t29.5 73t71.5 30q43 0 72 -30t29 -73t-29 -73t-72 -30q-42 0 -71.5 30zM167 629.5q18 18.5 18 45.5q0 28 -18 46.5t-44 18.5t-44 -18.5t-18 -46.5q0 -27 18 -45.5t44 -18.5t44 18.5z" />
    <glyph glyph-name="ogonek" unicode="&#x2db;" horiz-adv-x="121" 
d="M116 -173q0 -6 -7 -9q-13 -3 -29 -3q-34 0 -57 18.5t-23 63.5q0 25 11 50t34 46l4 4q3 3 10 3h27q8 0 8 -5q0 -4 -4 -7q-41 -43 -41 -85q0 -24 12 -35t30 -11q7 0 10 1l4 1q6 0 8 -8l3 -21v-3z" />
    <glyph glyph-name="tilde" unicode="&#x2dc;" horiz-adv-x="311" 
d="M180 599.5q-11 5.5 -29 16.5q-4 3 -13 9t-16 8.5t-15 2.5q-14 0 -24.5 -5.5t-20.5 -20.5q-6 -9 -14 -3l-18 13q-8 6 -4 14q27 52 76 52q15 0 27.5 -6t30.5 -17q2 -2 11 -8t17.5 -9.5t16.5 -3.5q26 0 43 28q2 4 6 5t8 -1l18 -12q4 -3 4 -8t-4 -12q-14 -25 -35 -36.5
t-40 -11.5q-14 0 -25 5.5z" />
    <glyph glyph-name="hungarumlaut" unicode="&#x2dd;" horiz-adv-x="310" 
d="M28 588.5q-2 3.5 1 8.5l62 109q5 7 12 7h46q6 0 7.5 -3.5t-1.5 -8.5l-69 -109q-5 -7 -12 -7h-38q-6 0 -8 3.5zM153 588.5q-2 3.5 1 8.5l62 109q5 7 12 7h46q6 0 7.5 -3.5t-1.5 -8.5l-69 -109q-5 -7 -12 -7h-38q-6 0 -8 3.5z" />
    <glyph glyph-name="gravecomb" unicode="&#x300;" 
d="M-5 583q0 -6 -9 -6h-38q-7 0 -12 7l-70 109q-2 4 -2 6q0 6 8 6h47q7 0 12 -7l62 -109q2 -4 2 -6z" />
    <glyph glyph-name="acutecomb" unicode="&#x301;" 
d="M-136 580.5q-2 3.5 1 8.5l62 109q5 7 12 7h47q6 0 7.5 -3.5t-1.5 -8.5l-70 -109q-5 -7 -12 -7h-38q-6 0 -8 3.5z" />
    <glyph glyph-name="uni0302" unicode="&#x302;" 
d="M-225.5 573.5q-1.5 3.5 1.5 8.5l66 103q5 7 12 7h57q7 0 12 -7l68 -103l2 -5q0 -7 -9 -7h-42q-7 0 -12 7l-44 73q-1 2 -3 2t-3 -2l-43 -73q-5 -7 -12 -7h-43q-6 0 -7.5 3.5z" />
    <glyph glyph-name="tildecomb" unicode="&#x303;" 
d="M-108 599.5q-11 5.5 -29 16.5q-4 3 -13 9t-16 8.5t-15 2.5q-14 0 -24.5 -5.5t-20.5 -20.5q-6 -9 -14 -3l-18 13q-8 6 -4 14q27 52 76 52q15 0 27.5 -6t30.5 -17q2 -2 11 -8t17.5 -9.5t16.5 -3.5q26 0 43 28q2 4 6 5t8 -1l18 -12q4 -3 4 -8t-4 -12q-14 -25 -35 -36.5
t-40 -11.5q-14 0 -25 5.5z" />
    <glyph glyph-name="uni0304" unicode="&#x304;" 
d="M-348 605v32q0 10 10 10h183q10 0 10 -10v-32q0 -10 -10 -10h-183q-10 0 -10 10z" />
    <glyph glyph-name="uni0306" unicode="&#x306;" 
d="M-199 571q-29 27 -33 68q0 10 10 10h23q10 0 11 -10q3 -25 20 -41t41 -16t41 16t20 41q1 10 11 10h23q10 0 10 -10q-4 -42 -33 -68.5t-72 -26.5t-72 27z" />
    <glyph glyph-name="uni0307" unicode="&#x307;" 
d="M-70 592.5q-12 12.5 -12 31.5t12 31.5t30 12.5t29 -12t11 -32q0 -19 -11 -31.5t-29 -12.5t-30 12.5z" />
    <glyph glyph-name="uni0308" unicode="&#x308;" 
d="M-206.5 607q-12.5 13 -12.5 34q0 20 13 33t32 13t30.5 -13t11.5 -33q0 -21 -11.5 -34t-30.5 -13q-20 0 -32.5 13zM-75.5 607q-12.5 13 -12.5 34q0 20 13 33t32 13t31 -13t12 -33q0 -21 -12 -34t-31 -13q-20 0 -32.5 13z" />
    <glyph glyph-name="uni030A" unicode="&#x30a;" 
d="M-172.5 602q-29.5 30 -29.5 73t29.5 73t71.5 30q43 0 72 -30t29 -73t-29 -73t-72 -30q-42 0 -71.5 30zM-57 629.5q18 18.5 18 45.5q0 28 -18 46.5t-44 18.5t-44 -18.5t-18 -46.5q0 -27 18 -45.5t44 -18.5t44 18.5z" />
    <glyph glyph-name="uni030B" unicode="&#x30b;" 
d="M-272 578.5q-2 3.5 0 8.5l57 109q3 7 12 7h42q6 0 8 -3.5t-1 -8.5l-60 -109q-3 -7 -12 -7h-39q-5 0 -7 3.5zM-146.5 578.5q-2.5 3.5 0.5 8.5l59 109q3 7 12 7h39q6 0 8 -3.5t-1 -8.5l-60 -109q-3 -7 -12 -7h-38q-5 0 -7.5 3.5z" />
    <glyph glyph-name="uni030C" unicode="&#x30c;" 
d="M-176 568l-66 103q-2 4 -2 6q0 6 8 6h42q7 0 12 -7l45 -72q1 -1 3 -1t3 1l43 72q5 7 12 7h40q6 0 7.5 -3.5t-1.5 -8.5l-68 -103q-5 -7 -12 -7h-54q-7 0 -12 7z" />
    <glyph glyph-name="uni0312" unicode="&#x312;" 
d="M-28 688.5q2 -3.5 -1 -8.5l-62 -109q-5 -7 -12 -7h-47q-6 0 -7.5 3.5t1.5 8.5l70 109q5 7 12 7h38q6 0 8 -3.5z" />
    <glyph glyph-name="uni0313" unicode="&#x313;" 
d="M-136 580.5q-2 3.5 1 8.5l62 109q5 7 12 7h47q6 0 7.5 -3.5t-1.5 -8.5l-70 -109q-5 -7 -12 -7h-38q-6 0 -8 3.5z" />
    <glyph glyph-name="uni0326" unicode="&#x326;" 
d="M-158 -181.5q-2 3.5 1 8.5l62 109q5 7 12 7h47q6 0 7.5 -3.5t-1.5 -8.5l-70 -109q-5 -7 -12 -7h-38q-6 0 -8 3.5z" />
    <glyph glyph-name="uni0327" unicode="&#x327;" 
d="M-116 -170l3 21q1 5 4.5 6.5t7.5 0.5t11 -1q18 0 29.5 11t11.5 35q0 42 -41 85q-4 3 -4 7q0 5 8 5h27q7 0 10 -3l4 -4q23 -21 34 -46t11 -50q0 -44 -23.5 -63t-56.5 -19q-16 0 -29 3q-8 3 -7 12z" />
    <glyph glyph-name="uni0328" unicode="&#x328;" 
d="M-5 -173q0 -6 -7 -9q-13 -3 -29 -3q-34 0 -57 18.5t-23 63.5q0 25 11 50t34 46l4 4q3 3 10 3h27q8 0 8 -5q0 -4 -4 -7q-41 -43 -41 -85q0 -24 12 -35t30 -11q7 0 10 1l4 1q6 0 8 -8l3 -21v-3z" />
    <glyph glyph-name="uni0335" unicode="&#x335;" 
d="M-262 615h252q10 0 10 -10v-28q0 -10 -10 -10h-252q-10 0 -10 10v28q0 10 10 10z" />
    <glyph glyph-name="uni0336" unicode="&#x336;" 
d="M-424 526v31q0 10 10 10h404q10 0 10 -10v-31q0 -10 -10 -10h-404q-10 0 -10 10z" />
    <glyph glyph-name="uni0337" unicode="&#x337;" 
d="M-287 138q-5 0 -8 4l-23 28q-3 3 -3 7t4 7l343 251q2 2 6 2q5 0 8 -4l24 -29q2 -2 2 -6q0 -5 -4 -8l-343 -250q-2 -2 -6 -2z" />
    <glyph glyph-name="uni0338" unicode="&#x338;" 
d="M-373.5 -35.5q-2.5 3.5 -0.5 8.5l318 764q3 8 11 8h32q5 0 7.5 -3.5t0.5 -8.5l-319 -764q-3 -8 -11 -8h-31q-5 0 -7.5 3.5z" />
    <glyph glyph-name="uni0394" unicode="&#x394;" horiz-adv-x="544" 
d="M33 10v46q0 4 2 12l207 624q3 8 12 8h36q9 0 12 -8l207 -625q2 -8 2 -12v-45q0 -10 -10 -10h-458q-10 0 -10 10zM104.5 63.5q1.5 -1.5 3.5 -1.5h328q2 0 3.5 1.5t0.5 3.5l-165 535q-1 2 -3 2t-3 -2l-165 -535q-1 -2 0.5 -3.5z" />
    <glyph glyph-name="uni03A9" unicode="&#x3a9;" horiz-adv-x="481" 
d="M55 10v42q0 10 10 10h55q2 0 3 1.5t-1 3.5q-25 22 -39 54.5t-14 71.5v340q0 79 47.5 127t124.5 48q78 0 126 -48t48 -127v-340q0 -40 -14.5 -72t-39.5 -54q-2 -2 -1 -3.5t3 -1.5h53q10 0 10 -10v-42q0 -10 -10 -10h-141q-10 0 -10 10v43q0 8 9 11q29 7 49.5 36.5
t20.5 70.5v365q0 49 -28.5 79.5t-74.5 30.5q-45 0 -73 -30.5t-28 -79.5v-365q0 -41 20 -70.5t49 -35.5q9 -3 9 -11v-44q0 -10 -10 -10h-143q-10 0 -10 10z" />
    <glyph glyph-name="uni03BC" unicode="&#x3bc;" horiz-adv-x="429" 
d="M308 506h51q10 0 10 -10v-486q0 -10 -10 -10h-51q-10 0 -10 10v34q0 3 -1.5 3t-3.5 -2q-31 -52 -100 -52q-32 0 -56 10q-5 2 -5 -3v-190q0 -10 -10 -10h-51q-10 0 -10 10v686q0 10 10 10h52q10 0 10 -10v-340q0 -50 20.5 -75.5t59.5 -25.5q40 0 62.5 29t22.5 79v333
q0 10 10 10z" />
    <glyph glyph-name="pi" unicode="&#x3c0;" horiz-adv-x="508" 
d="M466 445h-49q-4 0 -4 -4v-334q0 -27 11 -35.5t35 -7.5q10 0 10 -10v-44q0 -10 -10 -10q-57 0 -87.5 13.5t-29.5 61.5v366q0 4 -4 4h-164q-4 0 -4 -4v-431q0 -10 -10 -10h-51q-10 0 -10 10v431q0 4 -4 4h-53q-10 0 -10 10v41q0 10 10 10h424q10 0 10 -10v-41
q0 -10 -10 -10z" />
    <glyph glyph-name="Wgrave" unicode="&#x1e80;" horiz-adv-x="623" 
d="M161 9l-132 680v2q0 9 9 9h53q10 0 11 -9l94 -526q1 -2 2 -2t2 2l81 526q2 9 10 9h46q9 0 10 -9l85 -526q1 -2 2 -2t2 2l86 526q2 9 10 9h53q5 0 7.5 -3t1.5 -8l-124 -680q-1 -9 -11 -9h-49q-8 0 -10 9l-84 528q-1 2 -2.5 2t-1.5 -2l-82 -528q-1 -9 -10 -9h-48
q-9 0 -11 9zM337 777q0 -6 -9 -6h-38q-7 0 -12 7l-70 109q-2 4 -2 6q0 6 8 6h47q7 0 12 -7l62 -109q2 -4 2 -6z" />
    <glyph glyph-name="wgrave" unicode="&#x1e81;" horiz-adv-x="554" 
d="M130 9l-106 486v2q0 9 9 9h49q10 0 11 -9l73 -389q1 -2 2 -2t2 2l73 389q2 9 11 9h45q10 0 11 -9l74 -390q1 -2 2 -2t2 2l74 390q2 9 11 9l48 -1q11 0 9 -11l-106 -485q-1 -9 -11 -9h-51q-9 0 -11 9l-74 366q-1 3 -2 3t-2 -3l-72 -366q-1 -9 -11 -9h-49q-9 0 -11 9z
M302 583q0 -6 -9 -6h-38q-7 0 -12 7l-70 109q-2 4 -2 6q0 6 8 6h47q7 0 12 -7l62 -109q2 -4 2 -6z" />
    <glyph glyph-name="Wacute" unicode="&#x1e82;" horiz-adv-x="623" 
d="M161 9l-132 680v2q0 9 9 9h53q10 0 11 -9l94 -526q1 -2 2 -2t2 2l81 526q2 9 10 9h46q9 0 10 -9l85 -526q1 -2 2 -2t2 2l86 526q2 9 10 9h53q5 0 7.5 -3t1.5 -8l-124 -680q-1 -9 -11 -9h-49q-8 0 -10 9l-84 528q-1 2 -2.5 2t-1.5 -2l-82 -528q-1 -9 -10 -9h-48
q-9 0 -11 9zM265 774.5q-2 3.5 1 8.5l62 109q5 7 12 7h47q6 0 7.5 -3.5t-1.5 -8.5l-70 -109q-5 -7 -12 -7h-38q-6 0 -8 3.5z" />
    <glyph glyph-name="wacute" unicode="&#x1e83;" horiz-adv-x="554" 
d="M130 9l-106 486v2q0 9 9 9h49q10 0 11 -9l73 -389q1 -2 2 -2t2 2l73 389q2 9 11 9h45q10 0 11 -9l74 -390q1 -2 2 -2t2 2l74 390q2 9 11 9l48 -1q11 0 9 -11l-106 -485q-1 -9 -11 -9h-51q-9 0 -11 9l-74 366q-1 3 -2 3t-2 -3l-72 -366q-1 -9 -11 -9h-49q-9 0 -11 9z
M230 580.5q-2 3.5 1 8.5l62 109q5 7 12 7h47q6 0 7.5 -3.5t-1.5 -8.5l-70 -109q-5 -7 -12 -7h-38q-6 0 -8 3.5z" />
    <glyph glyph-name="Wdieresis" unicode="&#x1e84;" horiz-adv-x="623" 
d="M161 9l-132 680v2q0 9 9 9h53q10 0 11 -9l94 -526q1 -2 2 -2t2 2l81 526q2 9 10 9h46q9 0 10 -9l85 -526q1 -2 2 -2t2 2l86 526q2 9 10 9h53q5 0 7.5 -3t1.5 -8l-124 -680q-1 -9 -11 -9h-49q-8 0 -10 9l-84 528q-1 2 -2.5 2t-1.5 -2l-82 -528q-1 -9 -10 -9h-48
q-9 0 -11 9zM214.5 801q-12.5 13 -12.5 34q0 20 13 33t32 13t30.5 -13t11.5 -33q0 -21 -11.5 -34t-30.5 -13q-20 0 -32.5 13zM345.5 801q-12.5 13 -12.5 34q0 20 13 33t32 13t31 -13t12 -33q0 -21 -12 -34t-31 -13q-20 0 -32.5 13z" />
    <glyph glyph-name="wdieresis" unicode="&#x1e85;" horiz-adv-x="554" 
d="M130 9l-106 486v2q0 9 9 9h49q10 0 11 -9l73 -389q1 -2 2 -2t2 2l73 389q2 9 11 9h45q10 0 11 -9l74 -390q1 -2 2 -2t2 2l74 390q2 9 11 9l48 -1q11 0 9 -11l-106 -485q-1 -9 -11 -9h-51q-9 0 -11 9l-74 366q-1 3 -2 3t-2 -3l-72 -366q-1 -9 -11 -9h-49q-9 0 -11 9z
M179.5 607q-12.5 13 -12.5 34q0 20 13 33t32 13t30.5 -13t11.5 -33q0 -21 -11.5 -34t-30.5 -13q-20 0 -32.5 13zM310.5 607q-12.5 13 -12.5 34q0 20 13 33t32 13t31 -13t12 -33q0 -21 -12 -34t-31 -13q-20 0 -32.5 13z" />
    <glyph glyph-name="Ygrave" unicode="&#x1ef2;" horiz-adv-x="424" 
d="M177 11v299q0 4 -1 5l-139 373l-1 4q0 8 9 8h54q9 0 12 -8l98 -293q1 -2 3 -2t3 2l98 293q3 8 12 8h54q5 0 7.5 -3.5t0.5 -8.5l-138 -373q-1 -1 -1 -5v-299q0 -10 -10 -10h-51q-10 0 -10 10zM238 777q0 -6 -9 -6h-38q-7 0 -12 7l-70 109q-2 4 -2 6q0 6 8 6h47q7 0 12 -7
l62 -109q2 -4 2 -6z" />
    <glyph glyph-name="ygrave" unicode="&#x1ef3;" horiz-adv-x="367" 
d="M40 -197q-2 3 -2 7v41q0 10 5 10h5q31 0 48.5 11t28.5 39t22 86q1 2 0.5 3.5t-0.5 2.5l-127 492l-1 3q0 8 10 8h54q10 0 11 -9l88 -393q1 -3 2 -3t2 3l87 393q2 9 11 9l56 -1q5 0 7.5 -3t0.5 -8l-139 -538q-18 -67 -35.5 -99t-45.5 -44.5t-79 -12.5h-5q-2 0 -4 3z
M210 583q0 -6 -9 -6h-38q-7 0 -12 7l-70 109q-2 4 -2 6q0 6 8 6h47q7 0 12 -7l62 -109q2 -4 2 -6z" />
    <glyph glyph-name="endash" unicode="&#x2013;" horiz-adv-x="372" 
d="M32 262v42q0 10 10 10h288q10 0 10 -10v-42q0 -10 -10 -10h-288q-10 0 -10 10z" />
    <glyph glyph-name="emdash" unicode="&#x2014;" horiz-adv-x="592" 
d="M32 262v42q0 10 10 10h508q10 0 10 -10v-42q0 -10 -10 -10h-508q-10 0 -10 10z" />
    <glyph glyph-name="quoteleft" unicode="&#x2018;" horiz-adv-x="123" 
d="M4 506l59 186q3 8 12 8h37q11 0 8 -11l-45 -185q-1 -9 -11 -9h-52q-11 0 -8 11z" />
    <glyph glyph-name="quoteright" unicode="&#x2019;" horiz-adv-x="123" 
d="M119 689l-59 -186q-3 -8 -12 -8h-37q-11 0 -8 11l45 185q2 9 11 9h52q11 0 8 -11z" />
    <glyph glyph-name="quotesinglbase" unicode="&#x201a;" horiz-adv-x="600" 
d="M41 -76q-3 3 -2 8l31 214q1 9 10 9h45q11 0 9 -11l-45 -214q-1 -9 -11 -9h-30q-4 0 -7 3z" />
    <glyph glyph-name="quotedblleft" unicode="&#x201c;" horiz-adv-x="250" 
d="M4 506l64 186q3 8 12 8h35q5 0 7.5 -3t1.5 -8l-51 -185q-2 -9 -11 -9h-50q-11 0 -8 11zM128 506l63 186q3 8 12 8h35q5 0 7.5 -3t1.5 -8l-50 -185q-2 -9 -11 -9h-50q-11 0 -8 11z" />
    <glyph glyph-name="quotedblright" unicode="&#x201d;" horiz-adv-x="250" 
d="M122 689l-63 -186q-3 -8 -12 -8h-35q-5 0 -7.5 3t-1.5 8l50 185q2 9 11 9h50q11 0 8 -11zM246 689l-64 -186q-3 -8 -12 -8h-35q-5 0 -7.5 3t-1.5 8l51 185q2 9 11 9h50q11 0 8 -11z" />
    <glyph glyph-name="quotedblbase" unicode="&#x201e;" horiz-adv-x="238" 
d="M122 117l-63 -186q-3 -8 -12 -8h-35q-5 0 -7.5 3t-1.5 8l50 185q2 9 11 9h50q11 0 8 -11zM246 117l-64 -186q-3 -8 -12 -8h-35q-5 0 -7.5 3t-1.5 8l51 185q2 9 11 9h50q11 0 8 -11z" />
    <glyph glyph-name="dagger" unicode="&#x2020;" horiz-adv-x="337" 
d="M305 450v-36q0 -10 -10 -10h-87q-4 0 -4 -4v-590q0 -10 -10 -10h-51q-10 0 -10 10v590q0 4 -4 4h-87q-10 0 -10 10v36q0 10 10 10h87q4 0 4 4v226q0 10 10 10h51q10 0 10 -10v-226q0 -4 4 -4h87q10 0 10 -10z" />
    <glyph glyph-name="daggerdbl" unicode="&#x2021;" horiz-adv-x="337" 
d="M295 404h-87q-4 0 -4 -4v-300q0 -4 4 -4h87q10 0 10 -10v-36q0 -10 -10 -10h-87q-4 0 -4 -4v-226q0 -10 -10 -10h-51q-10 0 -10 10v226q0 4 -4 4h-87q-10 0 -10 10v36q0 10 10 10h87q4 0 4 4v300q0 4 -4 4h-87q-10 0 -10 10v36q0 10 10 10h87q4 0 4 4v226q0 10 10 10h51
q10 0 10 -10v-226q0 -4 4 -4h87q10 0 10 -10v-36q0 -10 -10 -10z" />
    <glyph glyph-name="bullet" unicode="&#x2022;" horiz-adv-x="295" 
d="M66 185.5q-34 34.5 -34 81.5q0 48 34 81.5t82 33.5q47 0 81 -33.5t34 -81.5q0 -47 -34 -81.5t-81 -34.5q-48 0 -82 34.5z" />
    <glyph glyph-name="ellipsis" unicode="&#x2026;" horiz-adv-x="643" 
d="M63.5 20q-15.5 17 -15.5 42q0 24 16.5 41.5t37.5 17.5q22 0 38.5 -17.5t16.5 -41.5q0 -25 -16 -42t-39 -17t-38.5 17zM281.5 20q-15.5 17 -15.5 42q0 24 16.5 41.5t37.5 17.5q22 0 38.5 -17.5t16.5 -41.5q0 -25 -16 -42t-39 -17t-38.5 17zM498.5 20q-15.5 17 -15.5 42
q0 24 16.5 41.5t37.5 17.5q22 0 38.5 -17.5t16.5 -41.5q0 -25 -16 -42t-39 -17t-38.5 17z" />
    <glyph glyph-name="perthousand" unicode="&#x2030;" horiz-adv-x="1009" 
d="M57 305.5q-29 30.5 -29 79.5v213q0 49 29 79.5t76 30.5t76 -30.5t29 -79.5v-213q0 -49 -29 -79.5t-76 -30.5t-76 30.5zM173 337q15 17 15 46v218q0 28 -15 45t-40 17q-24 0 -39 -17t-15 -45v-218q0 -29 15 -46t39 -17q25 0 40 17zM130.5 3.5q-1.5 3.5 1.5 8.5l431 681
q5 7 12 7h33q6 0 7.5 -3.5t-1.5 -8.5l-431 -681q-5 -7 -12 -7h-33q-6 0 -7.5 3.5zM532 22.5q-29 30.5 -29 79.5v213q0 49 29 79.5t76 30.5t76 -30.5t29 -79.5v-213q0 -49 -29 -79.5t-76 -30.5t-76 30.5zM648 54q15 17 15 46v218q0 28 -15 45t-40 17q-24 0 -39 -17t-15 -45
v-218q0 -29 15 -46t39 -17q25 0 40 17zM799 22.5q-29 30.5 -29 79.5v213q0 49 29 79.5t76 30.5t76 -30.5t29 -79.5v-213q0 -49 -29 -79.5t-76 -30.5t-76 30.5zM915 54q15 17 15 46v218q0 28 -15 45t-40 17q-24 0 -39 -17t-15 -45v-218q0 -29 15 -46t39 -17q25 0 40 17z" />
    <glyph glyph-name="guilsinglleft" unicode="&#x2039;" horiz-adv-x="309" 
d="M231 114q0 -7 -9 -7h-45q-7 0 -12 6l-106 161q-2 3 -2 7t2 7l106 161q5 6 12 6h45q6 0 8 -3.5t-1 -8.5l-105 -159q-1 -3 0 -6l105 -159z" />
    <glyph glyph-name="guilsinglright" unicode="&#x203a;" horiz-adv-x="327" 
d="M79 110.5q-2 3.5 1 8.5l105 159q2 3 0 6l-105 159l-2 5q0 7 9 7h45q8 0 12 -6l106 -161q2 -3 2 -7t-2 -7l-106 -161q-4 -6 -12 -6h-45q-6 0 -8 3.5z" />
    <glyph glyph-name="fraction" unicode="&#x2044;" horiz-adv-x="226" 
d="M-126.5 3.5q-1.5 3.5 1.5 8.5l431 681q5 7 12 7h33q6 0 7.5 -3.5t-1.5 -8.5l-431 -681q-5 -7 -12 -7h-33q-6 0 -7.5 3.5z" />
    <glyph glyph-name="uni2074" unicode="&#x2074;" horiz-adv-x="250" 
d="M237 591v-26q0 -10 -10 -10h-13q-4 0 -4 -4v-99q0 -10 -10 -10h-30q-10 0 -10 10v99q0 4 -4 4h-134q-10 0 -10 10v23q0 4 2 12l86 254q3 8 12 8h33q11 0 8 -11l-81 -245q-1 -2 0.5 -3.5t3.5 -1.5h80q4 0 4 4v81q0 10 10 10h30q10 0 10 -10v-81q0 -4 4 -4h13q10 0 10 -10z
" />
    <glyph glyph-name="uni2075" unicode="&#x2075;" horiz-adv-x="238" 
d="M218 569q0 -34 -5 -53q-6 -39 -31 -60t-64 -21q-40 0 -65 21.5t-31 64.5l-3 26q0 10 10 10h31q10 0 10 -10q0 -9 2 -21q4 -23 16 -34.5t30 -11.5q36 0 45 41q5 16 5 48q0 31 -5 47q-9 40 -45 40q-37 0 -46 -34q-3 -9 -11 -9h-32q-10 0 -10 10v227q0 10 10 10h171
q10 0 10 -10v-24q0 -10 -10 -10h-126q-4 0 -4 -4l-1 -130q0 -5 5 -2q23 21 58 21q33 0 53 -19.5t27 -55.5q6 -24 6 -57z" />
    <glyph glyph-name="uni2076" unicode="&#x2076;" horiz-adv-x="250" 
d="M229 569q0 -36 -7 -60q-7 -36 -31 -55t-62 -19q-37 0 -61 19t-32 56q-6 24 -6 56l-1 195q0 47 27.5 75.5t72.5 28.5q41 0 67.5 -28.5t26.5 -75.5v-7q0 -10 -10 -10h-31q-4 0 -7 2.5t-3 5.5v7q0 27 -12.5 43.5t-30.5 16.5q-22 0 -35.5 -16.5t-13.5 -43.5v-80q0 -2 1.5 -3
t3.5 1q10 12 24.5 18.5t31.5 6.5q32 0 53 -19.5t28 -54.5q7 -22 7 -59zM178 571q0 34 -7 56q-11 36 -43 36t-43 -38q-5 -28 -5 -54q0 -30 5 -50q9 -41 43 -41q33 0 44 37q6 26 6 54z" />
    <glyph glyph-name="uni2077" unicode="&#x2077;" horiz-adv-x="221" 
d="M58.5 445q-2.5 3 -1.5 8l100 361q1 1 -0.5 2.5t-3.5 1.5h-98q-4 0 -4 -4v-32q0 -10 -10 -10h-22q-10 0 -10 10l1 70q0 10 10 10h182q10 0 10 -10v-28q0 -2 -2 -12l-101 -362q-2 -8 -11 -8h-32q-5 0 -7.5 3z" />
    <glyph glyph-name="uni2078" unicode="&#x2078;" horiz-adv-x="256" 
d="M181 659q33 -21 41 -56q5 -21 5 -45q0 -23 -5 -46q-9 -34 -34.5 -55.5t-59.5 -21.5t-58 20.5t-35 56.5q-6 19 -6 46q0 28 5 46q9 36 40 54q4 3 0 6q-30 18 -40 54q-6 21 -6 39q0 20 6 39q10 34 34.5 52t59.5 18q34 0 59 -18.5t35 -51.5q6 -21 6 -40q0 -12 -6 -38
q-10 -35 -41 -53q-5 -3 0 -6zM78 752q0 -13 2 -21q8 -49 48 -49q37 0 47 49q2 7 2 21t-2 21q-9 49 -47 49q-20 0 -33 -13.5t-15 -35.5q-2 -12 -2 -21zM176.5 549.5q-0.5 8.5 -0.5 11.5v13q0 9 -1 14q-3 25 -15.5 39.5t-31.5 14.5q-20 0 -33.5 -15t-14.5 -39q-1 -10 -1 -27
q0 -18 1 -28q1 -24 14.5 -38.5t33.5 -14.5q19 0 31.5 14.5t15.5 38.5q2 8 1.5 16.5z" />
    <glyph glyph-name="uni2079" unicode="&#x2079;" horiz-adv-x="250" 
d="M221 539q0 -47 -27.5 -75.5t-72.5 -28.5q-41 0 -67.5 28.5t-26.5 75.5v7q0 10 10 10h31q10 0 10 -7v-8q0 -27 12.5 -43.5t30.5 -16.5q22 0 35.5 16.5t13.5 43.5v80q0 2 -1.5 3t-3.5 -1q-10 -12 -24.5 -18.5t-31.5 -6.5q-32 0 -53 19.5t-28 54.5q-7 22 -7 59q0 36 7 60
q7 36 31 55t62 19q37 0 61 -19t32 -56q6 -24 6 -56zM165 675q5 28 5 54q0 30 -5 50q-9 41 -43 41q-33 0 -44 -37q-6 -25 -6 -54q0 -34 7 -56q11 -36 43 -36t43 38z" />
    <glyph glyph-name="franc" unicode="&#x20a3;" horiz-adv-x="475" 
d="M448 638h-230q-4 0 -4 -4v-248q0 -4 4 -4h145q10 0 10 -10v-43q0 -10 -10 -10h-145q-4 0 -4 -4v-123q0 -4 4 -4h116q10 0 10 -10v-28q0 -10 -10 -10h-116q-4 0 -4 -4v-126q0 -10 -10 -10h-51q-10 0 -10 10v126q0 4 -4 4h-57q-10 0 -10 10v28q0 10 10 10h57q4 0 4 4v498
q0 10 10 10h295q10 0 10 -10v-42q0 -10 -10 -10z" />
    <glyph glyph-name="Euro" unicode="&#x20ac;" horiz-adv-x="486" 
d="M338.5 78.5q22.5 24.5 25.5 66.5q2 12 11 10l51 -8q10 -2 9 -11q-8 -67 -49.5 -105.5t-105.5 -38.5q-71 0 -113.5 47t-42.5 126v101q0 4 -4 4h-55q-10 0 -10 10v23q0 10 10 10h55q4 0 4 4v63q0 4 -4 4h-55q-10 0 -10 10v23q0 10 10 10h55q4 0 4 4v105q0 79 42.5 125.5
t113.5 46.5q65 0 106.5 -39t48.5 -107v-2q0 -7 -9 -9l-51 -7h-2q-8 0 -8 10q-3 42 -26 67t-59 25q-38 0 -61.5 -29t-23.5 -76v-110q0 -4 4 -4h171q11 0 8 -11l-8 -24q-3 -8 -12 -8h-159q-4 0 -4 -4v-63q0 -4 4 -4h140q5 0 7.5 -3.5t0.5 -8.5l-9 -23q-3 -8 -11 -8h-128
q-4 0 -4 -4v-107q0 -47 23.5 -76t61.5 -29q36 0 58.5 24.5z" />
    <glyph glyph-name="uni20BA" unicode="&#x20ba;" horiz-adv-x="561" 
d="M511 258q-2 -100 -64.5 -170t-175.5 -83q-50 -6 -95 -5q-10 0 -10 10v302q0 2 -1.5 3.5t-3.5 0.5l-83 -26l-4 -1q-6 0 -9 8l-7 24l-1 4q0 6 8 9l98 30q3 2 3 4v59q0 2 -1.5 3.5t-3.5 0.5l-83 -26l-4 -1q-6 0 -9 8l-7 24l-1 4q0 6 8 9l98 30q3 2 3 4v207q0 10 10 10h51
q10 0 10 -10v-183q0 -2 1.5 -3.5t3.5 -0.5l123 38l4 1q6 0 9 -8l7 -24l1 -4q0 -6 -8 -9l-138 -42q-3 -1 -3 -4v-59q0 -2 1.5 -3.5t3.5 -0.5l123 38l4 1q6 0 9 -8l7 -24l1 -4q0 -6 -8 -9l-138 -42q-3 -1 -3 -4v-270q0 -4 4 -4q91 5 144 58.5t55 137.5q0 10 10 10h51
q10 0 10 -10z" />
    <glyph glyph-name="uni20BD" unicode="&#x20bd;" horiz-adv-x="511" 
d="M215 316q-4 0 -4 -4v-84q0 -4 4 -4h163q10 0 10 -10v-24q0 -10 -10 -10h-163q-4 0 -4 -4v-166q0 -10 -10 -10h-51q-10 0 -10 10v166q0 4 -4 4h-54q-10 0 -10 10v24q0 10 10 10h54q4 0 4 4v84q0 4 -4 4h-54q-10 0 -10 10v38q0 10 10 10h54q4 0 4 4v313q0 10 10 10h165
q73 0 118 -53.5t45 -140.5q0 -86 -44.5 -138.5t-115.5 -52.5h-103zM211 635v-257q0 -4 4 -4h90q46 0 74 36t28 96t-28 96.5t-74 36.5h-90q-4 0 -4 -4z" />
    <glyph glyph-name="uni2113" unicode="&#x2113;" horiz-adv-x="422" 
d="M327 77q4 4 7 4q4 0 7 -5l19 -29q5 -8 0 -14q-17 -19 -47 -30t-66 -11q-59 0 -92 41t-33 114l-1 97q0 3 -2 3.5t-3 -1.5l-31 -26q-3 -3 -6 -3q-5 0 -8 6l-12 27q-1 2 -1 5q0 5 4 9l57 48q2 2 2 5l-1 186q0 51 17 98.5t48.5 77t74.5 29.5q46 0 75.5 -37t29.5 -94
q0 -75 -48 -140t-133 -136q-2 -2 -2 -5v-140q0 -109 73 -109q42 0 72 30zM181 372q0 -2 1.5 -3t3.5 1q58 52 90.5 101t32.5 101q0 36 -14 59.5t-37 23.5q-33 0 -55.5 -44.5t-21.5 -116.5v-122z" />
    <glyph glyph-name="trademark" unicode="&#x2122;" horiz-adv-x="515" 
d="M17 671v19q0 10 10 10h181q10 0 10 -10v-19q0 -10 -10 -10h-66q-4 0 -4 -4v-298q0 -10 -10 -10h-25q-10 0 -10 10v298q0 4 -4 4h-62q-10 0 -10 10zM444 700h25q10 0 10 -10v-331q0 -10 -10 -10h-24q-10 0 -10 10v256q0 3 -1.5 3t-3.5 -2l-47 -95q-3 -7 -8 -7t-8 7l-48 97
q-2 2 -3.5 1.5t-1.5 -3.5v-257q0 -10 -10 -10h-25q-10 0 -10 10v331q0 10 10 10h26q9 0 12 -7l54 -110q1 -2 3 -2t3 2l55 110q3 7 12 7z" />
    <glyph glyph-name="uni2126" unicode="&#x2126;" horiz-adv-x="481" 
d="M55 10v42q0 10 10 10h55q2 0 3 1.5t-1 3.5q-25 22 -39 54.5t-14 71.5v340q0 79 47.5 127t124.5 48q78 0 126 -48t48 -127v-340q0 -40 -14.5 -72t-39.5 -54q-2 -2 -1 -3.5t3 -1.5h53q10 0 10 -10v-42q0 -10 -10 -10h-141q-10 0 -10 10v43q0 8 9 11q29 7 49.5 36.5
t20.5 70.5v365q0 49 -28.5 79.5t-74.5 30.5q-45 0 -73 -30.5t-28 -79.5v-365q0 -41 20 -70.5t49 -35.5q9 -3 9 -11v-44q0 -10 -10 -10h-143q-10 0 -10 10z" />
    <glyph glyph-name="estimated" unicode="&#x212e;" horiz-adv-x="841" 
d="M608.5 661.5q83.5 -46.5 130.5 -129t47 -185.5q0 -4 -10 -4h-627q-4 0 -4 -4v-185q0 -3 2 -5q45 -61 116 -95.5t157 -34.5q96 0 175.5 46t120.5 123q4 7 12 7h12q5 0 7.5 -3.5t-0.5 -8.5q-44 -87 -132 -139t-195 -52q-104 0 -187.5 46.5t-130.5 127.5t-47 181
q0 103 47 185t130 129t188 47t188.5 -46.5zM146 546v-172q0 -4 4 -4h541q4 0 4 4v170q0 3 -2 5q-45 62 -115.5 97t-157.5 35q-86 0 -156.5 -34.5t-115.5 -95.5q-2 -1 -2 -5z" />
    <glyph glyph-name="oneeighth" unicode="&#x215b;" horiz-adv-x="683" 
d="M71 700h34q10 0 10 -10v-400q0 -10 -10 -10h-31q-10 0 -10 10v357q0 2 -1.5 3.5t-3.5 0.5l-21 -7l-4 -1q-7 0 -7 9v18q0 7 7 12l24 15q4 3 13 3zM67.5 3.5q-1.5 3.5 1.5 8.5l431 681q5 7 12 7h33q6 0 7.5 -3.5t-1.5 -8.5l-431 -681q-5 -7 -12 -7h-33q-6 0 -7.5 3.5z
M608 217q33 -21 41 -56q5 -21 5 -45q0 -23 -5 -46q-9 -34 -34.5 -55.5t-59.5 -21.5t-58 20.5t-35 56.5q-6 19 -6 46q0 28 5 46q9 36 40 54q4 3 0 6q-30 18 -40 54q-6 21 -6 39q0 20 6 39q10 34 34.5 52t59.5 18q34 0 59 -18.5t35 -51.5q6 -21 6 -40q0 -12 -6 -38
q-10 -35 -41 -53q-5 -3 0 -6zM505 310q0 -13 2 -21q8 -49 48 -49q37 0 47 49q2 7 2 21t-2 21q-9 49 -47 49q-20 0 -33 -13.5t-15 -35.5q-2 -12 -2 -21zM603.5 107.5q-0.5 8.5 -0.5 11.5v13q0 9 -1 14q-3 25 -15.5 39.5t-31.5 14.5q-20 0 -33.5 -15t-14.5 -39q-1 -10 -1 -27
q0 -18 1 -28q1 -24 14.5 -38.5t33.5 -14.5q19 0 31.5 14.5t15.5 38.5q2 8 1.5 16.5z" />
    <glyph glyph-name="threeeighths" unicode="&#x215c;" horiz-adv-x="752" 
d="M227 406q0 -35 -8 -62q-8 -33 -32 -52t-61 -19q-41 0 -67.5 25t-31.5 65q-2 22 -2 33q0 10 10 10h30q10 0 10 -10q0 -9 2 -23q3 -26 15.5 -40.5t33.5 -14.5q34 0 46 37q7 24 7 56q0 31 -5 50q-11 46 -48 46q-7 0 -11 -3q-2 -1 -7 -1q-4 0 -7 3l-15 15q-5 7 -1 14l79 114
q1 1 0 3t-3 2h-123q-10 0 -10 10v24q0 10 10 10h176q10 0 10 -10v-27q0 -8 -4 -13l-69 -103q-1 -1 -0.5 -2.5t2.5 -1.5q26 -4 44 -26t24 -54q6 -24 6 -55zM136.5 3.5q-1.5 3.5 1.5 8.5l431 681q5 7 12 7h33q6 0 7.5 -3.5t-1.5 -8.5l-431 -681q-5 -7 -12 -7h-33
q-6 0 -7.5 3.5zM677 217q33 -21 41 -56q5 -21 5 -45q0 -23 -5 -46q-9 -34 -34.5 -55.5t-59.5 -21.5t-58 20.5t-35 56.5q-6 19 -6 46q0 28 5 46q9 36 40 54q4 3 0 6q-30 18 -40 54q-6 21 -6 39q0 20 6 39q10 34 34.5 52t59.5 18q34 0 59 -18.5t35 -51.5q6 -21 6 -40
q0 -12 -6 -38q-10 -35 -41 -53q-5 -3 0 -6zM574 310q0 -13 2 -21q8 -49 48 -49q37 0 47 49q2 7 2 21t-2 21q-9 49 -47 49q-20 0 -33 -13.5t-15 -35.5q-2 -12 -2 -21zM672.5 107.5q-0.5 8.5 -0.5 11.5v13q0 9 -1 14q-3 25 -15.5 39.5t-31.5 14.5q-20 0 -33.5 -15t-14.5 -39
q-1 -10 -1 -27q0 -18 1 -28q1 -24 14.5 -38.5t33.5 -14.5q19 0 31.5 14.5t15.5 38.5q2 8 1.5 16.5z" />
    <glyph glyph-name="fiveeighths" unicode="&#x215d;" horiz-adv-x="706" 
d="M218 407q0 -34 -5 -53q-6 -39 -31 -60t-64 -21q-40 0 -65 21.5t-31 64.5l-3 26q0 10 10 10h31q10 0 10 -10q0 -9 2 -21q4 -23 16 -34.5t30 -11.5q36 0 45 41q5 16 5 48q0 31 -5 47q-9 40 -45 40q-37 0 -46 -34q-3 -9 -11 -9h-32q-10 0 -10 10v227q0 10 10 10h171
q10 0 10 -10v-24q0 -10 -10 -10h-126q-4 0 -4 -4l-1 -130q0 -5 5 -2q23 21 58 21q33 0 53 -19.5t27 -55.5q6 -24 6 -57zM90.5 3.5q-1.5 3.5 1.5 8.5l431 681q5 7 12 7h33q6 0 7.5 -3.5t-1.5 -8.5l-431 -681q-5 -7 -12 -7h-33q-6 0 -7.5 3.5zM631 217q33 -21 41 -56
q5 -21 5 -45q0 -23 -5 -46q-9 -34 -34.5 -55.5t-59.5 -21.5t-58 20.5t-35 56.5q-6 19 -6 46q0 28 5 46q9 36 40 54q4 3 0 6q-30 18 -40 54q-6 21 -6 39q0 20 6 39q10 34 34.5 52t59.5 18q34 0 59 -18.5t35 -51.5q6 -21 6 -40q0 -12 -6 -38q-10 -35 -41 -53q-5 -3 0 -6z
M528 310q0 -13 2 -21q8 -49 48 -49q37 0 47 49q2 7 2 21t-2 21q-9 49 -47 49q-20 0 -33 -13.5t-15 -35.5q-2 -12 -2 -21zM626.5 107.5q-0.5 8.5 -0.5 11.5v13q0 9 -1 14q-3 25 -15.5 39.5t-31.5 14.5q-20 0 -33.5 -15t-14.5 -39q-1 -10 -1 -27q0 -18 1 -28q1 -24 14.5 -38.5
t33.5 -14.5q19 0 31.5 14.5t15.5 38.5q2 8 1.5 16.5z" />
    <glyph glyph-name="seveneighths" unicode="&#x215e;" horiz-adv-x="671" 
d="M58.5 283q-2.5 3 -1.5 8l100 361q1 1 -0.5 2.5t-3.5 1.5h-98q-4 0 -4 -4v-32q0 -10 -10 -10h-22q-10 0 -10 10l1 70q0 10 10 10h182q10 0 10 -10v-28q0 -2 -2 -12l-101 -362q-2 -8 -11 -8h-32q-5 0 -7.5 3zM55.5 3.5q-1.5 3.5 1.5 8.5l431 681q5 7 12 7h33q6 0 7.5 -3.5
t-1.5 -8.5l-431 -681q-5 -7 -12 -7h-33q-6 0 -7.5 3.5zM596 217q33 -21 41 -56q5 -21 5 -45q0 -23 -5 -46q-9 -34 -34.5 -55.5t-59.5 -21.5t-58 20.5t-35 56.5q-6 19 -6 46q0 28 5 46q9 36 40 54q4 3 0 6q-30 18 -40 54q-6 21 -6 39q0 20 6 39q10 34 34.5 52t59.5 18
q34 0 59 -18.5t35 -51.5q6 -21 6 -40q0 -12 -6 -38q-10 -35 -41 -53q-5 -3 0 -6zM493 310q0 -13 2 -21q8 -49 48 -49q37 0 47 49q2 7 2 21t-2 21q-9 49 -47 49q-20 0 -33 -13.5t-15 -35.5q-2 -12 -2 -21zM591.5 107.5q-0.5 8.5 -0.5 11.5v13q0 9 -1 14q-3 25 -15.5 39.5
t-31.5 14.5q-20 0 -33.5 -15t-14.5 -39q-1 -10 -1 -27q0 -18 1 -28q1 -24 14.5 -38.5t33.5 -14.5q19 0 31.5 14.5t15.5 38.5q2 8 1.5 16.5z" />
    <glyph glyph-name="partialdiff" unicode="&#x2202;" horiz-adv-x="533" 
d="M452 496.5q18 -76.5 18 -156.5q0 -31 -1 -45q-5 -126 -55.5 -214.5t-161.5 -88.5q-58 0 -104 25.5t-72 74.5t-26 117q0 70 28 120.5t74 77t99 26.5q41 0 78.5 -15.5t67.5 -42.5q5 -5 5 2q-11 137 -58 202q-41 61 -109 61q-50 0 -95 -28l-6 -2q-7 0 -8 7l-16 42q-1 1 -1 4
q0 7 6 10q64 34 122 34q50 0 90.5 -21.5t69.5 -61.5q37 -51 55 -127.5zM359.5 112q36.5 58 42.5 161q0 4 -1 5q-18 41 -55.5 67.5t-83.5 26.5q-39 0 -71 -20t-51 -57t-19 -86q0 -70 38.5 -112.5t98.5 -42.5q65 0 101.5 58z" />
    <glyph glyph-name="uni2206" unicode="&#x2206;" horiz-adv-x="544" 
d="M33 10v46q0 4 2 12l207 624q3 8 12 8h36q9 0 12 -8l207 -625q2 -8 2 -12v-45q0 -10 -10 -10h-458q-10 0 -10 10zM104.5 63.5q1.5 -1.5 3.5 -1.5h328q2 0 3.5 1.5t0.5 3.5l-165 535q-1 2 -3 2t-3 -2l-165 -535q-1 -2 0.5 -3.5z" />
    <glyph glyph-name="product" unicode="&#x220f;" horiz-adv-x="473" 
d="M401 790v-980q0 -10 -10 -10h-51q-10 0 -10 10v924q0 4 -4 4h-179q-4 0 -4 -4v-924q0 -10 -10 -10h-51q-10 0 -10 10v980q0 10 10 10h309q10 0 10 -10z" />
    <glyph glyph-name="summation" unicode="&#x2211;" horiz-adv-x="510" 
d="M72 -189v44q0 5 3 13l212 431q1 2 -1 6l-210 356q-3 6 -3 13v45q0 10 10 10h376q10 0 10 -10v-42q0 -10 -10 -10h-312q-2 0 -3 -1.5t0 -3.5l212 -353q4 -6 1 -14l-214 -428q-2 -5 3 -5h313q10 0 10 -10v-41q0 -10 -10 -10h-377q-10 0 -10 10z" />
    <glyph glyph-name="minus" unicode="&#x2212;" horiz-adv-x="442" 
d="M32 299v35q0 10 10 10h358q10 0 10 -10v-35q0 -10 -10 -10h-358q-10 0 -10 10z" />
    <glyph glyph-name="uni2215" unicode="&#x2215;" horiz-adv-x="410" 
d="M27.5 3.5q-2.5 3.5 -0.5 8.5l292 680q3 8 11 8h45q5 0 7.5 -3.5t0.5 -8.5l-291 -680q-3 -8 -11 -8h-46q-5 0 -7.5 3.5z" />
    <glyph glyph-name="uni2219" unicode="&#x2219;" horiz-adv-x="295" 
d="M66 229.5q-34 34.5 -34 81.5q0 48 34 81.5t82 33.5q47 0 81 -33.5t34 -81.5q0 -47 -34 -81.5t-81 -34.5q-48 0 -82 34.5z" />
    <glyph glyph-name="radical" unicode="&#x221a;" horiz-adv-x="649" 
d="M142 -192l-117 354l-1 4q0 6 8 9l46 15l4 1q6 0 9 -8l81 -261q1 -2 2.5 -2t2.5 2l199 859q2 9 11 9h191q10 0 10 -10v-41q0 -10 -10 -10h-141q-5 0 -5 -3l-215 -917q-2 -9 -11 -9h-52q-9 0 -12 8z" />
    <glyph glyph-name="infinity" unicode="&#x221e;" horiz-adv-x="639" 
d="M538.5 458q31.5 -20 49.5 -56.5t18 -82.5q0 -47 -18.5 -83t-50 -55.5t-69.5 -19.5q-82 0 -151 105q-3 3 -6 0q-32 -47 -67.5 -76t-78.5 -29q-36 0 -66.5 20.5t-48.5 57t-18 81.5q0 47 18.5 83t49.5 55.5t67 19.5q43 0 78.5 -28t66.5 -76q3 -3 6 0q33 48 69.5 76t81.5 28
q38 0 69.5 -20zM218.5 241q25.5 24 61.5 77q2 3 0 6q-33 50 -58.5 74t-53.5 24q-32 0 -55.5 -27.5t-23.5 -74.5q0 -45 22.5 -74t53.5 -29q28 0 53.5 24zM525.5 245q23.5 28 23.5 74t-22.5 74.5t-56.5 28.5q-30 0 -59 -24.5t-63 -74.5q-1 -3 0 -6q30 -47 58 -73.5t62 -26.5
t57.5 28z" />
    <glyph glyph-name="integral" unicode="&#x222b;" horiz-adv-x="323" 
d="M28 -197v44q0 10 10 10h14q40 0 54.5 27t14.5 82l3 586q0 61 15 94t48.5 46.5t93.5 14.5q10 0 10 -10v-44q0 -10 -10 -10h-15q-40 0 -54.5 -27t-15.5 -82l-2 -586q0 -60 -15 -93t-48.5 -47t-92.5 -15q-10 0 -10 10z" />
    <glyph glyph-name="approxequal" unicode="&#x2248;" horiz-adv-x="461" 
d="M272 371.5q-20 8.5 -49 25.5q-23 13 -37.5 19.5t-32.5 6.5q-46 0 -72 -41q-5 -10 -14 -4l-27 16q-8 5 -5 14q16 35 45.5 56.5t66.5 21.5q24 0 42.5 -7t38.5 -20q27 -17 46 -25t43 -8q20 0 33.5 10t27.5 30q6 8 14 3l29 -19q8 -5 3 -13q-44 -74 -104 -74q-28 0 -48 8.5z
M272 161.5q-20 8.5 -49 25.5q-23 13 -37.5 19.5t-32.5 6.5q-46 0 -72 -41q-5 -10 -14 -4l-27 16q-8 5 -5 14q16 35 45.5 56.5t66.5 21.5q24 0 42.5 -7t38.5 -20q27 -17 46 -25t43 -8q20 0 33.5 10t27.5 30q6 8 14 3l29 -19q8 -5 3 -13q-44 -74 -104 -74q-28 0 -48 8.5z" />
    <glyph glyph-name="notequal" unicode="&#x2260;" horiz-adv-x="442" 
d="M400 405h-125q-2 0 -4 -3l-68 -143q-1 -2 0 -3.5t3 -1.5h194q10 0 10 -10v-35q0 -10 -10 -10h-221q-2 0 -4 -3l-42 -88q-3 -7 -11 -7h-27q-5 0 -7 3.5t0 8.5l38 81q1 2 0 3.5t-3 1.5h-81q-10 0 -10 10v35q0 10 10 10h108q3 0 4 3l68 143q1 2 0 3.5t-3 1.5h-177
q-10 0 -10 10v35q0 10 10 10h205q3 0 4 3l41 87q3 7 11 7h27q5 0 7.5 -3.5t0.5 -8.5l-38 -80q-1 -2 0 -3.5t3 -1.5h97q10 0 10 -10v-35q0 -10 -10 -10z" />
    <glyph glyph-name="lessequal" unicode="&#x2264;" horiz-adv-x="442" 
d="M406.5 116.5q-3.5 -2.5 -8.5 0.5l-359 176q-7 4 -7 12v48q0 8 7 12l359 176l5 2q3 0 5 -2.5t2 -6.5v-49q0 -8 -7 -12l-298 -141q-4 -3 0 -6l298 -141q7 -4 7 -12v-49q0 -5 -3.5 -7.5zM400 28h-358q-10 0 -10 10v35q0 10 10 10h358q10 0 10 -10v-35q0 -10 -10 -10z" />
    <glyph glyph-name="greaterequal" unicode="&#x2265;" horiz-adv-x="442" 
d="M32 38v35q0 10 10 10h358q10 0 10 -10v-35q0 -10 -10 -10h-358q-10 0 -10 10zM39 115q-3 0 -5 2.5t-2 6.5v49q0 8 7 12l298 141q4 3 0 6l-298 141q-7 4 -7 12v49q0 5 3.5 7.5t8.5 -0.5l359 -176q7 -4 7 -12v-48q0 -8 -7 -12l-359 -176z" />
    <glyph glyph-name="lozenge" unicode="&#x25ca;" horiz-adv-x="403" 
d="M171 -38l-137 381q-3 7 0 14l138 381q3 8 12 8h35q9 0 12 -8l138 -381q4 -7 0 -14l-137 -381q-3 -8 -12 -8h-37q-9 0 -12 8zM202 31q2 0 3 2l106 314q2 3 0 6l-106 311q-1 2 -3 2t-3 -2l-106 -311q-1 -3 0 -6l106 -314q1 -2 3 -2z" />
    <glyph glyph-name="NULL" 
 />
    <glyph glyph-name="i.loclTRK" horiz-adv-x="188" 
d="M57 10v486q0 10 10 10h51q10 0 10 -10v-486q0 -10 -10 -10h-51q-10 0 -10 10zM62 602.5q-12 12.5 -12 31.5t12 31.5t30 12.5t29 -12t11 -32q0 -19 -11 -31.5t-29 -12.5t-30 12.5z" />
    <glyph glyph-name="a.alt" horiz-adv-x="423" 
d="M301 506h51q10 0 10 -10v-486q0 -10 -10 -10h-51q-10 0 -10 10v29q0 2 -1.5 3t-3.5 -1q-17 -24 -42.5 -36.5t-56.5 -12.5q-59 0 -95.5 42.5t-39.5 110.5q-1 37 -1 111q0 71 1 108q2 67 38.5 108.5t96.5 41.5q65 0 99 -48q2 -2 3.5 -1t1.5 3v28q0 10 10 10zM267.5 81.5
q23.5 27.5 23.5 72.5v198q0 45 -23.5 72.5t-59.5 27.5q-39 0 -63 -27.5t-23 -72.5v-35v-64v-99q-1 -44 23 -72t63 -28q36 0 59.5 27.5z" />
    <glyph glyph-name="a.sc" horiz-adv-x="409" 
d="M306 9l-20 95q0 2 -1.5 3t-3.5 1h-154q-2 0 -3.5 -1t-1.5 -3l-21 -95q-1 -9 -11 -9h-51q-5 0 -7.5 3t-0.5 8l131 557q2 9 11 9h61q9 0 11 -9l133 -557l1 -4q0 -7 -9 -7h-53q-9 0 -11 9zM137 167.5q1 -1.5 3 -1.5h129q2 0 3 1.5t0 2.5l-65 301q-1 3 -2 3t-2 -3l-66 -301
q-1 -1 0 -2.5z" />
    <glyph glyph-name="aacute.sc" horiz-adv-x="409" 
d="M306 9l-20 95q0 2 -1.5 3t-3.5 1h-154q-2 0 -3.5 -1t-1.5 -3l-21 -95q-1 -9 -11 -9h-51q-5 0 -7.5 3t-0.5 8l131 557q2 9 11 9h61q9 0 11 -9l133 -557l1 -4q0 -7 -9 -7h-53q-9 0 -11 9zM137 167.5q1 -1.5 3 -1.5h129q2 0 3 1.5t0 2.5l-65 301q-1 3 -2 3t-2 -3l-66 -301
q-1 -1 0 -2.5zM158 651.5q-2 3.5 1 8.5l62 109q5 7 12 7h47q6 0 7.5 -3.5t-1.5 -8.5l-70 -109q-5 -7 -12 -7h-38q-6 0 -8 3.5z" />
    <glyph glyph-name="abreve.sc" horiz-adv-x="409" 
d="M306 9l-20 95q0 2 -1.5 3t-3.5 1h-154q-2 0 -3.5 -1t-1.5 -3l-21 -95q-1 -9 -11 -9h-51q-5 0 -7.5 3t-0.5 8l131 557q2 9 11 9h61q9 0 11 -9l133 -557l1 -4q0 -7 -9 -7h-53q-9 0 -11 9zM137 167.5q1 -1.5 3 -1.5h129q2 0 3 1.5t0 2.5l-65 301q-1 3 -2 3t-2 -3l-66 -301
q-1 -1 0 -2.5zM132 642q-29 27 -33 68q0 10 10 10h23q10 0 11 -10q3 -25 20 -41t41 -16t41 16t20 41q1 10 11 10h23q10 0 10 -10q-4 -42 -33 -68.5t-72 -26.5t-72 27z" />
    <glyph glyph-name="uni01CE.sc" horiz-adv-x="409" 
d="M306 9l-20 95q0 2 -1.5 3t-3.5 1h-154q-2 0 -3.5 -1t-1.5 -3l-21 -95q-1 -9 -11 -9h-51q-5 0 -7.5 3t-0.5 8l131 557q2 9 11 9h61q9 0 11 -9l133 -557l1 -4q0 -7 -9 -7h-53q-9 0 -11 9zM137 167.5q1 -1.5 3 -1.5h129q2 0 3 1.5t0 2.5l-65 301q-1 3 -2 3t-2 -3l-66 -301
q-1 -1 0 -2.5zM163 637l-66 103q-2 4 -2 6q0 6 8 6h42q7 0 12 -7l45 -72q1 -1 3 -1t3 1l43 72q5 7 12 7h40q6 0 7.5 -3.5t-1.5 -8.5l-68 -103q-5 -7 -12 -7h-54q-7 0 -12 7z" />
    <glyph glyph-name="acircumflex.sc" horiz-adv-x="409" 
d="M306 9l-20 95q0 2 -1.5 3t-3.5 1h-154q-2 0 -3.5 -1t-1.5 -3l-21 -95q-1 -9 -11 -9h-51q-5 0 -7.5 3t-0.5 8l131 557q2 9 11 9h61q9 0 11 -9l133 -557l1 -4q0 -7 -9 -7h-53q-9 0 -11 9zM137 167.5q1 -1.5 3 -1.5h129q2 0 3 1.5t0 2.5l-65 301q-1 3 -2 3t-2 -3l-66 -301
q-1 -1 0 -2.5zM94.5 644.5q-1.5 3.5 1.5 8.5l66 103q5 7 12 7h57q7 0 12 -7l68 -103l2 -5q0 -7 -9 -7h-42q-7 0 -12 7l-44 73q-1 2 -3 2t-3 -2l-43 -73q-5 -7 -12 -7h-43q-6 0 -7.5 3.5z" />
    <glyph glyph-name="adieresis.sc" horiz-adv-x="409" 
d="M306 9l-20 95q0 2 -1.5 3t-3.5 1h-154q-2 0 -3.5 -1t-1.5 -3l-21 -95q-1 -9 -11 -9h-51q-5 0 -7.5 3t-0.5 8l131 557q2 9 11 9h61q9 0 11 -9l133 -557l1 -4q0 -7 -9 -7h-53q-9 0 -11 9zM137 167.5q1 -1.5 3 -1.5h129q2 0 3 1.5t0 2.5l-65 301q-1 3 -2 3t-2 -3l-66 -301
q-1 -1 0 -2.5zM107.5 678q-12.5 13 -12.5 34q0 20 13 33t32 13t30.5 -13t11.5 -33q0 -21 -11.5 -34t-30.5 -13q-20 0 -32.5 13zM238.5 678q-12.5 13 -12.5 34q0 20 13 33t32 13t31 -13t12 -33q0 -21 -12 -34t-31 -13q-20 0 -32.5 13z" />
    <glyph glyph-name="agrave.sc" horiz-adv-x="409" 
d="M306 9l-20 95q0 2 -1.5 3t-3.5 1h-154q-2 0 -3.5 -1t-1.5 -3l-21 -95q-1 -9 -11 -9h-51q-5 0 -7.5 3t-0.5 8l131 557q2 9 11 9h61q9 0 11 -9l133 -557l1 -4q0 -7 -9 -7h-53q-9 0 -11 9zM137 167.5q1 -1.5 3 -1.5h129q2 0 3 1.5t0 2.5l-65 301q-1 3 -2 3t-2 -3l-66 -301
q-1 -1 0 -2.5zM230 654q0 -6 -9 -6h-38q-7 0 -12 7l-70 109q-2 4 -2 6q0 6 8 6h47q7 0 12 -7l62 -109q2 -4 2 -6z" />
    <glyph glyph-name="amacron.sc" horiz-adv-x="409" 
d="M306 9l-20 95q0 2 -1.5 3t-3.5 1h-154q-2 0 -3.5 -1t-1.5 -3l-21 -95q-1 -9 -11 -9h-51q-5 0 -7.5 3t-0.5 8l131 557q2 9 11 9h61q9 0 11 -9l133 -557l1 -4q0 -7 -9 -7h-53q-9 0 -11 9zM137 167.5q1 -1.5 3 -1.5h129q2 0 3 1.5t0 2.5l-65 301q-1 3 -2 3t-2 -3l-66 -301
q-1 -1 0 -2.5zM101 676v32q0 10 10 10h183q10 0 10 -10v-32q0 -10 -10 -10h-183q-10 0 -10 10z" />
    <glyph glyph-name="aogonek.sc" horiz-adv-x="426" 
d="M306 9l-20 95q0 2 -1.5 3t-3.5 1h-154q-2 0 -3.5 -1t-1.5 -3l-21 -95q-1 -9 -11 -9h-51q-5 0 -7.5 3t-0.5 8l131 557q2 9 11 9h61q9 0 11 -9l133 -557l1 -4q0 -7 -9 -7h-53q-9 0 -11 9zM137 167.5q1 -1.5 3 -1.5h129q2 0 3 1.5t0 2.5l-65 301q-1 3 -2 3t-2 -3l-66 -301
q-1 -1 0 -2.5zM393 -173q0 -6 -7 -9q-13 -3 -29 -3q-34 0 -57 18.5t-23 63.5q0 25 11 50t34 46l4 4q3 3 10 3h27q8 0 8 -5q0 -4 -4 -7q-41 -43 -41 -85q0 -24 12 -35t30 -11q7 0 10 1l4 1q6 0 8 -8l3 -21v-3z" />
    <glyph glyph-name="aring.sc" horiz-adv-x="409" 
d="M306 9l-20 95q0 2 -1.5 3t-3.5 1h-154q-2 0 -3.5 -1t-1.5 -3l-21 -95q-1 -9 -11 -9h-51q-5 0 -7.5 3t-0.5 8l131 557q2 9 11 9h61q9 0 11 -9l133 -557l1 -4q0 -7 -9 -7h-53q-9 0 -11 9zM137 167.5q1 -1.5 3 -1.5h129q2 0 3 1.5t0 2.5l-65 301q-1 3 -2 3t-2 -3l-66 -301
q-1 -1 0 -2.5zM132.5 673q-29.5 30 -29.5 73t29.5 73t71.5 30q43 0 72 -30t29 -73t-29 -73t-72 -30q-42 0 -71.5 30zM248 700.5q18 18.5 18 45.5q0 28 -18 46.5t-44 18.5t-44 -18.5t-18 -46.5q0 -27 18 -45.5t44 -18.5t44 18.5z" />
    <glyph glyph-name="atilde.sc" horiz-adv-x="409" 
d="M306 9l-20 95q0 2 -1.5 3t-3.5 1h-154q-2 0 -3.5 -1t-1.5 -3l-21 -95q-1 -9 -11 -9h-51q-5 0 -7.5 3t-0.5 8l131 557q2 9 11 9h61q9 0 11 -9l133 -557l1 -4q0 -7 -9 -7h-53q-9 0 -11 9zM137 167.5q1 -1.5 3 -1.5h129q2 0 3 1.5t0 2.5l-65 301q-1 3 -2 3t-2 -3l-66 -301
q-1 -1 0 -2.5zM241 670.5q-11 5.5 -29 16.5q-4 3 -13 9t-16 8.5t-15 2.5q-14 0 -24.5 -5.5t-20.5 -20.5q-6 -9 -14 -3l-18 13q-8 6 -4 14q27 52 76 52q15 0 27.5 -6t30.5 -17q2 -2 11 -8t17.5 -9.5t16.5 -3.5q26 0 43 28q2 4 6 5t8 -1l18 -12q4 -3 4 -8t-4 -12
q-14 -25 -35 -36.5t-40 -11.5q-14 0 -25 5.5z" />
    <glyph glyph-name="ae.sc" horiz-adv-x="644" 
d="M600 514h-202q-4 0 -4 -4v-186q0 -4 4 -4h125q10 0 10 -10v-42q0 -10 -10 -10h-125q-4 0 -4 -4v-188q0 -4 4 -4h202q10 0 10 -10v-42q0 -10 -10 -10h-267q-10 0 -10 10v94q0 4 -4 4h-164q-2 0 -4 -3l-46 -98q-3 -7 -11 -7h-53q-5 0 -7.5 3.5t-0.5 8.5l261 558q3 7 11 7
h295q10 0 10 -10v-43q0 -10 -10 -10zM180 167.5q1 -1.5 3 -1.5h136q4 0 4 4v301q0 3 -1.5 3t-3.5 -2l-138 -301q-1 -2 0 -3.5z" />
    <glyph glyph-name="b.sc" horiz-adv-x="399" 
d="M292 296q37 -19 57.5 -54t21.5 -84q0 -74 -44.5 -116t-117.5 -42h-139q-10 0 -10 10v557q0 10 10 10h129q78 0 122.5 -39.5t44.5 -113.5q0 -91 -73 -123q-4 -1 -1 -5zM131 510v-184q0 -4 4 -4h66q45 0 70.5 25t25.5 70q0 46 -25.5 71.5t-70.5 25.5h-66q-4 0 -4 -4z
M273.5 90q25.5 27 25.5 76t-25.5 77.5t-69.5 28.5h-69q-4 0 -4 -4v-201q0 -4 4 -4h68q45 0 70.5 27z" />
    <glyph glyph-name="c.sc" horiz-adv-x="398" 
d="M89 35q-42 42 -42 115v277q0 74 42 115.5t112 41.5q71 0 113 -41.5t42 -115.5v-11q0 -10 -10 -10l-52 -3q-10 0 -10 10v20q0 41 -22.5 64.5t-60.5 23.5t-60.5 -23.5t-22.5 -64.5v-289q0 -42 22.5 -65.5t60.5 -23.5t60.5 23.5t22.5 65.5v19q0 10 10 10l52 -3q10 0 10 -10
v-10q0 -73 -42 -115t-113 -42q-70 0 -112 42z" />
    <glyph glyph-name="cacute.sc" horiz-adv-x="398" 
d="M89 35q-42 42 -42 115v277q0 74 42 115.5t112 41.5q71 0 113 -41.5t42 -115.5v-11q0 -10 -10 -10l-52 -3q-10 0 -10 10v20q0 41 -22.5 64.5t-60.5 23.5t-60.5 -23.5t-22.5 -64.5v-289q0 -42 22.5 -65.5t60.5 -23.5t60.5 23.5t22.5 65.5v19q0 10 10 10l52 -3q10 0 10 -10
v-10q0 -73 -42 -115t-113 -42q-70 0 -112 42zM155 658.5q-2 3.5 1 8.5l62 109q5 7 12 7h47q6 0 7.5 -3.5t-1.5 -8.5l-70 -109q-5 -7 -12 -7h-38q-6 0 -8 3.5z" />
    <glyph glyph-name="ccaron.sc" horiz-adv-x="398" 
d="M89 35q-42 42 -42 115v277q0 74 42 115.5t112 41.5q71 0 113 -41.5t42 -115.5v-11q0 -10 -10 -10l-52 -3q-10 0 -10 10v20q0 41 -22.5 64.5t-60.5 23.5t-60.5 -23.5t-22.5 -64.5v-289q0 -42 22.5 -65.5t60.5 -23.5t60.5 23.5t22.5 65.5v19q0 10 10 10l52 -3q10 0 10 -10
v-10q0 -73 -42 -115t-113 -42q-70 0 -112 42zM160 644l-66 103q-2 4 -2 6q0 6 8 6h42q7 0 12 -7l45 -72q1 -1 3 -1t3 1l43 72q5 7 12 7h40q6 0 7.5 -3.5t-1.5 -8.5l-68 -103q-5 -7 -12 -7h-54q-7 0 -12 7z" />
    <glyph glyph-name="ccedilla.sc" horiz-adv-x="398" 
d="M346 406l-52 -3q-10 0 -10 10v20q0 41 -22.5 64.5t-60.5 23.5t-60.5 -23.5t-22.5 -64.5v-289q0 -42 22.5 -65.5t60.5 -23.5t60.5 23.5t22.5 65.5v19q0 10 10 10l52 -3q10 0 10 -10v-10q0 -64 -33 -104.5t-90 -49.5q-5 -2 -2 -5q41 -44 41 -91q0 -45 -23.5 -64t-57.5 -19
q-15 0 -29 3q-8 3 -7 12l3 21q1 5 4.5 6.5t7.5 0.5t11 -1q18 0 29.5 11.5t11.5 36.5q0 21 -12 43.5t-32 41.5q-1 2 -5 2q-58 8 -92 49t-34 107v277q0 74 42 115.5t112 41.5q71 0 113 -41.5t42 -115.5v-11q0 -10 -10 -10z" />
    <glyph glyph-name="cdotaccent.sc" horiz-adv-x="398" 
d="M89 35q-42 42 -42 115v277q0 74 42 115.5t112 41.5q71 0 113 -41.5t42 -115.5v-11q0 -10 -10 -10l-52 -3q-10 0 -10 10v20q0 41 -22.5 64.5t-60.5 23.5t-60.5 -23.5t-22.5 -64.5v-289q0 -42 22.5 -65.5t60.5 -23.5t60.5 23.5t22.5 65.5v19q0 10 10 10l52 -3q10 0 10 -10
v-10q0 -73 -42 -115t-113 -42q-70 0 -112 42zM171 670.5q-12 12.5 -12 31.5t12 31.5t30 12.5t29 -12t11 -32q0 -19 -11 -31.5t-29 -12.5t-30 12.5z" />
    <glyph glyph-name="d.sc" horiz-adv-x="411" 
d="M60 10v557q0 10 10 10h138q70 0 111.5 -42t41.5 -113v-268q0 -70 -41.5 -112t-111.5 -42h-138q-10 0 -10 10zM135 62l72 1q38 0 60 26t23 70v260q0 44 -22.5 69.5t-60.5 25.5h-72q-4 0 -4 -4v-444q0 -4 4 -4z" />
    <glyph glyph-name="eth.sc" horiz-adv-x="447" 
d="M355.5 535q41.5 -42 41.5 -113v-268q0 -70 -41.5 -112t-111.5 -42h-138q-10 0 -10 10v264q0 4 -4 4h-22q-10 0 -10 10v24q0 10 10 10h22q4 0 4 4v241q0 10 10 10h138q70 0 111.5 -42zM326 419q0 44 -22.5 69.5t-60.5 25.5h-72q-4 0 -4 -4v-184q0 -4 4 -4h61q10 0 10 -10
v-24q0 -10 -10 -10h-61q-4 0 -4 -4v-208q0 -4 4 -4l72 1q38 0 60 26t23 70v260z" />
    <glyph glyph-name="dcaron.sc" horiz-adv-x="411" 
d="M60 10v557q0 10 10 10h138q70 0 111.5 -42t41.5 -113v-268q0 -70 -41.5 -112t-111.5 -42h-138q-10 0 -10 10zM135 62l72 1q38 0 60 26t23 70v260q0 44 -22.5 69.5t-60.5 25.5h-72q-4 0 -4 -4v-444q0 -4 4 -4zM159 641l-66 103q-2 4 -2 6q0 6 8 6h42q7 0 12 -7l45 -72
q1 -1 3 -1t3 1l43 72q5 7 12 7h40q6 0 7.5 -3.5t-1.5 -8.5l-68 -103q-5 -7 -12 -7h-54q-7 0 -12 7z" />
    <glyph glyph-name="dcroat.sc" horiz-adv-x="447" 
d="M355.5 535q41.5 -42 41.5 -113v-268q0 -70 -41.5 -112t-111.5 -42h-138q-10 0 -10 10v264q0 4 -4 4h-22q-10 0 -10 10v24q0 10 10 10h22q4 0 4 4v241q0 10 10 10h138q70 0 111.5 -42zM326 419q0 44 -22.5 69.5t-60.5 25.5h-72q-4 0 -4 -4v-184q0 -4 4 -4h61q10 0 10 -10
v-24q0 -10 -10 -10h-61q-4 0 -4 -4v-208q0 -4 4 -4l72 1q38 0 60 26t23 70v260z" />
    <glyph glyph-name="e.sc" horiz-adv-x="380" 
d="M336 514h-201q-4 0 -4 -4v-186q0 -4 4 -4h124q10 0 10 -10v-42q0 -10 -10 -10h-124q-4 0 -4 -4v-188q0 -4 4 -4h201q10 0 10 -10v-42q0 -10 -10 -10h-266q-10 0 -10 10v556q0 10 10 10h266q10 0 10 -10v-42q0 -10 -10 -10z" />
    <glyph glyph-name="eacute.sc" horiz-adv-x="380" 
d="M336 514h-201q-4 0 -4 -4v-186q0 -4 4 -4h124q10 0 10 -10v-42q0 -10 -10 -10h-124q-4 0 -4 -4v-188q0 -4 4 -4h201q10 0 10 -10v-42q0 -10 -10 -10h-266q-10 0 -10 10v556q0 10 10 10h266q10 0 10 -10v-42q0 -10 -10 -10zM156 660.5q-2 3.5 1 8.5l62 109q5 7 12 7h47
q6 0 7.5 -3.5t-1.5 -8.5l-70 -109q-5 -7 -12 -7h-38q-6 0 -8 3.5z" />
    <glyph glyph-name="ecaron.sc" horiz-adv-x="380" 
d="M336 514h-201q-4 0 -4 -4v-186q0 -4 4 -4h124q10 0 10 -10v-42q0 -10 -10 -10h-124q-4 0 -4 -4v-188q0 -4 4 -4h201q10 0 10 -10v-42q0 -10 -10 -10h-266q-10 0 -10 10v556q0 10 10 10h266q10 0 10 -10v-42q0 -10 -10 -10zM161 646l-66 103q-2 4 -2 6q0 6 8 6h42
q7 0 12 -7l45 -72q1 -1 3 -1t3 1l43 72q5 7 12 7h40q6 0 7.5 -3.5t-1.5 -8.5l-68 -103q-5 -7 -12 -7h-54q-7 0 -12 7z" />
    <glyph glyph-name="uni0229.sc" horiz-adv-x="380" 
d="M336 514h-201q-4 0 -4 -4v-186q0 -4 4 -4h124q10 0 10 -10v-42q0 -10 -10 -10h-124q-4 0 -4 -4v-188q0 -4 4 -4h201q10 0 10 -10v-42q0 -10 -10 -10h-102q-2 0 -3 -1.5t1 -3.5q37 -40 37 -89q0 -44 -23.5 -63t-56.5 -19q-16 0 -29 3q-8 3 -7 12l3 21q1 5 4.5 6.5t7.5 0.5
t11 -1q18 0 29.5 11.5t11.5 35.5q0 39 -42 85q-2 2 -5 2h-103q-10 0 -10 10v556q0 10 10 10h266q10 0 10 -10v-42q0 -10 -10 -10z" />
    <glyph glyph-name="ecircumflex.sc" horiz-adv-x="380" 
d="M336 514h-201q-4 0 -4 -4v-186q0 -4 4 -4h124q10 0 10 -10v-42q0 -10 -10 -10h-124q-4 0 -4 -4v-188q0 -4 4 -4h201q10 0 10 -10v-42q0 -10 -10 -10h-266q-10 0 -10 10v556q0 10 10 10h266q10 0 10 -10v-42q0 -10 -10 -10zM92.5 653.5q-1.5 3.5 1.5 8.5l66 103q5 7 12 7
h57q7 0 12 -7l68 -103l2 -5q0 -7 -9 -7h-42q-7 0 -12 7l-44 73q-1 2 -3 2t-3 -2l-43 -73q-5 -7 -12 -7h-43q-6 0 -7.5 3.5z" />
    <glyph glyph-name="edieresis.sc" horiz-adv-x="380" 
d="M336 514h-201q-4 0 -4 -4v-186q0 -4 4 -4h124q10 0 10 -10v-42q0 -10 -10 -10h-124q-4 0 -4 -4v-188q0 -4 4 -4h201q10 0 10 -10v-42q0 -10 -10 -10h-266q-10 0 -10 10v556q0 10 10 10h266q10 0 10 -10v-42q0 -10 -10 -10zM105.5 687q-12.5 13 -12.5 34q0 20 13 33t32 13
t30.5 -13t11.5 -33q0 -21 -11.5 -34t-30.5 -13q-20 0 -32.5 13zM236.5 687q-12.5 13 -12.5 34q0 20 13 33t32 13t31 -13t12 -33q0 -21 -12 -34t-31 -13q-20 0 -32.5 13z" />
    <glyph glyph-name="edotaccent.sc" horiz-adv-x="380" 
d="M336 514h-201q-4 0 -4 -4v-186q0 -4 4 -4h124q10 0 10 -10v-42q0 -10 -10 -10h-124q-4 0 -4 -4v-188q0 -4 4 -4h201q10 0 10 -10v-42q0 -10 -10 -10h-266q-10 0 -10 10v556q0 10 10 10h266q10 0 10 -10v-42q0 -10 -10 -10zM172 672.5q-12 12.5 -12 31.5t12 31.5t30 12.5
t29 -12t11 -32q0 -19 -11 -31.5t-29 -12.5t-30 12.5z" />
    <glyph glyph-name="egrave.sc" horiz-adv-x="380" 
d="M336 514h-201q-4 0 -4 -4v-186q0 -4 4 -4h124q10 0 10 -10v-42q0 -10 -10 -10h-124q-4 0 -4 -4v-188q0 -4 4 -4h201q10 0 10 -10v-42q0 -10 -10 -10h-266q-10 0 -10 10v556q0 10 10 10h266q10 0 10 -10v-42q0 -10 -10 -10zM228 663q0 -6 -9 -6h-38q-7 0 -12 7l-70 109
q-2 4 -2 6q0 6 8 6h47q7 0 12 -7l62 -109q2 -4 2 -6z" />
    <glyph glyph-name="emacron.sc" horiz-adv-x="380" 
d="M336 514h-201q-4 0 -4 -4v-186q0 -4 4 -4h124q10 0 10 -10v-42q0 -10 -10 -10h-124q-4 0 -4 -4v-188q0 -4 4 -4h201q10 0 10 -10v-42q0 -10 -10 -10h-266q-10 0 -10 10v556q0 10 10 10h266q10 0 10 -10v-42q0 -10 -10 -10zM99 685v32q0 10 10 10h183q10 0 10 -10v-32
q0 -10 -10 -10h-183q-10 0 -10 10z" />
    <glyph glyph-name="eogonek.sc" horiz-adv-x="380" 
d="M336 514h-201q-4 0 -4 -4v-186q0 -4 4 -4h124q10 0 10 -10v-42q0 -10 -10 -10h-124q-4 0 -4 -4v-188q0 -4 4 -4h201q10 0 10 -10v-42q0 -10 -10 -10h-108q-3 0 -5 -2q-45 -45 -45 -87q0 -25 12 -36.5t30 -11.5q7 0 10 1l4 1q6 0 8 -8l3 -21v-3q0 -6 -7 -9q-13 -3 -29 -3
q-34 0 -57.5 18.5t-23.5 64.5q0 47 41 91q2 2 1 3.5t-3 1.5h-97q-10 0 -10 10v556q0 10 10 10h266q10 0 10 -10v-42q0 -10 -10 -10z" />
    <glyph glyph-name="f.sc" horiz-adv-x="359" 
d="M335 514h-200q-4 0 -4 -4v-186q0 -4 4 -4h124q10 0 10 -10v-42q0 -10 -10 -10h-124q-4 0 -4 -4v-244q0 -10 -10 -10h-51q-10 0 -10 10v557q0 10 10 10h265q10 0 10 -10v-43q0 -10 -10 -10z" />
    <glyph glyph-name="g.sc" horiz-adv-x="397" 
d="M89 33.5q-42 40.5 -42 110.5v289q0 70 42 110.5t112 40.5t112 -40.5t42 -111.5v-24q0 -10 -10 -10h-51q-10 0 -10 10v26q0 41 -22.5 64t-60.5 23t-60.5 -23t-22.5 -64v-291q0 -41 22.5 -64.5t60.5 -23.5t60.5 23.5t22.5 64.5v92q0 4 -4 4h-64q-10 0 -10 10v32q0 10 10 10
h129q10 0 10 -10v-137q0 -70 -42 -110.5t-112 -40.5t-112 40.5z" />
    <glyph glyph-name="gbreve.sc" horiz-adv-x="397" 
d="M89 33.5q-42 40.5 -42 110.5v289q0 70 42 110.5t112 40.5t112 -40.5t42 -111.5v-24q0 -10 -10 -10h-51q-10 0 -10 10v26q0 41 -22.5 64t-60.5 23t-60.5 -23t-22.5 -64v-291q0 -41 22.5 -64.5t60.5 -23.5t60.5 23.5t22.5 64.5v92q0 4 -4 4h-64q-10 0 -10 10v32q0 10 10 10
h129q10 0 10 -10v-137q0 -70 -42 -110.5t-112 -40.5t-112 40.5zM129 649q-29 27 -33 68q0 10 10 10h23q10 0 11 -10q3 -25 20 -41t41 -16t41 16t20 41q1 10 11 10h23q10 0 10 -10q-4 -42 -33 -68.5t-72 -26.5t-72 27z" />
    <glyph glyph-name="uni0123.sc" horiz-adv-x="397" 
d="M89 33.5q-42 40.5 -42 110.5v289q0 70 42 110.5t112 40.5t112 -40.5t42 -111.5v-24q0 -10 -10 -10h-51q-10 0 -10 10v26q0 41 -22.5 64t-60.5 23t-60.5 -23t-22.5 -64v-291q0 -41 22.5 -64.5t60.5 -23.5t60.5 23.5t22.5 64.5v92q0 4 -4 4h-64q-10 0 -10 10v32q0 10 10 10
h129q10 0 10 -10v-137q0 -70 -42 -110.5t-112 -40.5t-112 40.5zM150 -188.5q-2 3.5 1 8.5l62 109q5 7 12 7h47q6 0 7.5 -3.5t-1.5 -8.5l-70 -109q-5 -7 -12 -7h-38q-6 0 -8 3.5z" />
    <glyph glyph-name="gdotaccent.sc" horiz-adv-x="397" 
d="M89 33.5q-42 40.5 -42 110.5v289q0 70 42 110.5t112 40.5t112 -40.5t42 -111.5v-24q0 -10 -10 -10h-51q-10 0 -10 10v26q0 41 -22.5 64t-60.5 23t-60.5 -23t-22.5 -64v-291q0 -41 22.5 -64.5t60.5 -23.5t60.5 23.5t22.5 64.5v92q0 4 -4 4h-64q-10 0 -10 10v32q0 10 10 10
h129q10 0 10 -10v-137q0 -70 -42 -110.5t-112 -40.5t-112 40.5zM171 670.5q-12 12.5 -12 31.5t12 31.5t30 12.5t29 -12t11 -32q0 -19 -11 -31.5t-29 -12.5t-30 12.5z" />
    <glyph glyph-name="h.sc" horiz-adv-x="417" 
d="M296 577h51q10 0 10 -10v-557q0 -10 -10 -10h-51q-10 0 -10 10v244q0 4 -4 4h-147q-4 0 -4 -4v-244q0 -10 -10 -10h-51q-10 0 -10 10v557q0 10 10 10h51q10 0 10 -10v-243q0 -4 4 -4h147q4 0 4 4v243q0 10 10 10z" />
    <glyph glyph-name="hbar.sc" horiz-adv-x="417" 
d="M420 460v-31q0 -10 -10 -10h-49q-4 0 -4 -4v-405q0 -10 -10 -10h-51q-10 0 -10 10v244q0 4 -4 4h-147q-4 0 -4 -4v-244q0 -10 -10 -10h-51q-10 0 -10 10v405q0 4 -4 4h-50q-10 0 -10 10v31q0 10 10 10h50q4 0 4 4v93q0 10 10 10h51q10 0 10 -10v-93q0 -4 4 -4h147
q4 0 4 4v93q0 10 10 10h51q10 0 10 -10v-93q0 -4 4 -4h49q10 0 10 -10zM286 324v91q0 4 -4 4h-147q-4 0 -4 -4v-91q0 -4 4 -4h147q4 0 4 4z" />
    <glyph glyph-name="i.sc" horiz-adv-x="191" 
d="M60 10v556q0 10 10 10h51q10 0 10 -10v-556q0 -10 -10 -10h-51q-10 0 -10 10z" />
    <glyph glyph-name="iacute.sc" horiz-adv-x="191" 
d="M60 10v556q0 10 10 10h51q10 0 10 -10v-556q0 -10 -10 -10h-51q-10 0 -10 10zM49 660.5q-2 3.5 1 8.5l62 109q5 7 12 7h47q6 0 7.5 -3.5t-1.5 -8.5l-70 -109q-5 -7 -12 -7h-38q-6 0 -8 3.5z" />
    <glyph glyph-name="icircumflex.sc" horiz-adv-x="191" 
d="M60 10v556q0 10 10 10h51q10 0 10 -10v-556q0 -10 -10 -10h-51q-10 0 -10 10zM-14.5 653.5q-1.5 3.5 1.5 8.5l66 103q5 7 12 7h57q7 0 12 -7l68 -103l2 -5q0 -7 -9 -7h-42q-7 0 -12 7l-44 73q-1 2 -3 2t-3 -2l-43 -73q-5 -7 -12 -7h-43q-6 0 -7.5 3.5z" />
    <glyph glyph-name="idieresis.sc" horiz-adv-x="191" 
d="M60 10v556q0 10 10 10h51q10 0 10 -10v-556q0 -10 -10 -10h-51q-10 0 -10 10zM-1.5 687q-12.5 13 -12.5 34q0 20 13 33t32 13t30.5 -13t11.5 -33q0 -21 -11.5 -34t-30.5 -13q-20 0 -32.5 13zM129.5 687q-12.5 13 -12.5 34q0 20 13 33t32 13t31 -13t12 -33q0 -21 -12 -34
t-31 -13q-20 0 -32.5 13z" />
    <glyph glyph-name="i.sc.loclTRK" horiz-adv-x="191" 
d="M60 10v556q0 10 10 10h51q10 0 10 -10v-556q0 -10 -10 -10h-51q-10 0 -10 10zM65 672.5q-12 12.5 -12 31.5t12 31.5t30 12.5t29 -12t11 -32q0 -19 -11 -31.5t-29 -12.5t-30 12.5z" />
    <glyph glyph-name="igrave.sc" horiz-adv-x="191" 
d="M60 10v556q0 10 10 10h51q10 0 10 -10v-556q0 -10 -10 -10h-51q-10 0 -10 10zM121 663q0 -6 -9 -6h-38q-7 0 -12 7l-70 109q-2 4 -2 6q0 6 8 6h47q7 0 12 -7l62 -109q2 -4 2 -6z" />
    <glyph glyph-name="ij.sc" horiz-adv-x="570" 
d="M60 10v556q0 10 10 10h51q10 0 10 -10v-556q0 -10 -10 -10h-51q-10 0 -10 10zM250 33.5q-41 40.5 -41 109.5v57q0 10 10 10h51q10 0 10 -10v-58q0 -40 21.5 -63.5t56.5 -23.5q37 0 58.5 23.5t21.5 63.5v425q0 10 10 10h52q10 0 10 -10v-424q0 -69 -41.5 -109.5
t-110.5 -40.5q-67 0 -108 40.5z" />
    <glyph glyph-name="imacron.sc" horiz-adv-x="191" 
d="M60 10v556q0 10 10 10h51q10 0 10 -10v-556q0 -10 -10 -10h-51q-10 0 -10 10zM-8 685v32q0 10 10 10h183q10 0 10 -10v-32q0 -10 -10 -10h-183q-10 0 -10 10z" />
    <glyph glyph-name="iogonek.sc" horiz-adv-x="201" 
d="M60 10v556q0 10 10 10h51q10 0 10 -10v-556q0 -10 -10 -10h-51q-10 0 -10 10zM144 -173q0 -6 -7 -9q-13 -3 -29 -3q-34 0 -57 18.5t-23 63.5q0 25 11 50t34 46l4 4q3 3 10 3h27q8 0 8 -5q0 -4 -4 -7q-41 -43 -41 -85q0 -24 12 -35t30 -11q7 0 10 1l4 1q6 0 8 -8l3 -21v-3
z" />
    <glyph glyph-name="j.sc" horiz-adv-x="379" 
d="M59 33.5q-41 40.5 -41 109.5v57q0 10 10 10h51q10 0 10 -10v-58q0 -40 21.5 -63.5t56.5 -23.5q37 0 58.5 23.5t21.5 63.5v425q0 10 10 10h52q10 0 10 -10v-424q0 -69 -41.5 -109.5t-110.5 -40.5q-67 0 -108 40.5z" />
    <glyph glyph-name="k.sc" horiz-adv-x="404" 
d="M60 10v557q0 10 10 10h51q10 0 10 -10v-255q0 -3 2 -3.5t3 2.5l162 259q5 7 12 7h55q6 0 8 -3.5t-1 -8.5l-132 -218q-2 -4 -1 -6l146 -329l1 -4q0 -8 -9 -8h-57q-8 0 -11 8l-119 269q-1 4 -5 0l-52 -79q-2 -2 -2 -5v-183q0 -10 -10 -10h-51q-10 0 -10 10z" />
    <glyph glyph-name="uni0137.sc" horiz-adv-x="404" 
d="M60 10v557q0 10 10 10h51q10 0 10 -10v-255q0 -3 2 -3.5t3 2.5l162 259q5 7 12 7h55q6 0 8 -3.5t-1 -8.5l-132 -218q-2 -4 -1 -6l146 -329l1 -4q0 -8 -9 -8h-57q-8 0 -11 8l-119 269q-1 4 -5 0l-52 -79q-2 -2 -2 -5v-183q0 -10 -10 -10h-51q-10 0 -10 10zM155 -181.5
q-2 3.5 1 8.5l62 109q5 7 12 7h47q6 0 7.5 -3.5t-1.5 -8.5l-70 -109q-5 -7 -12 -7h-38q-6 0 -8 3.5z" />
    <glyph glyph-name="l.sc" horiz-adv-x="353" 
d="M60 10v557q0 10 10 10h51q10 0 10 -10v-501q0 -4 4 -4h199q10 0 10 -10v-42q0 -10 -10 -10h-264q-10 0 -10 10z" />
    <glyph glyph-name="lacute.sc" horiz-adv-x="353" 
d="M60 10v557q0 10 10 10h51q10 0 10 -10v-501q0 -4 4 -4h199q10 0 10 -10v-42q0 -10 -10 -10h-264q-10 0 -10 10zM49 651.5q-2 3.5 1 8.5l62 109q5 7 12 7h47q6 0 7.5 -3.5t-1.5 -8.5l-70 -109q-5 -7 -12 -7h-38q-6 0 -8 3.5z" />
    <glyph glyph-name="lcaron.sc" horiz-adv-x="353" 
d="M60 10v557q0 10 10 10h51q10 0 10 -10v-501q0 -4 4 -4h199q10 0 10 -10v-42q0 -10 -10 -10h-264q-10 0 -10 10zM54 637l-66 103q-2 4 -2 6q0 6 8 6h42q7 0 12 -7l45 -72q1 -1 3 -1t3 1l43 72q5 7 12 7h40q6 0 7.5 -3.5t-1.5 -8.5l-68 -103q-5 -7 -12 -7h-54q-7 0 -12 7z
" />
    <glyph glyph-name="uni013C.sc" horiz-adv-x="353" 
d="M60 10v557q0 10 10 10h51q10 0 10 -10v-501q0 -4 4 -4h199q10 0 10 -10v-42q0 -10 -10 -10h-264q-10 0 -10 10zM126 -181.5q-2 3.5 1 8.5l62 109q5 7 12 7h47q6 0 7.5 -3.5t-1.5 -8.5l-70 -109q-5 -7 -12 -7h-38q-6 0 -8 3.5z" />
    <glyph glyph-name="lslash.sc" horiz-adv-x="546" 
d="M131 231v-165q0 -4 4 -4h199q10 0 10 -10v-42q0 -10 -10 -10h-264q-10 0 -10 10v166q0 2 -2 3t-3 0l-34 -25q-9 -5 -14 1l-21 26q-3 3 -3 7t4 7l71 51q2 2 2 5v316q0 10 10 10h51q10 0 10 -10v-260q0 -2 1.5 -3t3.5 1l173 126q2 2 6 2q5 0 8 -4l21 -26q3 -3 3 -7t-4 -7
l-210 -153q-2 -2 -2 -5z" />
    <glyph glyph-name="m.sc" horiz-adv-x="457" 
d="M60 10v557q0 10 10 10h51q8 0 11 -8l93 -203q1 -2 3 -2t3 2l93 203q3 8 11 8h52q10 0 10 -10v-557q0 -10 -10 -10h-51q-10 0 -10 10v451q0 3 -2 3t-3 -2l-83 -189q-3 -8 -9 -8t-9 8l-84 189q-1 2 -3 2t-2 -3v-451q0 -10 -10 -10h-51q-10 0 -10 10z" />
    <glyph glyph-name="n.sc" horiz-adv-x="438" 
d="M60 10v556q0 10 10 10h52q8 0 11 -8l170 -419q1 -3 3 -2.5t2 3.5v416q0 10 10 10h50q10 0 10 -10v-556q0 -10 -10 -10h-53q-8 0 -11 8l-169 420q-1 3 -3 2.5t-2 -3.5v-417q0 -10 -10 -10h-50q-10 0 -10 10z" />
    <glyph glyph-name="nacute.sc" horiz-adv-x="438" 
d="M60 10v556q0 10 10 10h52q8 0 11 -8l170 -419q1 -3 3 -2.5t2 3.5v416q0 10 10 10h50q10 0 10 -10v-556q0 -10 -10 -10h-53q-8 0 -11 8l-169 420q-1 3 -3 2.5t-2 -3.5v-417q0 -10 -10 -10h-50q-10 0 -10 10zM172 660.5q-2 3.5 1 8.5l62 109q5 7 12 7h47q6 0 7.5 -3.5
t-1.5 -8.5l-70 -109q-5 -7 -12 -7h-38q-6 0 -8 3.5z" />
    <glyph glyph-name="ncaron.sc" horiz-adv-x="438" 
d="M60 10v556q0 10 10 10h52q8 0 11 -8l170 -419q1 -3 3 -2.5t2 3.5v416q0 10 10 10h50q10 0 10 -10v-556q0 -10 -10 -10h-53q-8 0 -11 8l-169 420q-1 3 -3 2.5t-2 -3.5v-417q0 -10 -10 -10h-50q-10 0 -10 10zM177 646l-66 103q-2 4 -2 6q0 6 8 6h42q7 0 12 -7l45 -72
q1 -1 3 -1t3 1l43 72q5 7 12 7h40q6 0 7.5 -3.5t-1.5 -8.5l-68 -103q-5 -7 -12 -7h-54q-7 0 -12 7z" />
    <glyph glyph-name="uni0146.sc" horiz-adv-x="438" 
d="M60 10v556q0 10 10 10h52q8 0 11 -8l170 -419q1 -3 3 -2.5t2 3.5v416q0 10 10 10h50q10 0 10 -10v-556q0 -10 -10 -10h-53q-8 0 -11 8l-169 420q-1 3 -3 2.5t-2 -3.5v-417q0 -10 -10 -10h-50q-10 0 -10 10zM171 -181.5q-2 3.5 1 8.5l62 109q5 7 12 7h47q6 0 7.5 -3.5
t-1.5 -8.5l-70 -109q-5 -7 -12 -7h-38q-6 0 -8 3.5z" />
    <glyph glyph-name="eng.sc" horiz-adv-x="439" 
d="M379 358v0v-350q0 -55 -6.5 -82.5t-33 -44t-86.5 -16.5q-10 0 -10 10l-1 42q0 10 10 10q26 1 36.5 10.5t12 22.5t1.5 48v1q0 4 -1 5l-166 414q-1 3 -3 2.5t-2 -3.5v-417q0 -10 -10 -10h-50q-10 0 -10 10v556q0 10 10 10h52q8 0 11 -8l164 -404q1 -3 3 -2.5t2 3.5v183
q0 10 3 10t3 4v204q0 10 10 10h50q10 0 10 -10v-206z" />
    <glyph glyph-name="ntilde.sc" horiz-adv-x="438" 
d="M60 10v556q0 10 10 10h52q8 0 11 -8l170 -419q1 -3 3 -2.5t2 3.5v416q0 10 10 10h50q10 0 10 -10v-556q0 -10 -10 -10h-53q-8 0 -11 8l-169 420q-1 3 -3 2.5t-2 -3.5v-417q0 -10 -10 -10h-50q-10 0 -10 10zM255 679.5q-11 5.5 -29 16.5q-4 3 -13 9t-16 8.5t-15 2.5
q-14 0 -24.5 -5.5t-20.5 -20.5q-6 -9 -14 -3l-18 13q-8 6 -4 14q27 52 76 52q15 0 27.5 -6t30.5 -17q2 -2 11 -8t17.5 -9.5t16.5 -3.5q26 0 43 28q2 4 6 5t8 -1l18 -12q4 -3 4 -8t-4 -12q-14 -25 -35 -36.5t-40 -11.5q-14 0 -25 5.5z" />
    <glyph glyph-name="o.sc" horiz-adv-x="406" 
d="M89.5 35.5q-42.5 42.5 -42.5 116.5v272q0 74 42.5 117t113.5 43t113.5 -43t42.5 -117v-272q0 -73 -42.5 -116t-113.5 -43t-113.5 42.5zM265 79.5q23 24.5 23 68.5v279q0 44 -23 69t-62 25q-38 0 -61.5 -25t-23.5 -69v-279q0 -43 23.5 -68t61.5 -25q39 0 62 24.5z" />
    <glyph glyph-name="oacute.sc" horiz-adv-x="406" 
d="M89.5 35.5q-42.5 42.5 -42.5 116.5v272q0 74 42.5 117t113.5 43t113.5 -43t42.5 -117v-272q0 -73 -42.5 -116t-113.5 -43t-113.5 42.5zM265 79.5q23 24.5 23 68.5v279q0 44 -23 69t-62 25q-38 0 -61.5 -25t-23.5 -69v-279q0 -43 23.5 -68t61.5 -25q39 0 62 24.5z
M157 652.5q-2 3.5 1 8.5l62 109q5 7 12 7h47q6 0 7.5 -3.5t-1.5 -8.5l-70 -109q-5 -7 -12 -7h-38q-6 0 -8 3.5z" />
    <glyph glyph-name="ocircumflex.sc" horiz-adv-x="406" 
d="M89.5 35.5q-42.5 42.5 -42.5 116.5v272q0 74 42.5 117t113.5 43t113.5 -43t42.5 -117v-272q0 -73 -42.5 -116t-113.5 -43t-113.5 42.5zM265 79.5q23 24.5 23 68.5v279q0 44 -23 69t-62 25q-38 0 -61.5 -25t-23.5 -69v-279q0 -43 23.5 -68t61.5 -25q39 0 62 24.5z
M93.5 645.5q-1.5 3.5 1.5 8.5l66 103q5 7 12 7h57q7 0 12 -7l68 -103l2 -5q0 -7 -9 -7h-42q-7 0 -12 7l-44 73q-1 2 -3 2t-3 -2l-43 -73q-5 -7 -12 -7h-43q-6 0 -7.5 3.5z" />
    <glyph glyph-name="odieresis.sc" horiz-adv-x="406" 
d="M89.5 35.5q-42.5 42.5 -42.5 116.5v272q0 74 42.5 117t113.5 43t113.5 -43t42.5 -117v-272q0 -73 -42.5 -116t-113.5 -43t-113.5 42.5zM265 79.5q23 24.5 23 68.5v279q0 44 -23 69t-62 25q-38 0 -61.5 -25t-23.5 -69v-279q0 -43 23.5 -68t61.5 -25q39 0 62 24.5z
M106.5 679q-12.5 13 -12.5 34q0 20 13 33t32 13t30.5 -13t11.5 -33q0 -21 -11.5 -34t-30.5 -13q-20 0 -32.5 13zM237.5 679q-12.5 13 -12.5 34q0 20 13 33t32 13t31 -13t12 -33q0 -21 -12 -34t-31 -13q-20 0 -32.5 13z" />
    <glyph glyph-name="ograve.sc" horiz-adv-x="406" 
d="M89.5 35.5q-42.5 42.5 -42.5 116.5v272q0 74 42.5 117t113.5 43t113.5 -43t42.5 -117v-272q0 -73 -42.5 -116t-113.5 -43t-113.5 42.5zM265 79.5q23 24.5 23 68.5v279q0 44 -23 69t-62 25q-38 0 -61.5 -25t-23.5 -69v-279q0 -43 23.5 -68t61.5 -25q39 0 62 24.5zM229 655
q0 -6 -9 -6h-38q-7 0 -12 7l-70 109q-2 4 -2 6q0 6 8 6h47q7 0 12 -7l62 -109q2 -4 2 -6z" />
    <glyph glyph-name="ohungarumlaut.sc" horiz-adv-x="406" 
d="M89.5 35.5q-42.5 42.5 -42.5 116.5v272q0 74 42.5 117t113.5 43t113.5 -43t42.5 -117v-272q0 -73 -42.5 -116t-113.5 -43t-113.5 42.5zM265 79.5q23 24.5 23 68.5v279q0 44 -23 69t-62 25q-38 0 -61.5 -25t-23.5 -69v-279q0 -43 23.5 -68t61.5 -25q39 0 62 24.5z
M116 650.5q-2 3.5 0 8.5l57 109q3 7 12 7h42q6 0 8 -3.5t-1 -8.5l-60 -109q-3 -7 -12 -7h-39q-5 0 -7 3.5zM241.5 650.5q-2.5 3.5 0.5 8.5l59 109q3 7 12 7h39q6 0 8 -3.5t-1 -8.5l-60 -109q-3 -7 -12 -7h-38q-5 0 -7.5 3.5z" />
    <glyph glyph-name="omacron.sc" horiz-adv-x="406" 
d="M89.5 35.5q-42.5 42.5 -42.5 116.5v272q0 74 42.5 117t113.5 43t113.5 -43t42.5 -117v-272q0 -73 -42.5 -116t-113.5 -43t-113.5 42.5zM265 79.5q23 24.5 23 68.5v279q0 44 -23 69t-62 25q-38 0 -61.5 -25t-23.5 -69v-279q0 -43 23.5 -68t61.5 -25q39 0 62 24.5zM100 677
v32q0 10 10 10h183q10 0 10 -10v-32q0 -10 -10 -10h-183q-10 0 -10 10z" />
    <glyph glyph-name="oslash.sc" horiz-adv-x="454" 
d="M424.5 678.5q2.5 -3.5 0.5 -8.5l-75 -179q-1 -3 0 -6q9 -27 9 -61v-272q0 -73 -42.5 -116t-113.5 -43q-25 0 -53 7q-4 1 -5 -2l-39 -92q-3 -8 -11 -8h-31q-5 0 -7.5 3.5t-0.5 8.5l46 111q1 3 -2 5q-25 21 -39 53t-14 73v272q0 74 42.5 117t113.5 43q68 0 111 -41
q4 -2 6 2l54 129q3 8 11 8h32q5 0 7.5 -3.5zM129 98q3 -7 5 0l149 358q2 2 0 6q-7 28 -28.5 43.5t-51.5 15.5q-38 0 -61.5 -25t-23.5 -69v-279q0 -28 11 -50zM288 330q0 3 -2 3t-3 -2l-110 -267q-2 -4 2 -5q12 -4 28 -4q39 0 62 24.5t23 68.5v182z" />
    <glyph glyph-name="otilde.sc" horiz-adv-x="406" 
d="M89.5 35.5q-42.5 42.5 -42.5 116.5v272q0 74 42.5 117t113.5 43t113.5 -43t42.5 -117v-272q0 -73 -42.5 -116t-113.5 -43t-113.5 42.5zM265 79.5q23 24.5 23 68.5v279q0 44 -23 69t-62 25q-38 0 -61.5 -25t-23.5 -69v-279q0 -43 23.5 -68t61.5 -25q39 0 62 24.5z
M240 671.5q-11 5.5 -29 16.5q-4 3 -13 9t-16 8.5t-15 2.5q-14 0 -24.5 -5.5t-20.5 -20.5q-6 -9 -14 -3l-18 13q-8 6 -4 14q27 52 76 52q15 0 27.5 -6t30.5 -17q2 -2 11 -8t17.5 -9.5t16.5 -3.5q26 0 43 28q2 4 6 5t8 -1l18 -12q4 -3 4 -8t-4 -12q-14 -25 -35 -36.5
t-40 -11.5q-14 0 -25 5.5z" />
    <glyph glyph-name="oe.sc" horiz-adv-x="608" 
d="M564 514h-201q-4 0 -4 -4v-186q0 -4 4 -4h125q10 0 10 -10v-42q0 -10 -10 -10h-125q-4 0 -4 -4v-188q0 -4 4 -4h201q10 0 10 -10v-42q0 -10 -10 -10h-266q-10 0 -10 10v19q0 5 -5 2q-35 -38 -95 -38q-61 0 -101 43t-40 116v272q0 73 40 116.5t101 43.5q60 0 95 -38
q2 -2 3.5 -1.5t1.5 2.5v20q0 10 10 10h266q10 0 10 -10v-43q0 -10 -10 -10zM265 79.5q23 24.5 23 68.5v279q0 44 -23 69t-62 25q-38 0 -61.5 -25t-23.5 -69v-279q0 -43 23.5 -68t61.5 -25q39 0 62 24.5z" />
    <glyph glyph-name="p.sc" horiz-adv-x="390" 
d="M320.5 532.5q40.5 -45.5 40.5 -118.5q0 -71 -39.5 -115t-104.5 -44h-87q-4 0 -4 -4v-241q0 -10 -10 -10h-51q-10 0 -10 10v558q0 10 10 10h149q66 0 106.5 -45.5zM266 339q24 28 24 74q0 47 -23.5 75t-62.5 28h-74q-4 0 -4 -4v-197q0 -4 4 -4h74q38 0 62 28z" />
    <glyph glyph-name="thorn.sc" horiz-adv-x="390" 
d="M320 406q41 -45 41 -118t-39.5 -117t-104.5 -44h-87q-4 0 -4 -4v-113q0 -10 -10 -10h-51q-10 0 -10 10v557q0 10 10 10h51q10 0 10 -10v-112q0 -4 4 -4h84q65 0 106 -45zM266.5 212.5q23.5 27.5 23.5 74.5t-23.5 74t-62.5 27h-74q-4 0 -4 -4v-195q0 -4 4 -4h74
q39 0 62.5 27.5z" />
    <glyph glyph-name="q.sc" horiz-adv-x="396" 
d="M307.5 540.5q41.5 -43.5 41.5 -118.5v-267q0 -64 -30 -105.5t-82 -52.5q-4 -1 -4 -5v-73q0 -10 -10 -10h-51q-10 0 -10 10v74q0 4 -4 5q-52 11 -81.5 52t-29.5 105v267q0 75 41.5 118.5t109.5 43.5t109.5 -43.5zM278 428q0 44 -22 68.5t-58 24.5t-58 -24.5t-22 -68.5
v-280q0 -43 22 -68t58 -25t58 25t22 68v280z" />
    <glyph glyph-name="r.sc" horiz-adv-x="395" 
d="M296 8l-87 248q-1 3 -4 3h-70q-4 0 -4 -4v-245q0 -10 -10 -10h-51q-10 0 -10 10v558q0 10 10 10h149q65 0 106 -45.5t41 -117.5q0 -53 -23.5 -91.5t-64.5 -54.5q-4 -1 -3 -5l93 -253l1 -4q0 -7 -9 -7h-52q-9 0 -12 8zM131 512v-192q0 -4 4 -4h74q39 0 62.5 27t23.5 72
q0 46 -24 73.5t-62 27.5h-74q-4 0 -4 -4z" />
    <glyph glyph-name="racute.sc" horiz-adv-x="395" 
d="M296 8l-87 248q-1 3 -4 3h-70q-4 0 -4 -4v-245q0 -10 -10 -10h-51q-10 0 -10 10v558q0 10 10 10h149q65 0 106 -45.5t41 -117.5q0 -53 -23.5 -91.5t-64.5 -54.5q-4 -1 -3 -5l93 -253l1 -4q0 -7 -9 -7h-52q-9 0 -12 8zM131 512v-192q0 -4 4 -4h74q39 0 62.5 27t23.5 72
q0 46 -24 73.5t-62 27.5h-74q-4 0 -4 -4zM152 651.5q-2 3.5 1 8.5l62 109q5 7 12 7h47q6 0 7.5 -3.5t-1.5 -8.5l-70 -109q-5 -7 -12 -7h-38q-6 0 -8 3.5z" />
    <glyph glyph-name="rcaron.sc" horiz-adv-x="395" 
d="M296 8l-87 248q-1 3 -4 3h-70q-4 0 -4 -4v-245q0 -10 -10 -10h-51q-10 0 -10 10v558q0 10 10 10h149q65 0 106 -45.5t41 -117.5q0 -53 -23.5 -91.5t-64.5 -54.5q-4 -1 -3 -5l93 -253l1 -4q0 -7 -9 -7h-52q-9 0 -12 8zM131 512v-192q0 -4 4 -4h74q39 0 62.5 27t23.5 72
q0 46 -24 73.5t-62 27.5h-74q-4 0 -4 -4zM157 637l-66 103q-2 4 -2 6q0 6 8 6h42q7 0 12 -7l45 -72q1 -1 3 -1t3 1l43 72q5 7 12 7h40q6 0 7.5 -3.5t-1.5 -8.5l-68 -103q-5 -7 -12 -7h-54q-7 0 -12 7z" />
    <glyph glyph-name="uni0157.sc" horiz-adv-x="395" 
d="M296 8l-87 248q-1 3 -4 3h-70q-4 0 -4 -4v-245q0 -10 -10 -10h-51q-10 0 -10 10v558q0 10 10 10h149q65 0 106 -45.5t41 -117.5q0 -53 -23.5 -91.5t-64.5 -54.5q-4 -1 -3 -5l93 -253l1 -4q0 -7 -9 -7h-52q-9 0 -12 8zM131 512v-192q0 -4 4 -4h74q39 0 62.5 27t23.5 72
q0 46 -24 73.5t-62 27.5h-74q-4 0 -4 -4zM159 -181.5q-2 3.5 1 8.5l62 109q5 7 12 7h47q6 0 7.5 -3.5t-1.5 -8.5l-70 -109q-5 -7 -12 -7h-38q-6 0 -8 3.5z" />
    <glyph glyph-name="s.sc" horiz-adv-x="382" 
d="M84.5 34q-41.5 41 -41.5 106v17q0 10 10 10h50q10 0 10 -10v-10q0 -42 22 -67.5t58 -25.5t59 24t23 63q0 26 -12 45t-31.5 34.5t-59.5 42.5q-45 30 -70.5 52t-42.5 53t-17 72q0 66 40.5 105t106.5 39q68 0 109.5 -42t41.5 -109v-16q0 -10 -10 -10h-50q-10 0 -10 10v14
q0 41 -22 66t-59 25q-34 0 -55.5 -22t-21.5 -61q0 -33 20 -55t78 -63q53 -36 80 -59.5t41.5 -51t14.5 -65.5q0 -69 -42.5 -110.5t-110.5 -41.5q-67 0 -108.5 41z" />
    <glyph glyph-name="sacute.sc" horiz-adv-x="382" 
d="M84.5 34q-41.5 41 -41.5 106v17q0 10 10 10h50q10 0 10 -10v-10q0 -42 22 -67.5t58 -25.5t59 24t23 63q0 26 -12 45t-31.5 34.5t-59.5 42.5q-45 30 -70.5 52t-42.5 53t-17 72q0 66 40.5 105t106.5 39q68 0 109.5 -42t41.5 -109v-16q0 -10 -10 -10h-50q-10 0 -10 10v14
q0 41 -22 66t-59 25q-34 0 -55.5 -22t-21.5 -61q0 -33 20 -55t78 -63q53 -36 80 -59.5t41.5 -51t14.5 -65.5q0 -69 -42.5 -110.5t-110.5 -41.5q-67 0 -108.5 41zM143 658.5q-2 3.5 1 8.5l62 109q5 7 12 7h47q6 0 7.5 -3.5t-1.5 -8.5l-70 -109q-5 -7 -12 -7h-38q-6 0 -8 3.5z
" />
    <glyph glyph-name="scaron.sc" horiz-adv-x="382" 
d="M84.5 34q-41.5 41 -41.5 106v17q0 10 10 10h50q10 0 10 -10v-10q0 -42 22 -67.5t58 -25.5t59 24t23 63q0 26 -12 45t-31.5 34.5t-59.5 42.5q-45 30 -70.5 52t-42.5 53t-17 72q0 66 40.5 105t106.5 39q68 0 109.5 -42t41.5 -109v-16q0 -10 -10 -10h-50q-10 0 -10 10v14
q0 41 -22 66t-59 25q-34 0 -55.5 -22t-21.5 -61q0 -33 20 -55t78 -63q53 -36 80 -59.5t41.5 -51t14.5 -65.5q0 -69 -42.5 -110.5t-110.5 -41.5q-67 0 -108.5 41zM148 644l-66 103q-2 4 -2 6q0 6 8 6h42q7 0 12 -7l45 -72q1 -1 3 -1t3 1l43 72q5 7 12 7h40q6 0 7.5 -3.5
t-1.5 -8.5l-68 -103q-5 -7 -12 -7h-54q-7 0 -12 7z" />
    <glyph glyph-name="scedilla.sc" horiz-adv-x="382" 
d="M313 44.5q-33 -39.5 -88 -48.5q-5 -2 -2 -5q41 -42 41 -91q0 -45 -23.5 -64t-57.5 -19q-15 0 -29 3q-8 3 -7 12l3 21q1 5 4.5 6.5t7.5 0.5t11 -1q18 0 29.5 11.5t11.5 36.5q0 42 -44 86q-2 2 -5 2q-55 8 -88.5 47.5t-33.5 97.5v17q0 10 10 10h50q10 0 10 -10v-10
q0 -42 22 -67.5t58 -25.5t59 24t23 63q0 26 -12 45t-31.5 34.5t-59.5 42.5q-45 30 -70.5 52t-42.5 53t-17 72q0 66 40.5 105t106.5 39q68 0 109.5 -42t41.5 -109v-16q0 -10 -10 -10h-50q-10 0 -10 10v14q0 41 -22 66t-59 25q-34 0 -55.5 -22t-21.5 -61q0 -33 20 -55t78 -63
q53 -36 80 -59.5t41.5 -51t14.5 -65.5q0 -61 -33 -100.5z" />
    <glyph glyph-name="uni0219.sc" horiz-adv-x="382" 
d="M84.5 34q-41.5 41 -41.5 106v17q0 10 10 10h50q10 0 10 -10v-10q0 -42 22 -67.5t58 -25.5t59 24t23 63q0 26 -12 45t-31.5 34.5t-59.5 42.5q-45 30 -70.5 52t-42.5 53t-17 72q0 66 40.5 105t106.5 39q68 0 109.5 -42t41.5 -109v-16q0 -10 -10 -10h-50q-10 0 -10 10v14
q0 41 -22 66t-59 25q-34 0 -55.5 -22t-21.5 -61q0 -33 20 -55t78 -63q53 -36 80 -59.5t41.5 -51t14.5 -65.5q0 -69 -42.5 -110.5t-110.5 -41.5q-67 0 -108.5 41zM144 -188.5q-2 3.5 1 8.5l62 109q5 7 12 7h47q6 0 7.5 -3.5t-1.5 -8.5l-70 -109q-5 -7 -12 -7h-38q-6 0 -8 3.5
z" />
    <glyph glyph-name="t.sc" horiz-adv-x="367" 
d="M345 567v-43q0 -10 -10 -10h-115q-4 0 -4 -4v-500q0 -10 -10 -10h-51q-10 0 -10 10v500q0 4 -4 4h-108q-10 0 -10 10v43q0 10 10 10h302q10 0 10 -10z" />
    <glyph glyph-name="tbar.sc" horiz-adv-x="367" 
d="M335 514h-115q-4 0 -4 -4v-140q0 -4 4 -4h88q10 0 10 -10v-28q0 -10 -10 -10h-88q-4 0 -4 -4v-304q0 -10 -10 -10h-51q-10 0 -10 10v304q0 4 -4 4h-85q-10 0 -10 10v28q0 10 10 10h85q4 0 4 4v140q0 4 -4 4h-108q-10 0 -10 10v43q0 10 10 10h302q10 0 10 -10v-43
q0 -10 -10 -10z" />
    <glyph glyph-name="tcaron.sc" horiz-adv-x="367" 
d="M345 567v-43q0 -10 -10 -10h-115q-4 0 -4 -4v-500q0 -10 -10 -10h-51q-10 0 -10 10v500q0 4 -4 4h-108q-10 0 -10 10v43q0 10 10 10h302q10 0 10 -10zM142 637l-66 103q-2 4 -2 6q0 6 8 6h42q7 0 12 -7l45 -72q1 -1 3 -1t3 1l43 72q5 7 12 7h40q6 0 7.5 -3.5t-1.5 -8.5
l-68 -103q-5 -7 -12 -7h-54q-7 0 -12 7z" />
    <glyph glyph-name="uni0163.sc" horiz-adv-x="367" 
d="M216 510v-500q0 -10 -4 -10q-2 0 -2 -1.5t2 -3.5q40 -41 40 -90q0 -45 -23.5 -64t-57.5 -19q-16 0 -29 3q-8 3 -7 12l3 21q1 5 4.5 6.5t7.5 0.5t11 -1q18 0 29.5 11.5t11.5 35.5q0 41 -44 87l-2 2h-1q-10 0 -10 10v500q0 4 -4 4h-108q-10 0 -10 10v43q0 10 10 10h302
q10 0 10 -10v-43q0 -10 -10 -10h-115q-4 0 -4 -4z" />
    <glyph glyph-name="uni021B.sc" horiz-adv-x="368" 
d="M345 567v-43q0 -10 -10 -10h-115q-4 0 -4 -4v-500q0 -10 -10 -10h-51q-10 0 -10 10v500q0 4 -4 4h-108q-10 0 -10 10v43q0 10 10 10h302q10 0 10 -10zM119 -183.5q-2 3.5 1 8.5l62 109q5 7 12 7h47q6 0 7.5 -3.5t-1.5 -8.5l-70 -109q-5 -7 -12 -7h-38q-6 0 -8 3.5z" />
    <glyph glyph-name="u.sc" horiz-adv-x="419" 
d="M97 39q-42 46 -42 125v402q0 10 10 10h51q10 0 10 -10v-408q0 -48 22.5 -75.5t60.5 -27.5t61 27.5t23 75.5v408q0 10 10 10h51q10 0 10 -10v-402q0 -79 -42 -125t-113 -46q-70 0 -112 46z" />
    <glyph glyph-name="uacute.sc" horiz-adv-x="419" 
d="M97 39q-42 46 -42 125v402q0 10 10 10h51q10 0 10 -10v-408q0 -48 22.5 -75.5t60.5 -27.5t61 27.5t23 75.5v408q0 10 10 10h51q10 0 10 -10v-402q0 -79 -42 -125t-113 -46q-70 0 -112 46zM163 660.5q-2 3.5 1 8.5l62 109q5 7 12 7h47q6 0 7.5 -3.5t-1.5 -8.5l-70 -109
q-5 -7 -12 -7h-38q-6 0 -8 3.5z" />
    <glyph glyph-name="ucircumflex.sc" horiz-adv-x="419" 
d="M97 39q-42 46 -42 125v402q0 10 10 10h51q10 0 10 -10v-408q0 -48 22.5 -75.5t60.5 -27.5t61 27.5t23 75.5v408q0 10 10 10h51q10 0 10 -10v-402q0 -79 -42 -125t-113 -46q-70 0 -112 46zM99.5 653.5q-1.5 3.5 1.5 8.5l66 103q5 7 12 7h57q7 0 12 -7l68 -103l2 -5
q0 -7 -9 -7h-42q-7 0 -12 7l-44 73q-1 2 -3 2t-3 -2l-43 -73q-5 -7 -12 -7h-43q-6 0 -7.5 3.5z" />
    <glyph glyph-name="udieresis.sc" horiz-adv-x="419" 
d="M97 39q-42 46 -42 125v402q0 10 10 10h51q10 0 10 -10v-408q0 -48 22.5 -75.5t60.5 -27.5t61 27.5t23 75.5v408q0 10 10 10h51q10 0 10 -10v-402q0 -79 -42 -125t-113 -46q-70 0 -112 46zM112.5 687q-12.5 13 -12.5 34q0 20 13 33t32 13t30.5 -13t11.5 -33
q0 -21 -11.5 -34t-30.5 -13q-20 0 -32.5 13zM243.5 687q-12.5 13 -12.5 34q0 20 13 33t32 13t31 -13t12 -33q0 -21 -12 -34t-31 -13q-20 0 -32.5 13z" />
    <glyph glyph-name="ugrave.sc" horiz-adv-x="419" 
d="M97 39q-42 46 -42 125v402q0 10 10 10h51q10 0 10 -10v-408q0 -48 22.5 -75.5t60.5 -27.5t61 27.5t23 75.5v408q0 10 10 10h51q10 0 10 -10v-402q0 -79 -42 -125t-113 -46q-70 0 -112 46zM235 663q0 -6 -9 -6h-38q-7 0 -12 7l-70 109q-2 4 -2 6q0 6 8 6h47q7 0 12 -7
l62 -109q2 -4 2 -6z" />
    <glyph glyph-name="uhungarumlaut.sc" horiz-adv-x="419" 
d="M97 39q-42 46 -42 125v402q0 10 10 10h51q10 0 10 -10v-408q0 -48 22.5 -75.5t60.5 -27.5t61 27.5t23 75.5v408q0 10 10 10h51q10 0 10 -10v-402q0 -79 -42 -125t-113 -46q-70 0 -112 46zM122 658.5q-2 3.5 0 8.5l57 109q3 7 12 7h42q6 0 8 -3.5t-1 -8.5l-60 -109
q-3 -7 -12 -7h-39q-5 0 -7 3.5zM247.5 658.5q-2.5 3.5 0.5 8.5l59 109q3 7 12 7h39q6 0 8 -3.5t-1 -8.5l-60 -109q-3 -7 -12 -7h-38q-5 0 -7.5 3.5z" />
    <glyph glyph-name="umacron.sc" horiz-adv-x="419" 
d="M97 39q-42 46 -42 125v402q0 10 10 10h51q10 0 10 -10v-408q0 -48 22.5 -75.5t60.5 -27.5t61 27.5t23 75.5v408q0 10 10 10h51q10 0 10 -10v-402q0 -79 -42 -125t-113 -46q-70 0 -112 46zM106 685v32q0 10 10 10h183q10 0 10 -10v-32q0 -10 -10 -10h-183q-10 0 -10 10z
" />
    <glyph glyph-name="uogonek.sc" horiz-adv-x="419" 
d="M303 576h51q10 0 10 -10v-402q0 -71 -34.5 -116.5t-94.5 -53.5q-3 0 -5 -2q-40 -42 -40 -82q0 -24 12 -35.5t30 -11.5q7 0 10 1l4 1q6 0 8 -8l3 -21v-3q0 -6 -7 -9q-14 -3 -29 -3q-34 0 -57 18.5t-23 63.5q0 49 36 88q4 4 -2 5q-55 11 -87.5 55t-32.5 113v402q0 10 10 10
h51q10 0 10 -10v-408q0 -48 22.5 -75.5t60.5 -27.5t61 27.5t23 75.5v408q0 10 10 10z" />
    <glyph glyph-name="uring.sc" horiz-adv-x="419" 
d="M97 39q-42 46 -42 125v402q0 10 10 10h51q10 0 10 -10v-408q0 -48 22.5 -75.5t60.5 -27.5t61 27.5t23 75.5v408q0 10 10 10h51q10 0 10 -10v-402q0 -79 -42 -125t-113 -46q-70 0 -112 46zM137.5 682q-29.5 30 -29.5 73t29.5 73t71.5 30q43 0 72 -30t29 -73t-29 -73
t-72 -30q-42 0 -71.5 30zM253 709.5q18 18.5 18 45.5q0 28 -18 46.5t-44 18.5t-44 -18.5t-18 -46.5q0 -27 18 -45.5t44 -18.5t44 18.5z" />
    <glyph glyph-name="v.sc" horiz-adv-x="395" 
d="M160 9l-129 557l-1 4q0 7 9 7h56q10 0 11 -9l92 -443q1 -3 2 -3t2 3l89 443q2 9 11 9h54q5 0 7.5 -3t0.5 -8l-129 -557q-2 -9 -11 -9h-53q-9 0 -11 9z" />
    <glyph glyph-name="w.sc" horiz-adv-x="566" 
d="M147 9l-117 557v2q0 9 9 9h54q10 0 11 -9l77 -428q1 -2 2 -1.5t2 2.5l69 427q2 9 10 9h42q10 0 11 -9l71 -427q1 -2 2 -2t2 2l71 427q2 9 11 9h53q5 0 7.5 -3t1.5 -8l-110 -557q-1 -9 -11 -9h-48q-8 0 -10 9l-70 423q-1 2 -2 2t-2 -2l-69 -423q-1 -9 -10 -9h-46
q-9 0 -11 9z" />
    <glyph glyph-name="wacute.sc" horiz-adv-x="566" 
d="M147 9l-117 557v2q0 9 9 9h54q10 0 11 -9l77 -428q1 -2 2 -1.5t2 2.5l69 427q2 9 10 9h42q10 0 11 -9l71 -427q1 -2 2 -2t2 2l71 427q2 9 11 9h53q5 0 7.5 -3t1.5 -8l-110 -557q-1 -9 -11 -9h-48q-8 0 -10 9l-70 423q-1 2 -2 2t-2 -2l-69 -423q-1 -9 -10 -9h-46
q-9 0 -11 9zM237 651.5q-2 3.5 1 8.5l62 109q5 7 12 7h47q6 0 7.5 -3.5t-1.5 -8.5l-70 -109q-5 -7 -12 -7h-38q-6 0 -8 3.5z" />
    <glyph glyph-name="wcircumflex.sc" horiz-adv-x="566" 
d="M147 9l-117 557v2q0 9 9 9h54q10 0 11 -9l77 -428q1 -2 2 -1.5t2 2.5l69 427q2 9 10 9h42q10 0 11 -9l71 -427q1 -2 2 -2t2 2l71 427q2 9 11 9h53q5 0 7.5 -3t1.5 -8l-110 -557q-1 -9 -11 -9h-48q-8 0 -10 9l-70 423q-1 2 -2 2t-2 -2l-69 -423q-1 -9 -10 -9h-46
q-9 0 -11 9zM173.5 644.5q-1.5 3.5 1.5 8.5l66 103q5 7 12 7h57q7 0 12 -7l68 -103l2 -5q0 -7 -9 -7h-42q-7 0 -12 7l-44 73q-1 2 -3 2t-3 -2l-43 -73q-5 -7 -12 -7h-43q-6 0 -7.5 3.5z" />
    </font>
</defs>
</svg>
