<?xml version="1.0" standalone="no"?>
<!DOCTYPE svg PUBLIC "-//W3C//DTD SVG 1.1//EN" "http://www.w3.org/Graphics/SVG/1.1/DTD/svg11.dtd" >
<svg xmlns="http://www.w3.org/2000/svg" xmlns:xlink="http://www.w3.org/1999/xlink" version="1.1">
<metadata>
Created by FontForge 20170731 at Thu Oct 26 18:31:46 2017
 By Aleksey,,,
Copyright 2017 The Barlow Project Authors (https://github.com/jpt/barlow)
</metadata>
<defs>
<font id="BarlowCondensed-Medium" horiz-adv-x="432" >
  <font-face 
    font-family="Barlow Condensed Medium"
    font-weight="500"
    font-stretch="condensed"
    units-per-em="1000"
    panose-1="0 0 6 6 0 0 0 0 0 0"
    ascent="800"
    descent="-200"
    x-height="509"
    cap-height="700"
    bbox="-446 -209 989 982"
    underline-thickness="50"
    underline-position="-150"
    unicode-range="U+000D-25CA"
  />
<missing-glyph horiz-adv-x="363" 
d="M4 0h355q4 0 4 4v692q0 4 -4 4h-355q-4 0 -4 -4v-692q0 -4 4 -4zM141 248v32q0 33 12.5 52.5t38.5 44.5q24 23 35.5 41t11.5 45q0 32 -14.5 51t-38.5 19q-25 0 -40 -19.5t-15 -51.5v-16q0 -10 -10 -10l-49 3q-10 0 -10 10v13q0 60 35 96.5t91 36.5q55 0 87.5 -35.5
t32.5 -94.5q0 -45 -15.5 -71t-43.5 -52q-21 -20 -30 -33t-9 -32v-29q0 -10 -10 -10h-49q-10 0 -10 10zM148.5 103.5q-12.5 13.5 -12.5 32.5t13 33t30 14t30.5 -14t13.5 -33t-13 -32.5t-31 -13.5t-30.5 13.5z" />
    <glyph glyph-name="I_J.liga" unicode="IJ" horiz-adv-x="655" 
d="M62 10v680q0 10 10 10h76q10 0 10 -10v-680q0 -10 -10 -10h-76q-10 0 -10 10zM287.5 40.5q-48.5 48.5 -48.5 127.5v79q0 10 10 10h76q10 0 10 -10v-81q0 -40 22.5 -65.5t58.5 -25.5t58.5 25.5t22.5 65.5v524q0 10 10 10h76q10 0 10 -10v-522q0 -79 -48.5 -127.5
t-128.5 -48.5t-128.5 48.5z" />
    <glyph glyph-name="f_f_i.liga" unicode="ffi" horiz-adv-x="758" 
d="M609.5 603q-17.5 18 -17.5 46t17.5 45.5t44.5 17.5q26 0 43 -17.5t17 -45.5t-17 -46t-43 -18q-27 0 -44.5 18zM436 513q0 -4 4 -4h69q10 0 10 -10v-50q0 -10 -10 -10h-69q-4 0 -4 -4v-425q0 -10 -10 -10h-76q-10 0 -10 10v425q0 4 -4 4h-160q-4 0 -4 -4v-425
q0 -10 -10 -10h-76q-10 0 -10 10v425q0 4 -4 4h-38q-10 0 -10 10v50q0 10 10 10h38q4 0 4 4v40q0 83 38 119t120 34h7q10 0 10 -10v-48q0 -10 -8 -10h-9q-35 -1 -48.5 -24.5t-13.5 -68.5v-32q0 -4 4 -4h160q4 0 4 4v40q0 83 37.5 119t119.5 34h8q10 0 10 -10v-48
q0 -10 -8 -10h-9q-35 -1 -48.5 -24.5t-13.5 -68.5v-32zM606 10v489q0 10 10 10h76q10 0 10 -10v-489q0 -10 -10 -10h-76q-10 0 -10 10z" />
    <glyph glyph-name="f_f_l.liga" unicode="ffl" horiz-adv-x="742" 
d="M439 513q0 -4 4 -4h69q10 0 10 -10v-50q0 -10 -10 -10h-69q-4 0 -4 -4v-425q0 -10 -10 -10h-76q-10 0 -10 10v425q0 4 -4 4h-163q-4 0 -4 -4v-425q0 -10 -10 -10h-76q-10 0 -10 10v425q0 4 -4 4h-38q-10 0 -10 10v50q0 10 10 10h38q4 0 4 4v40q0 83 38 119t120 34h7
q10 0 10 -10v-48q0 -10 -8 -10h-9q-35 -1 -48.5 -24.5t-13.5 -68.5v-32q0 -4 4 -4h163q4 0 4 4v40q0 83 38 119t120 34h7q10 0 10 -10v-48q0 -10 -8 -10h-9q-35 -1 -48.5 -24.5t-13.5 -68.5v-32zM608 700h76q10 0 10 -10v-680q0 -10 -10 -10h-76q-10 0 -10 10v680
q0 10 10 10z" />
    <glyph glyph-name="f_i.liga" unicode="fi" horiz-adv-x="495" 
d="M171 513q0 -4 4 -4h70q10 0 10 -10v-50q0 -10 -10 -10h-70q-4 0 -4 -4v-425q0 -10 -10 -10h-75q-10 0 -10 10v425q0 4 -4 4h-37q-10 0 -10 10v50q0 10 10 10h37q4 0 4 4v26q0 89 37 127.5t120 38.5h13q10 0 10 -10l-2 -61q0 -10 -10 -10h-10q-33 0 -48 -21.5t-15 -66.5
v-23zM346 602q-17 18 -17 46t17 45.5t44 17.5t43.5 -17.5t16.5 -45.5q0 -29 -16.5 -46.5t-43.5 -17.5t-44 18zM342 10v489q0 10 10 10h76q10 0 10 -10v-489q0 -10 -10 -10h-76q-10 0 -10 10z" />
    <glyph glyph-name="f_l.liga" unicode="fl" horiz-adv-x="475" 
d="M171 513q0 -4 4 -4h70q10 0 10 -10v-50q0 -10 -10 -10h-70q-4 0 -4 -4v-425q0 -10 -10 -10h-75q-10 0 -10 10v425q0 4 -4 4h-37q-10 0 -10 10v50q0 10 10 10h37q4 0 4 4v26q0 89 37 127.5t120 38.5h13q10 0 10 -10l-2 -61q0 -10 -10 -10h-10q-33 0 -48 -21.5t-15 -66.5
v-23zM332 10v680q0 10 10 10h76q10 0 10 -10v-680q0 -10 -10 -10h-76q-10 0 -10 10z" />
    <glyph glyph-name="g_j.liga" unicode="gj" horiz-adv-x="623" 
d="M479.5 603.5q-16.5 17.5 -16.5 45.5q0 26 18 44t42 18q25 0 43 -18t18 -44q0 -28 -17 -45.5t-44 -17.5t-43.5 17.5zM280.5 470q1.5 1 1.5 3v26q0 10 10 10h76q10 0 10 -10v-484q0 -105 -48 -162.5t-165 -57.5l-27 1q-10 1 -10 11v64q0 10 11 10q82 -3 112.5 32.5
t30.5 110.5v21q0 2 -1.5 2.5t-3.5 -1.5q-34 -46 -97 -46q-66 0 -101.5 42.5t-35.5 115.5v200q0 74 36 116.5t101 42.5t97 -46q2 -2 3.5 -1zM476 499q0 10 10 10h75q10 0 10 -10v-527q0 -90 -35.5 -134.5t-128.5 -43.5q-10 0 -10 10l2 62q0 10 8 10q33 1 51 26.5t18 69.5v527
zM262.5 105.5q19.5 22.5 19.5 58.5v188q0 36 -19.5 59t-51.5 23t-52 -23t-20 -59v-188q0 -36 20 -58.5t52 -22.5t51.5 22.5z" />
    <glyph glyph-name="i_j.liga" unicode="ij" horiz-adv-x="408" 
d="M62 602q-17 18 -17 46t17 45.5t44 17.5t43.5 -17.5t16.5 -45.5q0 -29 -16.5 -46.5t-43.5 -17.5t-44 18zM58 10v489q0 10 10 10h76q10 0 10 -10v-489q0 -10 -10 -10h-76q-10 0 -10 10zM264 603q-17 18 -17 46q0 26 18 44.5t42 18.5q25 0 43.5 -18t18.5 -45q0 -28 -17 -46
t-45 -18q-26 0 -43 18zM168 -197v63q0 10 10 10q81 1 81 96v527q0 10 10 10h76q10 0 10 -10v-527q0 -62 -12.5 -99.5t-50.5 -58.5t-111 -21q-13 0 -13 10z" />
    <glyph glyph-name="hyphen_hyphen.liga" unicode="&#x2d;&#x2d;" horiz-adv-x="592" 
d="M29 269v63q0 10 10 10h514q10 0 10 -10v-63q0 -10 -10 -10h-514q-10 0 -10 10z" />
    <glyph glyph-name=".notdef" horiz-adv-x="363" 
d="M4 0h355q4 0 4 4v692q0 4 -4 4h-355q-4 0 -4 -4v-692q0 -4 4 -4zM141 248v32q0 33 12.5 52.5t38.5 44.5q24 23 35.5 41t11.5 45q0 32 -14.5 51t-38.5 19q-25 0 -40 -19.5t-15 -51.5v-16q0 -10 -10 -10l-49 3q-10 0 -10 10v13q0 60 35 96.5t91 36.5q55 0 87.5 -35.5
t32.5 -94.5q0 -45 -15.5 -71t-43.5 -52q-21 -20 -30 -33t-9 -32v-29q0 -10 -10 -10h-49q-10 0 -10 10zM148.5 103.5q-12.5 13.5 -12.5 32.5t13 33t30 14t30.5 -14t13.5 -33t-13 -32.5t-31 -13.5t-30.5 13.5z" />
    <glyph glyph-name=".null" horiz-adv-x="0" 
 />
    <glyph glyph-name="nonmarkingreturn" unicode="&#xd;" horiz-adv-x="200" 
 />
    <glyph glyph-name="space" unicode=" " horiz-adv-x="200" 
 />
    <glyph glyph-name="exclam" unicode="!" horiz-adv-x="265" 
d="M94 242l-9 448q0 10 10 10h76q10 0 10 -10l-10 -448q0 -10 -10 -10h-57q-10 0 -10 10zM84.5 23q-18.5 20 -18.5 49q0 28 20 48.5t45 20.5q26 0 46 -20.5t20 -48.5q0 -29 -19 -49t-47 -20t-46.5 20z" />
    <glyph glyph-name="quotedbl" unicode="&#x22;" horiz-adv-x="274" 
d="M29 492l-9 194q0 10 9 10h73q10 0 10 -10l-10 -194q0 -10 -10 -10h-52q-11 0 -11 10zM171 492l-9 194q0 10 9 10h73q9 0 9 -10l-10 -194q0 -10 -10 -10h-52q-10 0 -10 10z" />
    <glyph glyph-name="numbersign" unicode="#" horiz-adv-x="599" 
d="M541 420h-64q-5 0 -5 -4l-19 -138q0 -4 3 -4h52q10 0 10 -10v-63q0 -10 -10 -10h-65q-5 0 -5 -4l-23 -158q-1 -9 -10 -9l-76 1q-4 0 -7 3t-2 8l22 155q0 4 -3 4h-124q-5 0 -5 -4l-23 -158q-1 -9 -10 -9l-76 1q-4 0 -7 3t-2 8l22 155q0 4 -3 4h-53q-10 0 -10 10v63
q0 10 10 10h66q5 0 5 4l19 138q0 4 -3 4h-54q-10 0 -10 10v64q0 10 10 10h67q5 0 5 4l23 158q1 9 10 9l76 -1q4 0 7 -3t2 -8l-22 -155q0 -4 3 -4h124q5 0 5 4l23 158q1 9 10 9l76 -1q4 0 7 -3t2 -8l-22 -155q0 -4 3 -4h51q10 0 10 -10v-64q0 -10 -10 -10zM357 278l19 138
q0 4 -3 4h-124q-5 0 -5 -4l-19 -138q0 -4 3 -4h124q5 0 5 4z" />
    <glyph glyph-name="dollar" unicode="$" horiz-adv-x="434" 
d="M358.5 53q-40.5 -49 -107.5 -59q-4 0 -4 -4l1 -59q0 -10 -10 -10h-44q-10 0 -10 10l1 60q0 4 -4 5q-62 11 -99 58t-37 117v27q0 10 10 10h74q10 0 10 -10v-22q0 -46 23 -73.5t59 -27.5t59.5 26.5t23.5 69.5q0 29 -12.5 51t-33 39.5t-66.5 51.5q-51 38 -80 65t-49 65
t-20 89q0 71 37 116.5t100 56.5q4 1 4 5l-2 66q0 10 10 10h44q10 0 10 -10l-2 -66q0 -4 4 -5q67 -10 106 -58.5t39 -123.5v-25q0 -10 -10 -10h-74q-10 0 -10 10v27q0 45 -23 72.5t-60 27.5q-35 0 -56.5 -24.5t-21.5 -68.5q0 -40 22 -67.5t84 -73.5q61 -45 91.5 -73t47 -61.5
t16.5 -79.5q0 -75 -40.5 -124z" />
    <glyph glyph-name="percent" unicode="%" horiz-adv-x="776" 
d="M134.5 433q-33.5 20 -53 54t-19.5 75q0 40 19.5 74t53 53.5t73.5 19.5q39 0 72 -20t52.5 -53.5t19.5 -73.5q0 -41 -19.5 -75t-52.5 -54t-72 -20q-40 0 -73.5 20zM168.5 3.5q-2.5 3.5 0.5 8.5l367 681q3 7 12 7h49q6 0 8.5 -3.5t-0.5 -8.5l-367 -681q-3 -7 -12 -7h-49
q-6 0 -8.5 3.5zM271 494.5q26 27.5 26 67.5q0 39 -26 66.5t-63 27.5q-38 0 -64.5 -27.5t-26.5 -66.5q0 -40 26.5 -67.5t64.5 -27.5q37 0 63 27.5zM496.5 11q-33.5 20 -53 54t-19.5 74t19.5 74t53 54t72.5 20t72.5 -20t53 -54t19.5 -74t-19.5 -74t-52.5 -54t-73 -20
q-39 0 -72.5 20zM633 72q26 28 26 67t-26.5 66.5t-63.5 27.5t-63.5 -27.5t-26.5 -66.5q0 -40 26 -67.5t64 -27.5t64 28z" />
    <glyph glyph-name="ampersand" unicode="&#x26;" horiz-adv-x="571" 
d="M529 6q0 -6 -8 -6h-82q-7 0 -13 6l-34 49q-3 3 -6 0q-37 -33 -77.5 -48.5t-88.5 -15.5q-82 0 -129.5 43.5t-47.5 125.5q0 68 31 115.5t86 90.5q3 1 1 5q-35 50 -51.5 78.5t-22 49t-5.5 46.5q0 74 43.5 118.5t114.5 44.5q72 0 118 -45t46 -119q0 -61 -31.5 -105.5
t-87.5 -89.5q-3 -1 -1 -5q13 -17 48 -67l58 -79q2 -4 6 0q25 40 47 80q2 4 6 5t8 -1l56 -32q8 -5 4 -14q-30 -56 -69 -111q-2 -3 0 -5l79 -108q2 -2 2 -6zM196 599.5q-18 -21.5 -18 -57.5q0 -25 9 -46.5t41 -70.5q3 -4 6 -1q36 30 55 58t19 62t-18 55.5t-47 21.5t-47 -21.5z
M335 125q3 3 1 6l-119 161q-2 3 -5 0q-35 -31 -54 -60.5t-19 -65.5q0 -41 23.5 -66.5t67.5 -25.5q52 0 105 51z" />
    <glyph glyph-name="quotesingle" unicode="'" horiz-adv-x="137" 
d="M29 496l-9 192q0 10 9 10h78q9 0 9 -10l-10 -192q0 -10 -10 -10h-57q-10 0 -10 10z" />
    <glyph glyph-name="parenleft" unicode="(" horiz-adv-x="254" 
d="M95 -93q-43 76 -69.5 185.5t-26.5 235.5q0 128 27 239.5t71 187.5q4 7 12 7h73q5 0 7.5 -3.5t0.5 -8.5q-36 -82 -59.5 -190.5t-23.5 -230.5q0 -121 23.5 -228.5t59.5 -188.5l1 -4q0 -8 -9 -8h-75q-8 0 -12 7z" />
    <glyph glyph-name="parenright" unicode=")" horiz-adv-x="254" 
d="M147 -100h-75q-5 0 -7.5 3.5t-0.5 8.5q36 81 59.5 188.5t23.5 228.5q0 122 -23.5 230.5t-59.5 190.5l-1 4q0 8 9 8h73q8 0 12 -7q44 -76 71 -187.5t27 -239.5q0 -126 -26.5 -235.5t-69.5 -185.5q-4 -7 -12 -7z" />
    <glyph glyph-name="asterisk" unicode="*" horiz-adv-x="361" 
d="M152 405v107q0 2 -1.5 3t-3.5 0l-90 -55l-5 -2q-5 0 -9 6l-19 33q-2 4 -2 6q0 6 5 8l94 56q2 1 2 3t-2 3l-94 56q-8 5 -3 14l19 34q6 10 14 4l90 -56q2 -1 3.5 0t1.5 3v108q0 10 10 10h38q10 0 10 -10l-1 -108q0 -3 1.5 -4t3.5 1l90 56l5 2q5 0 9 -6l19 -34q2 -4 2 -6
q0 -5 -5 -8l-94 -56q-1 -1 -1 -3t1 -3l94 -56q8 -5 3 -14l-19 -34q-6 -10 -14 -4l-90 56q-2 2 -3.5 1t-1.5 -4l1 -107q0 -10 -10 -10h-38q-10 0 -10 10z" />
    <glyph glyph-name="plus" unicode="+" horiz-adv-x="440" 
d="M411 343v-54q0 -10 -10 -10h-140q-4 0 -4 -4v-140q0 -10 -10 -10h-54q-10 0 -10 10v140q0 4 -4 4h-140q-10 0 -10 10v54q0 10 10 10h140q4 0 4 4v140q0 10 10 10h54q10 0 10 -10v-140q0 -4 4 -4h140q10 0 10 -10z" />
    <glyph glyph-name="comma" unicode="," horiz-adv-x="189" 
d="M37 -82.5q-3 3.5 -2 7.5l29 222q1 9 10 9h66q11 0 9 -11l-48 -222q-1 -9 -11 -9h-45q-5 0 -8 3.5z" />
    <glyph glyph-name="hyphen" unicode="-" horiz-adv-x="320" 
d="M29 274v63q0 10 10 10h242q10 0 10 -10v-63q0 -10 -10 -10h-242q-10 0 -10 10z" />
    <glyph glyph-name="period" unicode="." horiz-adv-x="229" 
d="M65.5 20q-18.5 20 -18.5 50q0 28 20 48t45 20q26 0 46 -20t20 -48q0 -29 -19 -49.5t-47 -20.5t-46.5 20z" />
    <glyph glyph-name="slash" unicode="/" horiz-adv-x="334" 
d="M23.5 3q-2.5 3 -1.5 8l195 681q3 8 11 8h75q5 0 7.5 -3t1.5 -8l-195 -681q-3 -8 -11 -8h-75q-5 0 -7.5 3z" />
    <glyph glyph-name="zero" unicode="0" horiz-adv-x="422" 
d="M81 41q-49 51 -49 136v346q0 85 49 136t129 51q81 0 130.5 -51t49.5 -136v-346q0 -85 -49.5 -136t-130.5 -51q-80 0 -129 51zM271 100q23 27 23 71v358q0 44 -23 71t-61 27q-37 0 -59.5 -27t-22.5 -71v-358q0 -44 22.5 -71t59.5 -27q38 0 61 27z" />
    <glyph glyph-name="one" unicode="1" horiz-adv-x="258" 
d="M121 700h79q10 0 10 -10v-680q0 -10 -10 -10h-76q-10 0 -10 10v592q0 2 -1.5 3t-3.5 0l-78 -29l-4 -1q-8 0 -8 9v56q0 9 7 12l82 45q6 3 13 3z" />
    <glyph glyph-name="two" unicode="2" horiz-adv-x="415" 
d="M35 10v66q0 8 4 13l31 46q95 137 147 222q60 102 60 170q0 45 -20.5 71.5t-53.5 26.5t-53 -26t-19 -69v-40q0 -10 -10 -10h-78q-10 0 -10 10v43q3 79 51 127t123 48t121 -50t46 -132q0 -49 -17.5 -99.5t-53.5 -108.5q-28 -47 -66 -103.5t-50 -75.5l-34 -51q-1 -2 0 -3.5
t3 -1.5h225q10 0 10 -10v-63q0 -10 -10 -10h-336q-10 0 -10 10z" />
    <glyph glyph-name="three" unicode="3" horiz-adv-x="458" 
d="M413 187.5q0 -22.5 -2 -43.5q-8 -68 -58.5 -110t-127.5 -42q-79 0 -130 42t-59 110q-4 27 -4 61q0 10 10 10h76q10 0 10 -10q0 -33 2 -46q6 -38 31.5 -61t63.5 -23t64 23t31 60q2 17 2 39.5v27.5q0 50 -2 70q-7 37 -32 60t-63 23q-16 0 -30 -9q-4 -3 -8 -3t-7 4l-37 39
q-6 7 0 14l154 189q2 2 1 3.5t-3 1.5h-246q-10 0 -10 10v63q0 10 10 10h349q10 0 10 -10v-66q0 -7 -4 -12l-122 -158q-2 -4 2 -5q51 -11 85.5 -57.5t40.5 -101.5q3 -21 3 -46v-29v-27.5z" />
    <glyph glyph-name="four" unicode="4" horiz-adv-x="429" 
d="M409 263v-67q0 -10 -10 -10h-32q-4 0 -4 -4v-172q0 -10 -10 -10h-76q-10 0 -10 10v172q0 4 -4 4h-234q-10 0 -10 10v56q0 4 2 12l144 428q3 8 12 8h82q11 0 8 -11l-136 -411q-1 -2 0.5 -3.5t3.5 -1.5h128q4 0 4 4v137q0 10 10 10h76q10 0 10 -10v-137q0 -4 4 -4h32
q10 0 10 -10z" />
    <glyph glyph-name="five" unicode="5" horiz-adv-x="420" 
d="M388 215q0 -38 -5 -76q-7 -71 -51 -109t-116 -38q-70 0 -113 37t-54 110l-3 30q0 10 10 10h76q10 0 10 -10l3 -22q13 -72 71 -72q28 0 46 18t24 52q6 30 6 70q0 42 -8 74q-7 30 -24.5 46t-43.5 16q-59 0 -73 -57q-3 -9 -11 -9h-77q-10 0 -10 10v395q0 10 10 10h309
q10 0 10 -10v-63q0 -10 -10 -10h-219q-4 0 -4 -4v-220q0 -2 1.5 -2.5t3.5 1.5q16 20 41 31.5t56 11.5q57 0 92.5 -35.5t44.5 -100.5q8 -38 8 -84z" />
    <glyph glyph-name="six" unicode="6" horiz-adv-x="420" 
d="M389 215q0 -27 -4 -69q-6 -74 -50 -114t-118 -40q-68 0 -111.5 37t-53.5 109q-6 30 -6 70l-1 326q0 79 47 126.5t124 47.5q71 0 116.5 -47.5t45.5 -126.5v-22q0 -10 -10 -10h-76q-10 0 -10 10v18q0 41 -19 66.5t-47 25.5q-33 0 -53.5 -25.5t-20.5 -66.5v-110q0 -5 5 -2
q29 29 73 29q68 0 111 -42t51 -112q7 -38 7 -78zM292 221q0 31 -7 78q-14 65 -69 65t-69 -68q-5 -32 -5 -75q0 -39 4 -72q14 -74 70 -74q29 0 47.5 20t24.5 59q4 32 4 67z" />
    <glyph glyph-name="seven" unicode="7" horiz-adv-x="381" 
d="M96.5 3q-2.5 3 -1.5 8l169 602q1 1 -0.5 2.5t-3.5 1.5h-158q-4 0 -4 -4v-40q0 -10 -10 -10h-59q-10 0 -10 10l1 117q0 10 10 10h326q10 0 10 -10v-67q0 -2 -2 -12l-169 -603q-2 -8 -11 -8h-80q-5 0 -7.5 3z" />
    <glyph glyph-name="eight" unicode="8" horiz-adv-x="429" 
d="M312 366q34 -19 51 -58q22 -47 22 -110q0 -52 -15 -95q-19 -52 -60 -81.5t-97 -29.5q-55 0 -95 29t-60 82q-14 44 -14 96q0 60 18 103q17 42 55 63q5 3 0 6q-35 20 -53 57q-20 42 -20 99q0 59 20 98q20 41 59 63.5t90 22.5t90 -22t60 -63q22 -40 22 -100q0 -57 -20 -97
q-18 -37 -53 -57q-4 -3 0 -6zM138 518q0 -39 13 -65q7 -22 23.5 -34.5t38.5 -12.5q24 0 41 13.5t25 36.5q12 26 12 62q0 39 -14 65q-9 21 -25 33t-39 12q-22 0 -38.5 -12.5t-24.5 -34.5q-12 -27 -12 -63zM290 203q0 41 -12 74q-7 26 -24 40t-41 14q-23 0 -40 -14.5
t-24 -42.5q-10 -27 -10 -70q0 -39 8 -64q7 -31 24 -47.5t42 -16.5q26 0 44.5 17.5t25.5 49.5q7 30 7 60z" />
    <glyph glyph-name="nine" unicode="9" horiz-adv-x="414" 
d="M369 166q0 -79 -47 -126.5t-124 -47.5q-71 0 -116.5 47.5t-45.5 126.5v22q0 10 10 10h76q10 0 10 -10v-18q0 -41 19 -66.5t47 -25.5q33 0 53.5 25.5t20.5 66.5v110q0 5 -5 2q-29 -29 -73 -29q-68 0 -111 42t-51 112q-7 39 -7 78q0 27 4 69q6 74 50 114t118 40
q68 0 111.5 -37t53.5 -109q6 -30 6 -70zM272 479q0 39 -4 72q-14 74 -70 74q-29 0 -47.5 -20t-24.5 -59q-4 -32 -4 -67q0 -31 7 -78q14 -65 69 -65t69 68q5 33 5 75z" />
    <glyph glyph-name="colon" unicode=":" horiz-adv-x="234" 
d="M71 357.5q-19 20.5 -19 49.5q0 28 20 48t46 20q25 0 45 -20t20 -48q0 -29 -18.5 -49.5t-46.5 -20.5t-47 20.5zM71 24q-19 20 -19 49q0 28 20 48.5t46 20.5q25 0 45 -20.5t20 -48.5q0 -29 -18.5 -49t-46.5 -20t-47 20z" />
    <glyph glyph-name="semicolon" unicode=";" horiz-adv-x="207" 
d="M56.5 355q-18.5 20 -18.5 49q0 28 20 48.5t46 20.5q25 0 45 -20.5t20 -48.5q0 -29 -18.5 -49t-46.5 -20q-29 0 -47.5 20zM44 -80q-3 3 -2 7l20 216q1 10 11 10h66q5 0 7.5 -3t1.5 -8l-39 -216q-1 -9 -11 -9h-46q-5 0 -8 3z" />
    <glyph glyph-name="less" unicode="&#x3c;" horiz-adv-x="440" 
d="M407.5 59.5q-3.5 -2.5 -8.5 0.5l-363 174q-7 4 -7 12v69q0 8 7 12l363 174l5 2q3 0 5 -2.5t2 -6.5v-73q0 -7 -7 -11l-278 -127q-6 -3 0 -6l278 -127q7 -3 7 -11v-72q0 -5 -3.5 -7.5z" />
    <glyph glyph-name="equal" unicode="=" horiz-adv-x="440" 
d="M29 396v54q0 10 10 10h362q10 0 10 -10v-54q0 -10 -10 -10h-362q-10 0 -10 10zM29 199v54q0 10 10 10h362q10 0 10 -10v-54q0 -10 -10 -10h-362q-10 0 -10 10z" />
    <glyph glyph-name="greater" unicode="&#x3e;" horiz-adv-x="440" 
d="M36 58q-3 0 -5 2.5t-2 6.5v72q0 8 7 11l278 127q6 3 0 6l-278 127q-7 4 -7 11v73q0 5 3.5 7.5t8.5 -0.5l363 -174q7 -4 7 -12v-69q0 -8 -7 -12l-363 -174z" />
    <glyph glyph-name="question" unicode="?" horiz-adv-x="394" 
d="M135 218v50q0 45 18 74t53 62q32 30 48.5 55.5t16.5 64.5q0 45 -20 71.5t-53 26.5q-36 0 -57 -27.5t-21 -72.5v-26q0 -10 -10 -10l-76 4q-10 0 -10 10v22q0 84 48.5 135.5t127.5 51.5q76 0 122 -49.5t46 -132.5q0 -44 -12 -76t-28.5 -52t-42.5 -45q-28 -26 -41 -45
t-13 -46v-45q0 -10 -10 -10h-76q-10 0 -10 10zM144.5 20q-17.5 19 -17.5 46t18 46t43 19q24 0 42.5 -19t18.5 -46t-18 -46t-44 -19q-25 0 -42.5 19z" />
    <glyph glyph-name="at" unicode="@" horiz-adv-x="759" 
d="M575 594.5q67 -35.5 104 -100.5t37 -150q0 -25 -3 -52q-13 -96 -62 -149.5t-122 -53.5q-63 0 -96 41q-3 3 -6 0q-14 -22 -36 -32t-45 -10q-48 0 -78 27t-30 75q0 17 5 50l4 36q0 -3 9 67q9 53 37.5 82.5t77.5 29.5q14 0 30 -6t29 -18q1 -2 3 -1.5t2 2.5l1 8q1 9 10 9h47
q5 0 8 -3.5t2 -7.5l-25 -195q-1 -6 -1 -18q0 -35 17 -53.5t46 -18.5q40 0 67 38t35 102q3 24 3 46q0 69 -29 121t-81.5 80t-121.5 28q-74 0 -138.5 -38t-107 -106.5t-53.5 -154.5q-3 -24 -3 -47q0 -75 30 -129.5t80.5 -82.5t110.5 -28q45 0 82 12t62 31l4 3q1 1 3 1
q6 0 9 -5l23 -36q2 -4 2 -6q0 -5 -5 -8q-35 -25 -84.5 -40.5t-106.5 -15.5q-80 0 -143 36t-99 103.5t-36 157.5q0 18 4 58q13 103 66.5 184.5t134.5 127t173 45.5q87 0 154 -35.5zM386.5 161.5q15.5 15.5 20.5 41.5l2 12v4q0 9 1 13l15 115v4q-2 21 -13.5 33.5t-30.5 12.5
q-22 0 -38.5 -16t-19.5 -42l-3 -21q-5 -38 -6 -47l-8 -68q-2 -27 9.5 -42t33.5 -15t37.5 15.5z" />
    <glyph glyph-name="A" unicode="A" horiz-adv-x="471" 
d="M343 9l-22 115q0 2 -1.5 3t-3.5 1h-161q-2 0 -3.5 -1t-1.5 -3l-23 -115q-1 -9 -11 -9h-76q-5 0 -7.5 3t-1.5 8l149 680q2 9 11 9h88q10 0 11 -9l151 -680v-2q0 -9 -9 -9h-78q-9 0 -11 9zM170 204h132q3 0 3 4l-66 342q-1 3 -2 3t-2 -3l-68 -342q0 -4 3 -4z" />
    <glyph glyph-name="B" unicode="B" horiz-adv-x="456" 
d="M374.5 50q-51.5 -50 -135.5 -50h-167q-10 0 -10 10v680q0 10 10 10h153q91 0 142.5 -47.5t51.5 -138.5q0 -108 -77 -149q-5 -3 -1 -5q40 -24 62.5 -67t22.5 -102q0 -91 -51.5 -141zM158 613v-212q0 -4 4 -4h64q47 0 73 28.5t26 79.5q0 53 -26 82.5t-73 29.5h-64
q-4 0 -4 -4zM303.5 115q26.5 31 26.5 88q0 58 -26 90.5t-72 32.5h-70q-4 0 -4 -4v-234q0 -4 4 -4h69q46 0 72.5 31z" />
    <glyph glyph-name="C" unicode="C" horiz-adv-x="452" 
d="M97.5 41.5q-49.5 49.5 -49.5 131.5v355q0 82 49.5 131t130.5 49q82 0 131.5 -49t49.5 -131v-16q0 -10 -10 -10l-76 -4q-10 0 -10 10v26q0 41 -23.5 66t-61.5 25t-61 -25t-23 -66v-368q0 -41 23 -66t61 -25t61.5 25t23.5 66v26q0 10 10 10l76 -4q10 0 10 -10v-15
q0 -82 -49.5 -131.5t-131.5 -49.5q-81 0 -130.5 49.5z" />
    <glyph glyph-name="D" unicode="D" horiz-adv-x="469" 
d="M62 10v680q0 10 10 10h164q83 0 132 -51t49 -138v-322q0 -87 -49 -138t-132 -51h-164q-10 0 -10 10zM162 83l73 1q38 0 61 29.5t24 80.5v312q0 51 -23 81t-62 30h-73q-4 0 -4 -4v-526q0 -4 4 -4z" />
    <glyph glyph-name="E" unicode="E" 
d="M387 617h-225q-4 0 -4 -4v-217q0 -4 4 -4h138q10 0 10 -10v-63q0 -10 -10 -10h-138q-4 0 -4 -4v-218q0 -4 4 -4h225q10 0 10 -10v-63q0 -10 -10 -10h-315q-10 0 -10 10v680q0 10 10 10h315q10 0 10 -10v-63q0 -10 -10 -10z" />
    <glyph glyph-name="F" unicode="F" horiz-adv-x="410" 
d="M386 617h-224q-4 0 -4 -4v-217q0 -4 4 -4h137q10 0 10 -10v-63q0 -10 -10 -10h-137q-4 0 -4 -4v-295q0 -10 -10 -10h-76q-10 0 -10 10v680q0 10 10 10h314q10 0 10 -10v-63q0 -10 -10 -10z" />
    <glyph glyph-name="G" unicode="G" horiz-adv-x="452" 
d="M97.5 40q-49.5 48 -49.5 127v366q0 79 49.5 127t130.5 48t131 -48t50 -128v-42q0 -10 -10 -10h-76q-10 0 -10 10v44q0 41 -23.5 66t-61.5 25t-61.5 -25t-23.5 -66v-368q0 -41 23.5 -66t61.5 -25t61.5 25t23.5 66v110q0 4 -4 4h-76q-10 0 -10 10v62q0 10 10 10h166
q10 0 10 -10v-185q0 -79 -50 -127t-131 -48t-130.5 48z" />
    <glyph glyph-name="H" unicode="H" horiz-adv-x="475" 
d="M327 700h76q10 0 10 -10v-680q0 -10 -10 -10h-76q-10 0 -10 10v295q0 4 -4 4h-151q-4 0 -4 -4v-295q0 -10 -10 -10h-76q-10 0 -10 10v680q0 10 10 10h76q10 0 10 -10v-294q0 -4 4 -4h151q4 0 4 4v294q0 10 10 10z" />
    <glyph glyph-name="I" unicode="I" horiz-adv-x="220" 
d="M62 10v680q0 10 10 10h76q10 0 10 -10v-680q0 -10 -10 -10h-76q-10 0 -10 10z" />
    <glyph glyph-name="J" unicode="J" horiz-adv-x="435" 
d="M67.5 40.5q-48.5 48.5 -48.5 127.5v79q0 10 10 10h76q10 0 10 -10v-81q0 -40 22.5 -65.5t58.5 -25.5t58.5 25.5t22.5 65.5v524q0 10 10 10h76q10 0 10 -10v-522q0 -79 -48.5 -127.5t-128.5 -48.5t-128.5 48.5z" />
    <glyph glyph-name="K" unicode="K" horiz-adv-x="466" 
d="M62 10v680q0 10 10 10h76q10 0 10 -10v-300q0 -3 2 -3.5t3 2.5l170 304q5 7 12 7h82q6 0 8 -3.5t-1 -8.5l-154 -278q-1 -3 0 -6l167 -392l1 -4q0 -8 -9 -8h-83q-8 0 -11 8l-130 312q-1 5 -5 1l-51 -81q-1 -1 -1 -5v-225q0 -10 -10 -10h-76q-10 0 -10 10z" />
    <glyph glyph-name="L" unicode="L" horiz-adv-x="407" 
d="M62 10v680q0 10 10 10h76q10 0 10 -10v-603q0 -4 4 -4h224q10 0 10 -10v-63q0 -10 -10 -10h-314q-10 0 -10 10z" />
    <glyph glyph-name="M" unicode="M" horiz-adv-x="528" 
d="M61 10v680q0 10 10 10h76q8 0 11 -8l102 -243q1 -2 3 -2t3 2l104 243q3 8 11 8h76q10 0 10 -10v-680q0 -10 -10 -10h-76q-10 0 -10 10v453q0 3 -1.5 3t-3.5 -2l-93 -198q-3 -7 -8 -7q-7 0 -10 7l-93 199q-2 2 -3.5 2t-1.5 -3v-454q0 -10 -10 -10h-76q-10 0 -10 10z" />
    <glyph glyph-name="N" unicode="N" horiz-adv-x="501" 
d="M63 10v680q0 10 10 10h77q8 0 11 -8l178 -441q1 -3 3 -2.5t2 3.5v438q0 10 10 10h75q10 0 10 -10v-680q0 -10 -10 -10h-78q-8 0 -11 8l-178 441q-1 3 -3 3t-2 -3l1 -439q0 -10 -10 -10h-75q-10 0 -10 10z" />
    <glyph glyph-name="O" unicode="O" horiz-adv-x="462" 
d="M98 42q-50 50 -50 133v349q0 83 50 133.5t132 50.5q83 0 133.5 -50.5t50.5 -133.5v-349q0 -83 -50.5 -133t-133.5 -50q-82 0 -132 50zM294 101.5q24 26.5 24 69.5v358q0 43 -24 69.5t-64 26.5q-39 0 -62.5 -26.5t-23.5 -69.5v-358q0 -43 23.5 -69.5t62.5 -26.5
q40 0 64 26.5z" />
    <glyph glyph-name="P" unicode="P" horiz-adv-x="451" 
d="M374.5 645.5q47.5 -55.5 47.5 -145.5q0 -88 -46 -142t-121 -54h-94q-4 0 -4 -4v-290q0 -10 -10 -10h-76q-10 0 -10 10v681q0 10 10 10h179q77 0 124.5 -55.5zM301 412.5q25 31.5 25 85.5q0 55 -25 87.5t-66 32.5h-74q-4 0 -4 -4v-229q0 -4 4 -4h74q41 0 66 31.5z" />
    <glyph glyph-name="Q" unicode="Q" horiz-adv-x="450" 
d="M353 656q49 -52 49 -136v-340q0 -69 -34 -117.5t-92 -63.5q-3 -2 -3 -5v-93q0 -10 -10 -10h-77q-10 0 -10 10v93q0 3 -3 5q-58 16 -91.5 64t-33.5 117v340q0 84 49 136t128 52t128 -52zM306 530q0 42 -22.5 68.5t-58.5 26.5t-58.5 -26.5t-22.5 -68.5v-360
q0 -42 22.5 -68.5t58.5 -26.5t58.5 26.5t22.5 68.5v360z" />
    <glyph glyph-name="R" unicode="R" horiz-adv-x="453" 
d="M328 8l-93 300q-1 3 -4 3h-69q-4 0 -4 -4v-297q0 -10 -10 -10h-76q-10 0 -10 10v681q0 10 10 10h179q51 0 90 -25t60.5 -70.5t21.5 -103.5q0 -63 -26.5 -109.5t-71.5 -66.5q-3 -3 -2 -6l103 -309l1 -4q0 -7 -9 -7h-78q-9 0 -12 8zM158 614v-224q0 -4 4 -4h74
q41 0 66 31.5t25 83.5q0 54 -25 85.5t-66 31.5h-74q-4 0 -4 -4z" />
    <glyph glyph-name="S" unicode="S" horiz-adv-x="434" 
d="M93.5 41.5q-48.5 49.5 -48.5 129.5v27q0 10 10 10h74q10 0 10 -10v-22q0 -46 23 -73.5t59 -27.5t59.5 26.5t23.5 69.5q0 29 -12.5 51t-33 39.5t-66.5 51.5q-51 38 -80 65t-49 65t-20 89q0 81 48 128.5t125 47.5q80 0 128.5 -51t48.5 -134v-25q0 -10 -10 -10h-74
q-10 0 -10 10v27q0 45 -23 72.5t-60 27.5q-35 0 -56.5 -24.5t-21.5 -68.5q0 -40 22 -67.5t84 -73.5q61 -45 91.5 -73t47 -61.5t16.5 -79.5q0 -84 -49.5 -134.5t-128.5 -50.5t-127.5 49.5z" />
    <glyph glyph-name="T" unicode="T" horiz-adv-x="439" 
d="M409 690v-63q0 -10 -10 -10h-131q-4 0 -4 -4v-603q0 -10 -10 -10h-76q-10 0 -10 10v603q0 4 -4 4h-124q-10 0 -10 10v63q0 10 10 10h359q10 0 10 -10z" />
    <glyph glyph-name="U" unicode="U" horiz-adv-x="477" 
d="M106.5 46.5q-49.5 54.5 -49.5 143.5v500q0 10 10 10h76q10 0 10 -10v-510q0 -47 23.5 -76t61.5 -29q39 0 62.5 29t23.5 76v510q0 10 10 10h76q10 0 10 -10v-500q0 -89 -50 -143.5t-132 -54.5t-131.5 54.5z" />
    <glyph glyph-name="V" unicode="V" horiz-adv-x="457" 
d="M175 9l-144 680v2q0 9 9 9h83q10 0 11 -9l95 -519q1 -2 2 -2t2 2l93 519q2 9 11 9h80q11 0 9 -11l-144 -680q-1 -9 -11 -9h-85q-9 0 -11 9z" />
    <glyph glyph-name="W" unicode="W" horiz-adv-x="646" 
d="M159 9l-133 680v2q0 9 9 9h79q10 0 11 -9l81 -469q1 -2 2 -2t2 2l72 469q1 9 10 9h67q9 0 10 -9l77 -469q1 -2 2 -2t2 2l74 469q2 9 10 9h78q5 0 7.5 -3t1.5 -8l-126 -680q-1 -9 -11 -9h-71q-8 0 -10 9l-76 473q-1 2 -2.5 2t-1.5 -2l-72 -473q-1 -9 -10 -9h-71
q-9 0 -11 9z" />
    <glyph glyph-name="X" unicode="X" horiz-adv-x="449" 
d="M34.5 3.5q-2.5 3.5 -0.5 8.5l139 335q2 3 0 6l-139 335l-1 4q0 8 9 8h78q8 0 11 -8l91 -241q1 -3 3 -3t3 3l90 241q3 8 11 8h78q5 0 7.5 -3.5t0.5 -8.5l-139 -336q-1 -3 0 -6l139 -334l1 -4q0 -8 -9 -8h-77q-8 0 -11 8l-91 240q-1 3 -3 3t-3 -3l-91 -240q-3 -8 -11 -8
h-78q-5 0 -7.5 3.5z" />
    <glyph glyph-name="Y" unicode="Y" horiz-adv-x="442" 
d="M173 11v286l-1 5l-139 387l-1 4q0 7 9 7h80q9 0 12 -8l85 -276q1 -2 3 -2t3 2l85 276q3 8 12 8h80q11 0 8 -11l-139 -387l-1 -5v-286q0 -10 -10 -10h-76q-10 0 -10 10z" />
    <glyph glyph-name="Z" unicode="Z" horiz-adv-x="401" 
d="M29 10v67q0 5 3 12l232 523q1 2 0 3.5t-3 1.5h-222q-10 0 -10 10v63q0 10 10 10h319q10 0 10 -10v-67q0 -4 -3 -12l-233 -523q-1 -2 0 -3.5t3 -1.5h223q10 0 10 -10v-63q0 -10 -10 -10h-319q-10 0 -10 10z" />
    <glyph glyph-name="bracketleft" unicode="[" horiz-adv-x="318" 
d="M27 -120v894q0 10 10 10h174q10 0 10 -10v-64q0 -10 -10 -10h-84q-4 0 -4 -4v-739q0 -4 4 -4h85q10 0 10 -10v-63q0 -10 -10 -10h-175q-10 0 -10 10z" />
    <glyph glyph-name="backslash" unicode="\" horiz-adv-x="334" 
d="M313 8q0 -8 -10 -8h-75q-8 0 -11 8l-195 681l-1 3q0 8 10 8h75q8 0 11 -8l195 -681z" />
    <glyph glyph-name="bracketright" unicode="]" horiz-adv-x="318" 
d="M281 -130h-175q-10 0 -10 10v63q0 10 10 10h85q4 0 4 4v739q0 4 -4 4h-84q-10 0 -10 10v64q0 10 10 10h174q10 0 10 -10v-894q0 -10 -10 -10z" />
    <glyph glyph-name="asciicircum" unicode="^" horiz-adv-x="406" 
d="M33 315l125 377q3 8 12 8h64q9 0 12 -8l127 -377l1 -4q0 -7 -9 -7h-62q-9 0 -12 8l-85 278q-1 2 -3 2t-3 -2l-86 -278q-3 -8 -12 -8h-61q-11 0 -8 11z" />
    <glyph glyph-name="underscore" unicode="_" horiz-adv-x="392" 
d="M19 10v55q0 10 10 10h334q10 0 10 -10v-55q0 -10 -10 -10h-334q-10 0 -10 10z" />
    <glyph glyph-name="grave" unicode="`" horiz-adv-x="203" 
d="M179 582q0 -6 -9 -6h-58q-8 0 -12 6l-73 109l-2 5q0 7 9 7h69q7 0 12 -7l62 -108q2 -4 2 -6z" />
    <glyph glyph-name="a" unicode="a" horiz-adv-x="423" 
d="M333.5 471q46.5 -46 46.5 -121v-340q0 -10 -10 -10h-76q-10 0 -10 10v22q0 2 -1.5 3t-3.5 -1q-35 -42 -103 -42q-57 0 -100.5 32.5t-43.5 115.5q0 87 52.5 127.5t137.5 40.5h58q4 0 4 4v29q0 42 -20 67.5t-52 25.5q-25 0 -42 -17t-20 -44q0 -10 -10 -10h-81q-10 0 -10 10
q5 64 51 104t114 40q73 0 119.5 -46zM258 98q26 22 26 62v68q0 4 -4 4h-61q-40 0 -64 -21.5t-24 -62.5q0 -36 18 -54t48 -18q35 0 61 22z" />
    <glyph glyph-name="b" unicode="b" horiz-adv-x="431" 
d="M351 474q37 -42 37 -116v-208q0 -72 -36.5 -115t-102.5 -43q-25 0 -51 10.5t-45 32.5q-2 2 -3.5 1t-1.5 -3v-23q0 -10 -10 -10h-76q-10 0 -10 10v680q0 10 10 10h76q10 0 10 -10v-215q0 -2 2 -2.5t4 2.5q19 22 44.5 31.5t50.5 9.5q65 0 102 -42zM272 411q-20 23 -52 23
t-51.5 -23t-19.5 -59v-196q0 -36 19.5 -58.5t51.5 -22.5t52 22.5t20 58.5v196q0 36 -20 59z" />
    <glyph glyph-name="c" unicode="c" horiz-adv-x="413" 
d="M88.5 35q-45.5 43 -45.5 116v207q0 71 45.5 115t122.5 44q51 0 89.5 -19.5t59 -53t20.5 -75.5v-13q0 -10 -10 -10l-76 -3q-10 0 -10 10v10q0 29 -21 50t-52 21q-32 0 -52 -23t-20 -59v-195q0 -36 20 -59t52 -23q31 0 52 21t21 50v10q0 10 10 10l76 -1q10 0 10 -10v-15
q0 -65 -46 -106.5t-123 -41.5t-122.5 43z" />
    <glyph glyph-name="d" unicode="d" horiz-adv-x="431" 
d="M293 700h76q10 0 10 -10v-680q0 -10 -10 -10h-76q-10 0 -10 10v23q0 2 -1.5 3t-3.5 -1q-19 -22 -45 -32.5t-51 -10.5q-66 0 -102.5 43t-36.5 115v208q0 74 37 116t102 42q26 0 51.5 -10.5t44.5 -32.5q2 -2 3.5 -1t1.5 3v215q0 10 10 10zM262.5 411q-19.5 23 -51.5 23
t-52 -23t-20 -59v-196q0 -36 20 -58.5t52 -22.5t51.5 22.5t19.5 58.5v196q0 36 -19.5 59z" />
    <glyph glyph-name="e" unicode="e" horiz-adv-x="417" 
d="M369 215h-226q-4 0 -4 -4v-54q0 -36 20 -59t52 -23q28 0 47 17t24 44q3 8 11 8l74 -4q5 0 7.5 -3t1.5 -7q-7 -65 -49.5 -101.5t-115.5 -36.5q-77 0 -122.5 43t-45.5 115v208q0 71 45.5 115t122.5 44q78 0 123 -44t45 -115v-133q0 -10 -10 -10zM159 411q-20 -23 -20 -59
v-53q0 -4 4 -4h137q4 0 4 4v53q0 36 -20 59t-53 23q-32 0 -52 -23z" />
    <glyph glyph-name="f" unicode="f" horiz-adv-x="284" 
d="M171 513q0 -4 4 -4h70q10 0 10 -10v-50q0 -10 -10 -10h-70q-4 0 -4 -4v-425q0 -10 -10 -10h-75q-10 0 -10 10v425q0 4 -4 4h-37q-10 0 -10 10v50q0 10 10 10h37q4 0 4 4v26q0 89 37 127.5t120 38.5h13q10 0 10 -10l-2 -61q0 -10 -10 -10h-10q-33 0 -48 -21.5t-15 -66.5
v-23z" />
    <glyph glyph-name="g" unicode="g" horiz-adv-x="423" 
d="M292 509h76q10 0 10 -10v-484q0 -105 -48 -162.5t-165 -57.5l-27 1q-10 1 -10 11v64q0 10 11 10q82 -3 112.5 32.5t30.5 110.5v21q0 2 -1.5 2.5t-3.5 -1.5q-34 -46 -97 -46q-66 0 -101.5 42.5t-35.5 115.5v200q0 74 36 116.5t101 42.5t97 -46q2 -2 3.5 -1t1.5 3v26
q0 10 10 10zM262.5 105.5q19.5 22.5 19.5 58.5v188q0 36 -19.5 59t-51.5 23t-52 -23t-20 -59v-188q0 -36 20 -58.5t52 -22.5t51.5 22.5z" />
    <glyph glyph-name="h" unicode="h" 
d="M351.5 473.5q33.5 -42.5 33.5 -120.5v-343q0 -10 -10 -10h-76q-10 0 -10 10v335q0 42 -18 65t-50 23q-35 0 -54 -24.5t-19 -67.5v-331q0 -10 -10 -10h-76q-10 0 -10 10v680q0 10 10 10h76q10 0 10 -10v-217q0 -2 2 -2.5t4 1.5q36 44 101 44q63 0 96.5 -42.5z" />
    <glyph glyph-name="i" unicode="i" horiz-adv-x="211" 
d="M62 602q-17 18 -17 46t17 45.5t44 17.5t43.5 -17.5t16.5 -45.5q0 -29 -16.5 -46.5t-43.5 -17.5t-44 18zM58 10v489q0 10 10 10h76q10 0 10 -10v-489q0 -10 -10 -10h-76q-10 0 -10 10z" />
    <glyph glyph-name="j" unicode="j" horiz-adv-x="201" 
d="M57 603q-17 18 -17 46q0 26 18 44.5t42 18.5q25 0 43.5 -18t18.5 -45q0 -28 -17 -46t-45 -18q-26 0 -43 18zM-39 -197v63q0 10 10 10q81 1 81 96v527q0 10 10 10h76q10 0 10 -10v-527q0 -62 -12.5 -99.5t-50.5 -58.5t-111 -21q-13 0 -13 10z" />
    <glyph glyph-name="k" unicode="k" horiz-adv-x="421" 
d="M52 10v680q0 10 10 10h76q10 0 10 -10v-379q0 -3 2 -4t3 2l129 194q5 6 12 6h78q6 0 8 -3.5t-1 -8.5l-103 -152q-3 -3 -1 -6l120 -328l1 -4q0 -7 -9 -7h-79q-9 0 -12 8l-80 251q-1 6 -6 1l-60 -87q-2 -2 -2 -5v-158q0 -10 -10 -10h-76q-10 0 -10 10z" />
    <glyph glyph-name="l" unicode="l" horiz-adv-x="191" 
d="M48 10v680q0 10 10 10h76q10 0 10 -10v-680q0 -10 -10 -10h-76q-10 0 -10 10z" />
    <glyph glyph-name="m" unicode="m" horiz-adv-x="657" 
d="M575.5 471.5q33.5 -44.5 33.5 -124.5v-337q0 -10 -10 -10h-75q-10 0 -10 10v330q0 44 -18 68.5t-48 24.5q-32 0 -51 -24.5t-19 -67.5v-331q0 -10 -10 -10h-75q-10 0 -10 10v330q0 44 -18 68.5t-48 24.5q-32 0 -51 -24.5t-19 -67.5v-331q0 -10 -10 -10h-75q-10 0 -10 10
v489q0 10 10 10h75q10 0 10 -10v-25q0 -2 1.5 -3t3.5 1q20 22 46 33t52 11q76 0 109 -67q1 -2 3 -1.5t3 4.5q20 34 51 49t64 15q62 0 95.5 -44.5z" />
    <glyph glyph-name="n" unicode="n" 
d="M351.5 473.5q33.5 -42.5 33.5 -120.5v-343q0 -10 -10 -10h-76q-10 0 -10 10v335q0 42 -18 65t-50 23q-35 0 -54 -24.5t-19 -67.5v-331q0 -10 -10 -10h-76q-10 0 -10 10v489q0 10 10 10h76q10 0 10 -10v-26q0 -2 2 -2.5t4 1.5q36 44 101 44q63 0 96.5 -42.5z" />
    <glyph glyph-name="o" unicode="o" horiz-adv-x="424" 
d="M88.5 35q-45.5 43 -45.5 115v208q0 71 46 115t123 44q78 0 123.5 -44t45.5 -115v-208q0 -72 -45.5 -115t-123.5 -43t-123.5 43zM264.5 98.5q20.5 22.5 20.5 58.5v195q0 36 -20.5 59t-52.5 23t-52.5 -23t-20.5 -59v-195q0 -36 20.5 -58.5t52.5 -22.5t52.5 22.5z" />
    <glyph glyph-name="p" unicode="p" horiz-adv-x="435" 
d="M356.5 474q36.5 -43 36.5 -115v-208q0 -74 -37 -116t-102 -42q-26 0 -51.5 10.5t-44.5 32.5q-2 2 -3.5 1t-1.5 -3v-215q0 -10 -10 -10h-76q-10 0 -10 10v680q0 10 10 10h76q10 0 10 -10v-23q0 -2 2 -2.5t4 2.5q19 21 44 31t51 10q66 0 102.5 -43zM277 411.5
q-20 22.5 -52 22.5t-51.5 -22.5t-19.5 -58.5v-196q0 -36 19.5 -59t51.5 -23t52 23t20 59v196q0 36 -20 58.5z" />
    <glyph glyph-name="q" unicode="q" horiz-adv-x="435" 
d="M293 509h76q10 0 10 -10v-680q0 -10 -10 -10h-76q-10 0 -10 10v215q0 2 -1.5 3t-3.5 -1q-19 -22 -44.5 -32.5t-51.5 -10.5q-65 0 -102 42t-37 116v208q0 72 36.5 115t102.5 43q25 0 51 -10.5t45 -32.5q2 -2 3.5 -1t1.5 3v23q0 10 10 10zM262.5 411.5
q-19.5 22.5 -51.5 22.5t-52 -22.5t-20 -58.5v-196q0 -36 20 -59t52 -23t51.5 23t19.5 59v196q0 36 -19.5 58.5z" />
    <glyph glyph-name="r" unicode="r" horiz-adv-x="304" 
d="M288 503q7 -4 5 -13l-15 -76q-1 -9 -12 -6q-13 5 -30 5q-11 0 -16 -1q-31 -4 -51.5 -35t-20.5 -75v-292q0 -10 -10 -10h-76q-10 0 -10 10v489q0 10 10 10h76q10 0 10 -10v-58q0 -3 1.5 -3.5t2.5 2.5q29 74 93 74q25 0 43 -11z" />
    <glyph glyph-name="s" unicode="s" horiz-adv-x="387" 
d="M78.5 30.5q-43.5 36.5 -43.5 98.5v9q0 10 10 10h71q10 0 10 -8v-9q0 -27 21 -45.5t52 -18.5q30 0 48.5 18t18.5 46q0 22 -13 37t-30.5 23.5t-53.5 23.5q-39 17 -64.5 33t-45.5 46t-20 76q0 68 42.5 106t114.5 38q74 0 116.5 -39t42.5 -106v-3q0 -10 -10 -10h-69
q-4 0 -7 2.5t-3 6.5v8q0 27 -19 46t-49 19q-31 0 -49 -19t-18 -46q0 -21 12 -35t29 -22.5t54 -24.5q41 -18 68 -34.5t47.5 -46.5t20.5 -75q0 -65 -44.5 -103t-120.5 -38q-75 0 -118.5 36.5z" />
    <glyph glyph-name="t" unicode="t" horiz-adv-x="275" 
d="M241 439h-70q-4 0 -4 -4v-281q0 -40 14 -55.5t44 -14.5h9q10 0 10 -10v-64q0 -10 -10 -10h-31q-64 0 -96.5 25t-32.5 95v315q0 4 -4 4h-39q-10 0 -10 10v50q0 10 10 10h39q4 0 4 4v113q0 10 10 10h73q10 0 10 -10v-113q0 -4 4 -4h70q10 0 10 -10v-50q0 -10 -10 -10z" />
    <glyph glyph-name="u" unicode="u" 
d="M293 509h76q10 0 10 -10v-489q0 -10 -10 -10h-76q-10 0 -10 10v29q0 3 -1.5 3t-3.5 -2q-30 -47 -96 -47q-60 0 -97 36.5t-37 111.5v358q0 10 10 10h76q10 0 10 -10v-337q0 -86 68 -86q34 0 52.5 24.5t18.5 67.5v331q0 10 10 10z" />
    <glyph glyph-name="v" unicode="v" horiz-adv-x="399" 
d="M145 9l-123 489l-1 4q0 7 9 7h85q10 0 11 -9l72 -356q1 -3 2 -3t2 3l71 356q2 9 11 9l85 -1q5 0 7.5 -3t0.5 -8l-122 -488q-1 -9 -11 -9h-88q-9 0 -11 9z" />
    <glyph glyph-name="w" unicode="w" horiz-adv-x="575" 
d="M128 9l-107 489v2q0 9 9 9h73q10 0 11 -9l62 -358q1 -2 2 -2t2 2l63 358q2 9 11 9h66q10 0 11 -9l65 -358q1 -2 2 -2t2 2l63 358q2 9 11 9l71 -1q11 0 9 -11l-107 -488q-1 -9 -11 -9h-74q-9 0 -11 9l-64 329q-1 2 -2 2t-2 -2l-61 -329q-1 -9 -11 -9h-72q-9 0 -11 9z" />
    <glyph glyph-name="x" unicode="x" horiz-adv-x="398" 
d="M20 3.5q-2 3.5 0 8.5l121 239q2 3 0 6l-121 240q-1 2 -1 5q0 7 8 7h84q9 0 12 -7l73 -156q1 -2 3 -2t3 2l74 156q3 7 12 7h83q5 0 7 -3.5t0 -8.5l-120 -240q-1 -3 0 -6l120 -239q1 -2 1 -5q0 -7 -8 -7h-83q-9 0 -12 7l-74 158q-1 2 -3 2t-3 -2l-74 -158q-3 -7 -11 -7h-84
q-5 0 -7 3.5z" />
    <glyph glyph-name="y" unicode="y" horiz-adv-x="387" 
d="M38 -197q-2 3 -2 7v61q0 10 5 10h5q32 0 50.5 9.5t30 34t19.5 72.5l-1 5l-128 496l-1 3q0 8 10 8h82q10 0 11 -9l73 -361q1 -3 2 -3t2 3l72 361q2 9 11 9l83 -1q5 0 7.5 -3t0.5 -8l-137 -532q-19 -69 -38 -103t-52.5 -48t-95.5 -14h-5q-2 0 -4 3z" />
    <glyph glyph-name="z" unicode="z" horiz-adv-x="365" 
d="M28 10v70q0 7 3 13l187 323q1 2 0 3.5t-3 1.5h-173q-10 0 -10 10v68q0 10 10 10h283q10 0 10 -10v-71q0 -7 -3 -13l-192 -323q-1 -2 0 -3.5t3 -1.5h185q10 0 10 -10v-67q0 -10 -10 -10h-290q-10 0 -10 10z" />
    <glyph glyph-name="braceleft" unicode="{" horiz-adv-x="298" 
d="M90 -13v213q0 42 -13.5 63.5t-40.5 26.5q-9 2 -9 11v57q0 10 9 11q54 9 54 89v208q0 118 108 118h64q10 0 10 -10v-64q0 -10 -10 -10h-24q-25 0 -38.5 -18t-13.5 -52v-182q0 -46 -12.5 -74t-38.5 -42q-5 -2 0 -5q51 -27 51 -116v-187q0 -34 13.5 -52.5t38.5 -18.5h24
q10 0 10 -10v-63q0 -10 -10 -10h-64q-108 0 -108 117z" />
    <glyph glyph-name="bar" unicode="|" horiz-adv-x="159" 
d="M31 -70v820q0 10 10 10h76q10 0 10 -10v-820q0 -10 -10 -10h-76q-10 0 -10 10z" />
    <glyph glyph-name="braceright" unicode="}" horiz-adv-x="298" 
d="M36 -130q-10 0 -10 10v63q0 10 10 10h24q25 0 38.5 18.5t13.5 52.5v187q0 89 51 116q5 3 0 5q-26 14 -38.5 42t-12.5 74v182q0 34 -13.5 52t-38.5 18h-24q-10 0 -10 10v64q0 10 10 10h64q108 0 108 -118v-208q0 -80 54 -89q9 -1 9 -11v-57q0 -9 -9 -11
q-27 -5 -40.5 -26.5t-13.5 -63.5v-213q0 -117 -108 -117h-64z" />
    <glyph glyph-name="asciitilde" unicode="~" horiz-adv-x="471" 
d="M277.5 229q-18.5 8 -45.5 24q-5 3 -19.5 11t-27 12t-24.5 4q-42 0 -69 -39q-5 -10 -14 -4l-41 25q-8 5 -5 14q16 39 48 63.5t73 24.5q23 0 42 -7t38 -19q28 -17 45 -25t39 -8q19 0 32.5 10t26.5 29q6 8 14 3l44 -27q8 -5 4 -11l-2 -4q-48 -84 -114 -84q-26 0 -44.5 8z
" />
    <glyph glyph-name="uni00A0" unicode="&#xa0;" horiz-adv-x="200" 
 />
    <glyph glyph-name="exclamdown" unicode="&#xa1;" horiz-adv-x="265" 
d="M178 688q19 -20 19 -49q0 -28 -20 -48.5t-46 -20.5q-25 0 -45 20.5t-20 48.5q0 29 18.5 49t46.5 20t47 -20zM104 479h57q10 0 10 -10l10 -448q0 -10 -10 -10h-76q-10 0 -10 10l9 448q0 10 10 10z" />
    <glyph glyph-name="cent" unicode="&#xa2;" horiz-adv-x="413" 
d="M370 436l-76 -3q-10 0 -10 10v10q0 29 -21 50t-52 21q-32 0 -52 -23t-20 -59v-195q0 -36 20 -59t52 -23q31 0 52 21t21 50v10q0 10 10 10l76 -1q10 0 10 -10v-15q0 -56 -34 -94.5t-92 -49.5q-4 -1 -4 -5l2 -70q0 -10 -10 -10h-62q-10 0 -10 10l2 70q0 4 -4 5
q-58 11 -91.5 52t-33.5 103v207q0 60 33.5 101.5t91.5 53.5q4 1 4 5l-2 70q0 10 10 10h62q10 0 10 -10l-2 -70q0 -4 4 -5q58 -11 92 -50.5t34 -93.5v-13q0 -10 -10 -10z" />
    <glyph glyph-name="sterling" unicode="&#xa3;" horiz-adv-x="508" 
d="M200 83h269q10 0 10 -10v-63q0 -10 -10 -10h-368q-10 0 -10 10v65q0 7 6 13q17 16 26.5 44.5t9.5 66.5v98q0 4 -4 4h-57q-10 0 -10 10v58q0 10 10 10h57q4 0 4 4v121q0 96 47 150t128 54q64 0 105 -37.5t57 -109.5v-2q0 -7 -8 -9l-72 -10h-2q-8 0 -10 9
q-10 39 -27.5 57.5t-44.5 18.5q-39 0 -59 -30t-20 -87v-125q0 -4 4 -4h141q10 0 10 -10v-58q0 -10 -10 -10h-141q-4 0 -4 -4v-96q0 -37 -8 -66t-21 -47q-3 -5 2 -5z" />
    <glyph glyph-name="currency" unicode="&#xa4;" horiz-adv-x="531" 
d="M436 192q-2 -3 1 -6l66 -66q3 -3 3 -6q0 -4 -4 -8l-47 -41q-3 -3 -6 -3q-4 0 -8 4l-63 62q-3 3 -6 1q-47 -32 -110 -32q-60 0 -106 29q-3 2 -6 -1l-60 -59q-7 -7 -14 -1l-47 41q-7 8 -1 14l62 61q3 3 1 6q-36 52 -36 115q0 60 32 110q2 3 -1 6l-65 65q-3 3 -3 6q0 4 4 8
l48 42q3 3 6 3q4 0 8 -4l61 -61q3 -3 6 -1q51 32 111 32q63 0 114 -35q3 -2 6 1l65 64q8 8 14 1l48 -42q8 -7 1 -14l-70 -69q-3 -3 -1 -6q30 -49 30 -106q0 -61 -33 -110zM174.5 215q36.5 -36 87.5 -36t87 35.5t37 87.5q-1 51 -37.5 87t-86.5 36q-51 0 -87.5 -36t-36.5 -87
t36.5 -87z" />
    <glyph glyph-name="yen" unicode="&#xa5;" horiz-adv-x="526" 
d="M448 689l-124 -345q-1 -2 0 -3.5t3 -1.5h115q10 0 10 -10v-36q0 -10 -10 -10h-130q-4 0 -4 -4v-58q0 -4 4 -4h130q10 0 10 -10v-36q0 -10 -10 -10h-130q-4 0 -4 -4v-146q0 -10 -10 -10h-76q-10 0 -10 10v146q0 4 -4 4h-127q-10 0 -10 10v36q0 10 10 10h127q4 0 4 4v58
q0 4 -4 4h-127q-10 0 -10 10v36q0 10 10 10h112q2 0 3 1.5t0 3.5l-124 345l-1 4q0 7 9 7h80q9 0 12 -8l85 -276q1 -2 3 -2t3 2l85 276q3 8 12 8h80q11 0 8 -11z" />
    <glyph glyph-name="brokenbar" unicode="&#xa6;" horiz-adv-x="159" 
d="M31 395v355q0 10 10 10h76q10 0 10 -10v-355q0 -10 -10 -10h-76q-10 0 -10 10zM31 -70v349q0 10 10 10h76q10 0 10 -10v-349q0 -10 -10 -10h-76q-10 0 -10 10z" />
    <glyph glyph-name="section" unicode="&#xa7;" horiz-adv-x="412" 
d="M93.5 -160.5q-44.5 44.5 -44.5 115.5v16q0 10 10 10h76q10 0 10 -10v-10q1 -37 19 -60t46 -23q30 0 48.5 23.5t18.5 57.5q0 29 -16 50t-37.5 34t-56.5 30q-42 20 -67.5 40.5t-39.5 53.5q-14 36 -14 79q0 50 25 93q23 39 59 54q5 2 0 5q-39 25 -61.5 62.5t-22.5 87.5
q0 70 45.5 115t117.5 45t116 -45.5t45 -118.5v-13q0 -10 -10 -10h-77q-10 0 -10 10v9q0 37 -18 61t-47 24t-47 -24t-18 -60q0 -40 23 -64.5t74 -47.5q45 -22 69 -37t41 -41q27 -39 27 -93q0 -53 -20 -91q-22 -45 -64 -63q-6 -2 -1 -5q38 -24 59.5 -59t21.5 -85
q0 -71 -45.5 -115.5t-117.5 -44.5t-116.5 44.5zM270 195q12 26 12 56q0 35 -18 62q-9 13 -23.5 21t-30.5 8q-20 0 -35 -11.5t-22 -27.5q-11 -22 -11 -54q0 -31 12 -55q17 -37 58 -37q40 0 58 38z" />
    <glyph glyph-name="dieresis" unicode="&#xa8;" horiz-adv-x="288" 
d="M34.5 600.5q-15.5 15.5 -15.5 39.5t15.5 39.5t38.5 15.5q22 0 36.5 -15.5t14.5 -39.5t-14.5 -39.5t-36.5 -15.5q-23 0 -38.5 15.5zM178.5 600.5q-14.5 15.5 -14.5 39.5t14.5 39.5t38.5 15.5q23 0 37.5 -15.5t14.5 -39.5t-14.5 -39.5t-37.5 -15.5q-24 0 -38.5 15.5z" />
    <glyph glyph-name="copyright" unicode="&#xa9;" horiz-adv-x="819" 
d="M225 39.5q-83 47.5 -130 129.5t-47 182t47 181.5t130 128.5t184 47q102 0 184.5 -47t130 -128.5t47.5 -181.5t-47.5 -182t-130 -129.5t-184.5 -47.5q-101 0 -184 47.5zM564.5 88q69.5 40 109 109.5t39.5 153.5t-39.5 153t-109 108.5t-155.5 39.5t-155.5 -39.5
t-109 -108.5t-39.5 -153t39.5 -153.5t109 -109.5t155.5 -40t155.5 40zM344 204q-25 23 -25 63v162q0 39 24.5 62t66.5 23t67 -23t25 -62v-4q0 -10 -10 -10l-34 -2q-10 0 -10 10v10q0 15 -10.5 25t-27.5 10q-16 0 -26.5 -10t-10.5 -25v-170q0 -16 10 -25.5t27 -9.5t27.5 9.5
t10.5 25.5v10q0 10 10 10l34 -2q10 0 10 -7v-7q0 -39 -25 -62.5t-67 -23.5q-41 0 -66 23z" />
    <glyph glyph-name="ordfeminine" unicode="&#xaa;" horiz-adv-x="279" 
d="M179 564q4 0 4 4v24q0 28 -12.5 44t-35.5 16q-15 0 -27.5 -9.5t-16.5 -24.5q-1 -9 -11 -9l-45 2q-4 0 -7 3t-2 8q5 38 35 62t74 24q52 0 82 -29.5t30 -79.5v-222q0 -10 -10 -10h-44q-10 0 -10 10v8q0 2 -1.5 3t-3.5 -1q-22 -25 -63 -25q-39 0 -68 21.5t-29 77.5t32 79.5
t90 23.5h39zM166.5 429q16.5 14 16.5 39v40q0 4 -4 4h-38q-26 0 -42 -13.5t-16 -38.5q0 -23 12 -34t32 -11q23 0 39.5 14zM25 319h221q10 0 10 -10v-38q0 -10 -10 -10h-221q-10 0 -10 10v38q0 10 10 10z" />
    <glyph glyph-name="guillemotleft" unicode="&#xab;" horiz-adv-x="467" 
d="M247 113q0 -6 -9 -6h-70q-7 0 -12 7l-96 160q-2 3 -2 7t2 7l96 160q5 7 12 7h70q6 0 8 -3.5t-1 -8.5l-96 -159q-1 -3 0 -6l96 -159q2 -4 2 -6zM400 113q0 -6 -9 -6h-70q-7 0 -12 7l-96 160q-2 3 -2 7t2 7l96 160q5 7 12 7h70q6 0 8 -3.5t-1 -8.5l-96 -159q-1 -3 0 -6
l96 -159q2 -4 2 -6z" />
    <glyph glyph-name="logicalnot" unicode="&#xac;" horiz-adv-x="440" 
d="M411 341v-58v-6l-1 -2v-93q0 -10 -10 -10h-54q-10 0 -10 10v91q0 4 -4 4h-293q-10 0 -10 10v54q0 10 10 10h362q10 0 10 -10z" />
    <glyph glyph-name="uni00AD" unicode="&#xad;" horiz-adv-x="320" 
d="M29 274v63q0 10 10 10h242q10 0 10 -10v-63q0 -10 -10 -10h-242q-10 0 -10 10z" />
    <glyph glyph-name="registered" unicode="&#xae;" horiz-adv-x="436" 
d="M318.5 686.5q45.5 -25.5 72 -70t26.5 -98.5q0 -56 -26.5 -102t-72 -72t-100.5 -26t-100.5 26t-72 72t-26.5 102q0 54 26.5 98.5t72 70t100.5 25.5t100.5 -25.5zM297 380.5q36 20.5 56.5 57t20.5 80.5q0 42 -20.5 77t-56.5 55t-79 20t-79 -20t-56.5 -55t-20.5 -77
q0 -44 20.5 -80.5t56.5 -57t79 -20.5t79 20.5zM258 505q-3 -3 -2 -6l25 -62q1 -2 1 -5q0 -7 -8 -7h-19q-9 0 -12 8l-23 63q-1 3 -4 3h-12q-4 0 -4 -4v-60q0 -10 -10 -10h-16q-10 0 -10 10v161q0 10 10 10h56q24 0 39 -15.5t15 -39.5q0 -33 -26 -46zM200 571v-41q0 -4 4 -4
h20q11 0 17.5 7t6.5 17q0 12 -6.5 18.5t-17.5 6.5h-20q-4 0 -4 -4z" />
    <glyph glyph-name="macron" unicode="&#xaf;" horiz-adv-x="436" 
d="M113 600v48q0 10 10 10h188q10 0 10 -10v-48q0 -10 -10 -10h-188q-10 0 -10 10z" />
    <glyph glyph-name="degree" unicode="&#xb0;" horiz-adv-x="358" 
d="M98.5 504.5q-36.5 21.5 -58 59t-21.5 82.5t21.5 82t58 58.5t80.5 21.5t80.5 -21.5t58 -58.5t21.5 -82t-21.5 -82.5t-58 -59t-80.5 -21.5t-80.5 21.5zM246 577q27 28 27 69t-27 69.5t-67 28.5q-39 0 -66.5 -28.5t-27.5 -69.5q0 -40 27.5 -68.5t66.5 -28.5q40 0 67 28z" />
    <glyph glyph-name="plusminus" unicode="&#xb1;" horiz-adv-x="440" 
d="M411 391v-54q0 -10 -10 -10h-140q-4 0 -4 -4v-140q0 -10 -10 -10h-54q-10 0 -10 10v140q0 4 -4 4h-140q-10 0 -10 10v54q0 10 10 10h140q4 0 4 4v140q0 10 10 10h54q10 0 10 -10v-140q0 -4 4 -4h140q10 0 10 -10zM29 32v54q0 10 10 10h362q10 0 10 -10v-54q0 -10 -10 -10
h-362q-10 0 -10 10z" />
    <glyph glyph-name="uni00B2" unicode="&#xb2;" horiz-adv-x="252" 
d="M19 443v39q0 8 4 13q72 100 107 155q34 57 34 97q0 26 -11 40t-30 14q-17 0 -28 -14t-11 -37v-21q0 -10 -10 -10h-46q-10 0 -10 10v23q1 49 30 77.5t77 28.5t76.5 -29t28.5 -85q0 -54 -34 -116q-21 -37 -73 -115q-2 -3 -5.5 -8t-7.5 -11q-1 -2 0 -3.5t3 -1.5h116
q10 0 10 -10v-36q0 -10 -10 -10h-200q-10 0 -10 10z" />
    <glyph glyph-name="uni00B3" unicode="&#xb3;" horiz-adv-x="270" 
d="M240 563q0 -31 -6 -54q-1 -1 -1 -4q-6 -36 -32.5 -57t-66.5 -21q-45 0 -73.5 26.5t-32.5 68.5q-2 20 -2 31q0 10 10 10h44q10 0 10 -10q0 -6 2 -20q2 -23 13 -36t29 -13q29 0 39 35q6 24 6 50q0 27 -4 46q-8 40 -41 40q-4 0 -12 -2l-4 -2q-7 -3 -11 2l-22 22q-6 6 -1 14
l75 103q2 2 1 3.5t-3 1.5h-116q-10 0 -10 10v35q0 10 10 10h186q10 0 10 -10v-38q0 -8 -4 -13l-64 -89q-2 -3 1 -5q26 -5 43 -28.5t22 -56.5q5 -25 5 -49z" />
    <glyph glyph-name="acute" unicode="&#xb4;" horiz-adv-x="203" 
d="M25 579.5q-2 3.5 1 8.5l62 108q5 7 12 7h69q6 0 8 -3.5t-1 -8.5l-73 -109q-4 -6 -12 -6h-58q-6 0 -8 3.5z" />
    <glyph glyph-name="uni00B5" unicode="&#xb5;" horiz-adv-x="437" 
d="M298 509h76q10 0 10 -10v-489q0 -10 -10 -10h-76q-10 0 -10 10v29q0 3 -1.5 3t-3.5 -2q-30 -47 -96 -47q-18 0 -35 3q-1 1 -2.5 -0.5t-1.5 -3.5v-182q0 -10 -10 -10h-76q-10 0 -10 10v689q0 10 10 10h77q10 0 10 -10v-337q0 -86 68 -86q34 0 52.5 24.5t18.5 67.5v331
q0 10 10 10z" />
    <glyph glyph-name="paragraph" unicode="&#xb6;" horiz-adv-x="486" 
d="M414 700q10 0 10 -10v-880q0 -10 -10 -10h-61q-10 0 -10 10v807q0 4 -4 4h-68q-4 0 -4 -4v-807q0 -10 -10 -10h-61q-10 0 -10 10v437q0 4 -4 5q-70 10 -111.5 71.5t-41.5 151.5q0 64 22 115t63 80.5t95 29.5h205z" />
    <glyph glyph-name="periodcentered" unicode="&#xb7;" horiz-adv-x="131" 
d="M18.5 20q-18.5 20 -18.5 50q0 28 20 48t45 20q26 0 46 -20t20 -48q0 -29 -19 -49.5t-47 -20.5t-46.5 20z" />
    <glyph glyph-name="cedilla" unicode="&#xb8;" horiz-adv-x="132" 
d="M5 -171l5 32q1 9 12 7q4 -1 10 -1q16 0 26 10.5t10 32.5q0 37 -41 78q-3 3 -3 7q0 5 8 5h41q7 0 10 -3l4 -4q45 -42 45 -97q0 -15 -2 -23q-7 -33 -29.5 -46.5t-51.5 -13.5q-16 0 -36 4q-9 3 -8 12z" />
    <glyph glyph-name="uni00B9" unicode="&#xb9;" horiz-adv-x="149" 
d="M65 853h48q10 0 10 -10v-400q0 -10 -10 -10h-45q-10 0 -10 10v346q0 2 -1.5 3.5t-2.5 0.5l-20 -5l-4 -1q-7 0 -7 9v29q0 7 7 12l22 13q5 3 13 3z" />
    <glyph glyph-name="ordmasculine" unicode="&#xba;" horiz-adv-x="285" 
d="M59 389.5q-30 28.5 -30 77.5v136q0 47 30.5 76t82.5 29t82.5 -29t30.5 -76v-136q0 -49 -30.5 -77.5t-82.5 -28.5q-53 0 -83 28.5zM176 432.5q14 15.5 14 38.5v127q0 23 -14 38.5t-34 15.5q-21 0 -35 -15.5t-14 -38.5v-127q0 -23 14 -38.5t35 -15.5q20 0 34 15.5zM21 271
v38q0 10 10 10h221q10 0 10 -10v-38q0 -10 -10 -10h-221q-10 0 -10 10z" />
    <glyph glyph-name="guillemotright" unicode="&#xbb;" horiz-adv-x="467" 
d="M68 110.5q-2 3.5 1 8.5l96 159q2 3 0 6l-96 159q-2 4 -2 6q0 6 9 6h70q7 0 12 -7l96 -160q2 -3 2 -7t-2 -7l-96 -160q-5 -7 -12 -7h-70q-6 0 -8 3.5zM221 110.5q-2 3.5 1 8.5l96 159q2 3 0 6l-96 159q-2 4 -2 6q0 6 9 6h70q7 0 12 -7l96 -160q2 -3 2 -7t-2 -7l-96 -160
q-5 -7 -12 -7h-70q-6 0 -8 3.5z" />
    <glyph glyph-name="onequarter" unicode="&#xbc;" horiz-adv-x="681" 
d="M65 700h48q10 0 10 -10v-400q0 -10 -10 -10h-45q-10 0 -10 10v346q0 2 -1.5 3.5t-2.5 0.5l-20 -5l-4 -1q-7 0 -7 9v29q0 7 7 12l22 13q5 3 13 3zM65 3.5q-2 3.5 1 8.5l424 681q5 7 12 7h49q6 0 8 -3.5t-1 -8.5l-424 -681q-5 -7 -12 -7h-49q-6 0 -8 3.5zM671 159v-39
q0 -10 -10 -10h-14q-4 0 -4 -4v-96q0 -10 -10 -10h-45q-10 0 -10 10v96q0 4 -4 4h-137q-10 0 -10 10v33q0 4 2 12l82 247q3 8 12 8h48q11 0 8 -11l-76 -235q-1 -2 0.5 -3.5t3.5 -1.5h67q4 0 4 4v71q0 10 10 10h45q10 0 10 -10v-71q0 -4 4 -4h14q10 0 10 -10z" />
    <glyph glyph-name="onehalf" unicode="&#xbd;" horiz-adv-x="674" 
d="M65 700h48q10 0 10 -10v-400q0 -10 -10 -10h-45q-10 0 -10 10v346q0 2 -1.5 3.5t-2.5 0.5l-20 -5l-4 -1q-7 0 -7 9v29q0 7 7 12l22 13q5 3 13 3zM65 3.5q-2 3.5 1 8.5l424 681q5 7 12 7h49q6 0 8 -3.5t-1 -8.5l-424 -681q-5 -7 -12 -7h-49q-6 0 -8 3.5zM441 10v39
q0 8 4 13q72 100 107 155q34 57 34 97q0 26 -11 40t-30 14q-17 0 -28 -14t-11 -37v-21q0 -10 -10 -10h-46q-10 0 -10 10v23q1 49 30 77.5t77 28.5t76.5 -29t28.5 -85q0 -54 -34 -116q-21 -37 -73 -115q-2 -3 -5.5 -8t-7.5 -11q-1 -2 0 -3.5t3 -1.5h116q10 0 10 -10v-36
q0 -10 -10 -10h-200q-10 0 -10 10z" />
    <glyph glyph-name="threequarters" unicode="&#xbe;" horiz-adv-x="753" 
d="M240 409q0 -31 -6 -54q-1 -1 -1 -4q-6 -36 -32.5 -57t-66.5 -21q-45 0 -73.5 26.5t-32.5 68.5q-2 20 -2 31q0 10 10 10h44q10 0 10 -10q0 -6 2 -20q2 -23 13 -36t29 -13q29 0 39 35q6 24 6 50q0 27 -4 46q-8 40 -41 40q-4 0 -12 -2l-4 -2q-7 -3 -11 2l-22 22q-6 6 -1 14
l75 103q2 2 1 3.5t-3 1.5h-116q-10 0 -10 10v35q0 10 10 10h186q10 0 10 -10v-38q0 -8 -4 -13l-64 -89q-2 -3 1 -5q26 -5 43 -28.5t22 -56.5q5 -25 5 -49zM137 3.5q-2 3.5 1 8.5l424 681q5 7 12 7h49q6 0 8 -3.5t-1 -8.5l-424 -681q-5 -7 -12 -7h-49q-6 0 -8 3.5zM743 159
v-39q0 -10 -10 -10h-14q-4 0 -4 -4v-96q0 -10 -10 -10h-45q-10 0 -10 10v96q0 4 -4 4h-137q-10 0 -10 10v33q0 4 2 12l82 247q3 8 12 8h48q11 0 8 -11l-76 -235q-1 -2 0.5 -3.5t3.5 -1.5h67q4 0 4 4v71q0 10 10 10h45q10 0 10 -10v-71q0 -4 4 -4h14q10 0 10 -10z" />
    <glyph glyph-name="questiondown" unicode="&#xbf;" horiz-adv-x="394" 
d="M249.5 480q17.5 -19 17.5 -46t-18 -46t-43 -19q-24 0 -42.5 19t-18.5 46t18 46t44 19q25 0 42.5 -19zM259 282v-50q0 -45 -18 -74t-53 -62q-32 -30 -48.5 -55.5t-16.5 -64.5q0 -45 20 -71.5t53 -26.5q36 0 57 27.5t21 72.5v26q0 10 10 10l76 -4q10 0 10 -10v-22
q0 -84 -48.5 -135.5t-127.5 -51.5q-76 0 -122 49.5t-46 132.5q0 44 12 76t28.5 52t42.5 45q28 26 41 45t13 46v45q0 10 10 10h76q10 0 10 -10z" />
    <glyph glyph-name="Agrave" unicode="&#xc0;" horiz-adv-x="471" 
d="M343 9l-22 115q0 2 -1.5 3t-3.5 1h-161q-2 0 -3.5 -1t-1.5 -3l-23 -115q-1 -9 -11 -9h-76q-5 0 -7.5 3t-1.5 8l149 680q2 9 11 9h88q10 0 11 -9l151 -680v-2q0 -9 -9 -9h-78q-9 0 -11 9zM170 204h132q3 0 3 4l-66 342q-1 3 -2 3t-2 -3l-68 -342q0 -4 3 -4zM272 773
q0 -6 -9 -6h-58q-8 0 -12 6l-73 109l-2 5q0 7 9 7h69q7 0 12 -7l62 -108q2 -4 2 -6z" />
    <glyph glyph-name="Aacute" unicode="&#xc1;" horiz-adv-x="471" 
d="M343 9l-22 115q0 2 -1.5 3t-3.5 1h-161q-2 0 -3.5 -1t-1.5 -3l-23 -115q-1 -9 -11 -9h-76q-5 0 -7.5 3t-1.5 8l149 680q2 9 11 9h88q10 0 11 -9l151 -680v-2q0 -9 -9 -9h-78q-9 0 -11 9zM170 204h132q3 0 3 4l-66 342q-1 3 -2 3t-2 -3l-68 -342q0 -4 3 -4zM181 770.5
q-2 3.5 1 8.5l62 108q5 7 12 7h69q6 0 8 -3.5t-1 -8.5l-73 -109q-4 -6 -12 -6h-58q-6 0 -8 3.5z" />
    <glyph glyph-name="Acircumflex" unicode="&#xc2;" horiz-adv-x="471" 
d="M343 9l-22 115q0 2 -1.5 3t-3.5 1h-161q-2 0 -3.5 -1t-1.5 -3l-23 -115q-1 -9 -11 -9h-76q-5 0 -7.5 3t-1.5 8l149 680q2 9 11 9h88q10 0 11 -9l151 -680v-2q0 -9 -9 -9h-78q-9 0 -11 9zM170 204h132q3 0 3 4l-66 342q-1 3 -2 3t-2 -3l-68 -342q0 -4 3 -4zM113.5 764.5
q-1.5 3.5 1.5 8.5l67 105q5 7 12 7h81q7 0 12 -7l69 -105q2 -4 2 -6q0 -6 -8 -6h-61q-7 0 -12 7l-39 69q-1 2 -3 2t-3 -2l-39 -69q-5 -7 -12 -7h-60q-6 0 -7.5 3.5z" />
    <glyph glyph-name="Atilde" unicode="&#xc3;" horiz-adv-x="471" 
d="M343 9l-22 115q0 2 -1.5 3t-3.5 1h-161q-2 0 -3.5 -1t-1.5 -3l-23 -115q-1 -9 -11 -9h-76q-5 0 -7.5 3t-1.5 8l149 680q2 9 11 9h88q10 0 11 -9l151 -680v-2q0 -9 -9 -9h-78q-9 0 -11 9zM170 204h132q3 0 3 4l-66 342q-1 3 -2 3t-2 -3l-68 -342q0 -4 3 -4zM274.5 785
q-11.5 5 -29.5 15q-5 3 -13.5 9t-15 8.5t-14.5 2.5q-13 0 -23 -5.5t-19 -20.5q-2 -4 -6 -5t-8 2l-28 20q-7 6 -4 13q14 30 35 45t46 15q16 0 30 -6t30 -17q4 -2 12 -8t16 -9t16 -3q12 0 22 5.5t19 20.5q4 9 14 3l27 -18q4 -3 4 -9q0 -4 -3 -10q-15 -28 -38 -40.5t-45 -12.5
q-13 0 -24.5 5z" />
    <glyph glyph-name="Adieresis" unicode="&#xc4;" horiz-adv-x="471" 
d="M343 9l-22 115q0 2 -1.5 3t-3.5 1h-161q-2 0 -3.5 -1t-1.5 -3l-23 -115q-1 -9 -11 -9h-76q-5 0 -7.5 3t-1.5 8l149 680q2 9 11 9h88q10 0 11 -9l151 -680v-2q0 -9 -9 -9h-78q-9 0 -11 9zM170 204h132q3 0 3 4l-66 342q-1 3 -2 3t-2 -3l-68 -342q0 -4 3 -4zM127.5 791.5
q-15.5 15.5 -15.5 39.5t15.5 39.5t38.5 15.5q22 0 36.5 -15.5t14.5 -39.5t-14.5 -39.5t-36.5 -15.5q-23 0 -38.5 15.5zM271.5 791.5q-14.5 15.5 -14.5 39.5t14.5 39.5t38.5 15.5q23 0 37.5 -15.5t14.5 -39.5t-14.5 -39.5t-37.5 -15.5q-24 0 -38.5 15.5z" />
    <glyph glyph-name="Aring" unicode="&#xc5;" horiz-adv-x="471" 
d="M343 9l-22 115q0 2 -1.5 3t-3.5 1h-161q-2 0 -3.5 -1t-1.5 -3l-23 -115q-1 -9 -11 -9h-76q-5 0 -7.5 3t-1.5 8l149 680q2 9 11 9h88q10 0 11 -9l151 -680v-2q0 -9 -9 -9h-78q-9 0 -11 9zM170 204h132q3 0 3 4l-66 342q-1 3 -2 3t-2 -3l-68 -342q0 -4 3 -4zM162.5 790
q-30.5 31 -30.5 75t30.5 75t73.5 31q44 0 74.5 -31t30.5 -75t-30.5 -75t-74.5 -31q-43 0 -73.5 31zM276 824q17 17 17 41q0 25 -16.5 42t-40.5 17q-23 0 -39.5 -17t-16.5 -42q0 -24 16.5 -41t39.5 -17t40 17z" />
    <glyph glyph-name="AE" unicode="&#xc6;" horiz-adv-x="737" 
d="M691 617h-224q-4 0 -4 -4v-217q0 -4 4 -4h137q10 0 10 -10v-63q0 -10 -10 -10h-137q-4 0 -4 -4v-218q0 -4 4 -4h224q10 0 10 -10v-63q0 -10 -10 -10h-315q-10 0 -10 10v114q0 4 -4 4h-177q-2 0 -4 -3l-49 -117q-3 -8 -11 -8h-79q-5 0 -7.5 3.5t-0.5 8.5l292 680q3 8 11 8
h354q10 0 10 -10v-63q0 -10 -10 -10zM216 205.5q1 -1.5 3 -1.5h143q4 0 4 4l1 354q0 3 -2 3t-3 -2l-146 -354q-1 -2 0 -3.5z" />
    <glyph glyph-name="Ccedilla" unicode="&#xc7;" horiz-adv-x="452" 
d="M399 502l-76 -4q-10 0 -10 10v26q0 41 -23.5 66t-61.5 25t-61 -25t-23 -66v-368q0 -41 23 -66t61 -25t61.5 25t23.5 66v26q0 10 10 10l76 -4q10 0 10 -10v-15q0 -72 -38.5 -119.5t-104.5 -58.5q-5 -2 -2 -5q40 -40 40 -92q0 -46 -24 -64.5t-59 -18.5q-16 0 -36 4
q-9 3 -8 12l5 32q1 9 12 7q4 -1 10 -1q14 0 23.5 8t11.5 24q1 4 1 11q0 20 -12 40.5t-32 39.5q-1 2 -5 2q-66 11 -104.5 59t-38.5 120v355q0 82 49.5 131t130.5 49q82 0 131.5 -49t49.5 -131v-16q0 -10 -10 -10z" />
    <glyph glyph-name="Egrave" unicode="&#xc8;" 
d="M387 617h-225q-4 0 -4 -4v-217q0 -4 4 -4h138q10 0 10 -10v-63q0 -10 -10 -10h-138q-4 0 -4 -4v-218q0 -4 4 -4h225q10 0 10 -10v-63q0 -10 -10 -10h-315q-10 0 -10 10v680q0 10 10 10h315q10 0 10 -10v-63q0 -10 -10 -10zM266 784q0 -6 -9 -6h-58q-8 0 -12 6l-73 109
l-2 5q0 7 9 7h69q7 0 12 -7l62 -108q2 -4 2 -6z" />
    <glyph glyph-name="Eacute" unicode="&#xc9;" 
d="M387 617h-225q-4 0 -4 -4v-217q0 -4 4 -4h138q10 0 10 -10v-63q0 -10 -10 -10h-138q-4 0 -4 -4v-218q0 -4 4 -4h225q10 0 10 -10v-63q0 -10 -10 -10h-315q-10 0 -10 10v680q0 10 10 10h315q10 0 10 -10v-63q0 -10 -10 -10zM175 781.5q-2 3.5 1 8.5l62 108q5 7 12 7h69
q6 0 8 -3.5t-1 -8.5l-73 -109q-4 -6 -12 -6h-58q-6 0 -8 3.5z" />
    <glyph glyph-name="Ecircumflex" unicode="&#xca;" 
d="M387 617h-225q-4 0 -4 -4v-217q0 -4 4 -4h138q10 0 10 -10v-63q0 -10 -10 -10h-138q-4 0 -4 -4v-218q0 -4 4 -4h225q10 0 10 -10v-63q0 -10 -10 -10h-315q-10 0 -10 10v680q0 10 10 10h315q10 0 10 -10v-63q0 -10 -10 -10zM107.5 775.5q-1.5 3.5 1.5 8.5l67 105q5 7 12 7
h81q7 0 12 -7l69 -105q2 -4 2 -6q0 -6 -8 -6h-61q-7 0 -12 7l-39 69q-1 2 -3 2t-3 -2l-39 -69q-5 -7 -12 -7h-60q-6 0 -7.5 3.5z" />
    <glyph glyph-name="Edieresis" unicode="&#xcb;" 
d="M387 617h-225q-4 0 -4 -4v-217q0 -4 4 -4h138q10 0 10 -10v-63q0 -10 -10 -10h-138q-4 0 -4 -4v-218q0 -4 4 -4h225q10 0 10 -10v-63q0 -10 -10 -10h-315q-10 0 -10 10v680q0 10 10 10h315q10 0 10 -10v-63q0 -10 -10 -10zM121.5 802.5q-15.5 15.5 -15.5 39.5t15.5 39.5
t38.5 15.5q22 0 36.5 -15.5t14.5 -39.5t-14.5 -39.5t-36.5 -15.5q-23 0 -38.5 15.5zM265.5 802.5q-14.5 15.5 -14.5 39.5t14.5 39.5t38.5 15.5q23 0 37.5 -15.5t14.5 -39.5t-14.5 -39.5t-37.5 -15.5q-24 0 -38.5 15.5z" />
    <glyph glyph-name="Igrave" unicode="&#xcc;" horiz-adv-x="220" 
d="M62 10v680q0 10 10 10h76q10 0 10 -10v-680q0 -10 -10 -10h-76q-10 0 -10 10zM146 784q0 -6 -9 -6h-58q-8 0 -12 6l-73 109l-2 5q0 7 9 7h69q7 0 12 -7l62 -108q2 -4 2 -6z" />
    <glyph glyph-name="Iacute" unicode="&#xcd;" horiz-adv-x="220" 
d="M62 10v680q0 10 10 10h76q10 0 10 -10v-680q0 -10 -10 -10h-76q-10 0 -10 10zM55 781.5q-2 3.5 1 8.5l62 108q5 7 12 7h69q6 0 8 -3.5t-1 -8.5l-73 -109q-4 -6 -12 -6h-58q-6 0 -8 3.5z" />
    <glyph glyph-name="Icircumflex" unicode="&#xce;" horiz-adv-x="220" 
d="M62 10v680q0 10 10 10h76q10 0 10 -10v-680q0 -10 -10 -10h-76q-10 0 -10 10zM-12.5 775.5q-1.5 3.5 1.5 8.5l67 105q5 7 12 7h81q7 0 12 -7l69 -105q2 -4 2 -6q0 -6 -8 -6h-61q-7 0 -12 7l-39 69q-1 2 -3 2t-3 -2l-39 -69q-5 -7 -12 -7h-60q-6 0 -7.5 3.5z" />
    <glyph glyph-name="Idieresis" unicode="&#xcf;" horiz-adv-x="220" 
d="M62 10v680q0 10 10 10h76q10 0 10 -10v-680q0 -10 -10 -10h-76q-10 0 -10 10zM1.5 802.5q-15.5 15.5 -15.5 39.5t15.5 39.5t38.5 15.5q22 0 36.5 -15.5t14.5 -39.5t-14.5 -39.5t-36.5 -15.5q-23 0 -38.5 15.5zM145.5 802.5q-14.5 15.5 -14.5 39.5t14.5 39.5t38.5 15.5
q23 0 37.5 -15.5t14.5 -39.5t-14.5 -39.5t-37.5 -15.5q-24 0 -38.5 15.5z" />
    <glyph glyph-name="Eth" unicode="&#xd0;" horiz-adv-x="508" 
d="M407 649q49 -51 49 -138v-322q0 -87 -49 -138t-132 -51h-164q-10 0 -10 10v323q0 4 -4 4h-25q-10 0 -10 10v38q0 10 10 10h25q4 0 4 4v291q0 10 10 10h164q83 0 132 -51zM359 506q0 51 -23 81t-62 30h-73q-4 0 -4 -4v-214q0 -4 4 -4h63q10 0 10 -10v-38q0 -10 -10 -10
h-63q-4 0 -4 -4v-246q0 -4 4 -4l73 1q38 0 61 29.5t24 80.5v312z" />
    <glyph glyph-name="Ntilde" unicode="&#xd1;" horiz-adv-x="501" 
d="M63 10v680q0 10 10 10h77q8 0 11 -8l178 -441q1 -3 3 -2.5t2 3.5v438q0 10 10 10h75q10 0 10 -10v-680q0 -10 -10 -10h-78q-8 0 -11 8l-178 441q-1 3 -3 3t-2 -3l1 -439q0 -10 -10 -10h-75q-10 0 -10 10zM288.5 797q-11.5 5 -29.5 15q-5 3 -13.5 9t-15 8.5t-14.5 2.5
q-13 0 -23 -5.5t-19 -20.5q-2 -4 -6 -5t-8 2l-28 20q-7 6 -4 13q14 30 35 45t46 15q16 0 30 -6t30 -17q4 -2 12 -8t16 -9t16 -3q12 0 22 5.5t19 20.5q4 9 14 3l27 -18q4 -3 4 -9q0 -4 -3 -10q-15 -28 -38 -40.5t-45 -12.5q-13 0 -24.5 5z" />
    <glyph glyph-name="Ograve" unicode="&#xd2;" horiz-adv-x="462" 
d="M98 42q-50 50 -50 133v349q0 83 50 133.5t132 50.5q83 0 133.5 -50.5t50.5 -133.5v-349q0 -83 -50.5 -133t-133.5 -50q-82 0 -132 50zM294 101.5q24 26.5 24 69.5v358q0 43 -24 69.5t-64 26.5q-39 0 -62.5 -26.5t-23.5 -69.5v-358q0 -43 23.5 -69.5t62.5 -26.5
q40 0 64 26.5zM266 776q0 -6 -9 -6h-58q-8 0 -12 6l-73 109l-2 5q0 7 9 7h69q7 0 12 -7l62 -108q2 -4 2 -6z" />
    <glyph glyph-name="Oacute" unicode="&#xd3;" horiz-adv-x="462" 
d="M98 42q-50 50 -50 133v349q0 83 50 133.5t132 50.5q83 0 133.5 -50.5t50.5 -133.5v-349q0 -83 -50.5 -133t-133.5 -50q-82 0 -132 50zM294 101.5q24 26.5 24 69.5v358q0 43 -24 69.5t-64 26.5q-39 0 -62.5 -26.5t-23.5 -69.5v-358q0 -43 23.5 -69.5t62.5 -26.5
q40 0 64 26.5zM175 773.5q-2 3.5 1 8.5l62 108q5 7 12 7h69q6 0 8 -3.5t-1 -8.5l-73 -109q-4 -6 -12 -6h-58q-6 0 -8 3.5z" />
    <glyph glyph-name="Ocircumflex" unicode="&#xd4;" horiz-adv-x="462" 
d="M98 42q-50 50 -50 133v349q0 83 50 133.5t132 50.5q83 0 133.5 -50.5t50.5 -133.5v-349q0 -83 -50.5 -133t-133.5 -50q-82 0 -132 50zM294 101.5q24 26.5 24 69.5v358q0 43 -24 69.5t-64 26.5q-39 0 -62.5 -26.5t-23.5 -69.5v-358q0 -43 23.5 -69.5t62.5 -26.5
q40 0 64 26.5zM107.5 767.5q-1.5 3.5 1.5 8.5l67 105q5 7 12 7h81q7 0 12 -7l69 -105q2 -4 2 -6q0 -6 -8 -6h-61q-7 0 -12 7l-39 69q-1 2 -3 2t-3 -2l-39 -69q-5 -7 -12 -7h-60q-6 0 -7.5 3.5z" />
    <glyph glyph-name="Otilde" unicode="&#xd5;" horiz-adv-x="462" 
d="M98 42q-50 50 -50 133v349q0 83 50 133.5t132 50.5q83 0 133.5 -50.5t50.5 -133.5v-349q0 -83 -50.5 -133t-133.5 -50q-82 0 -132 50zM294 101.5q24 26.5 24 69.5v358q0 43 -24 69.5t-64 26.5q-39 0 -62.5 -26.5t-23.5 -69.5v-358q0 -43 23.5 -69.5t62.5 -26.5
q40 0 64 26.5zM268.5 788q-11.5 5 -29.5 15q-5 3 -13.5 9t-15 8.5t-14.5 2.5q-13 0 -23 -5.5t-19 -20.5q-2 -4 -6 -5t-8 2l-28 20q-7 6 -4 13q14 30 35 45t46 15q16 0 30 -6t30 -17q4 -2 12 -8t16 -9t16 -3q12 0 22 5.5t19 20.5q4 9 14 3l27 -18q4 -3 4 -9q0 -4 -3 -10
q-15 -28 -38 -40.5t-45 -12.5q-13 0 -24.5 5z" />
    <glyph glyph-name="Odieresis" unicode="&#xd6;" horiz-adv-x="462" 
d="M98 42q-50 50 -50 133v349q0 83 50 133.5t132 50.5q83 0 133.5 -50.5t50.5 -133.5v-349q0 -83 -50.5 -133t-133.5 -50q-82 0 -132 50zM294 101.5q24 26.5 24 69.5v358q0 43 -24 69.5t-64 26.5q-39 0 -62.5 -26.5t-23.5 -69.5v-358q0 -43 23.5 -69.5t62.5 -26.5
q40 0 64 26.5zM121.5 794.5q-15.5 15.5 -15.5 39.5t15.5 39.5t38.5 15.5q22 0 36.5 -15.5t14.5 -39.5t-14.5 -39.5t-36.5 -15.5q-23 0 -38.5 15.5zM265.5 794.5q-14.5 15.5 -14.5 39.5t14.5 39.5t38.5 15.5q23 0 37.5 -15.5t14.5 -39.5t-14.5 -39.5t-37.5 -15.5
q-24 0 -38.5 15.5z" />
    <glyph glyph-name="multiply" unicode="&#xd7;" horiz-adv-x="380" 
d="M347 420q0 -4 -3 -7l-99 -99q-3 -3 0 -6l99 -99q3 -3 3 -7t-3 -7l-38 -38q-3 -3 -7 -3t-7 3l-99 99q-3 3 -6 0l-99 -99q-3 -3 -7 -3t-7 3l-38 38q-3 3 -3 7t3 7l99 99q3 3 0 6l-99 99q-3 3 -3 7t3 7l38 38q3 3 7 3t7 -3l99 -99q3 -3 6 0l99 99q3 3 7 3t7 -3l38 -38
q3 -3 3 -7z" />
    <glyph glyph-name="Oslash" unicode="&#xd8;" horiz-adv-x="501" 
d="M447.5 744.5q2.5 -3.5 0.5 -8.5l-49 -113q-1 -3 0 -6q22 -38 22 -93v-349q0 -83 -50.5 -133t-133.5 -50q-55 0 -93 22q-5 2 -6 -2l-20 -47q-3 -8 -11 -8h-46q-5 0 -7.5 3.5t-0.5 8.5l37 86q1 2 -1 6q-34 45 -34 114v349q0 83 50 133.5t132 50.5q64 0 112 -32q4 -3 6 1
l27 63q3 8 11 8h47q5 0 7.5 -3.5zM151 211q0 -3 2 -3t3 2l156 367q2 3 0 6q-11 20 -30.5 31t-44.5 11q-39 0 -62.5 -26.5t-23.5 -69.5v-318zM325 436q0 3 -2 3t-3 -2l-143 -334q-1 -3 1 -5q23 -23 59 -23q40 0 64 26.5t24 69.5v265z" />
    <glyph glyph-name="Ugrave" unicode="&#xd9;" horiz-adv-x="477" 
d="M106.5 46.5q-49.5 54.5 -49.5 143.5v500q0 10 10 10h76q10 0 10 -10v-510q0 -47 23.5 -76t61.5 -29q39 0 62.5 29t23.5 76v510q0 10 10 10h76q10 0 10 -10v-500q0 -89 -50 -143.5t-132 -54.5t-131.5 54.5zM274 784q0 -6 -9 -6h-58q-8 0 -12 6l-73 109l-2 5q0 7 9 7h69
q7 0 12 -7l62 -108q2 -4 2 -6z" />
    <glyph glyph-name="Uacute" unicode="&#xda;" horiz-adv-x="477" 
d="M106.5 46.5q-49.5 54.5 -49.5 143.5v500q0 10 10 10h76q10 0 10 -10v-510q0 -47 23.5 -76t61.5 -29q39 0 62.5 29t23.5 76v510q0 10 10 10h76q10 0 10 -10v-500q0 -89 -50 -143.5t-132 -54.5t-131.5 54.5zM183 781.5q-2 3.5 1 8.5l62 108q5 7 12 7h69q6 0 8 -3.5t-1 -8.5
l-73 -109q-4 -6 -12 -6h-58q-6 0 -8 3.5z" />
    <glyph glyph-name="Ucircumflex" unicode="&#xdb;" horiz-adv-x="477" 
d="M106.5 46.5q-49.5 54.5 -49.5 143.5v500q0 10 10 10h76q10 0 10 -10v-510q0 -47 23.5 -76t61.5 -29q39 0 62.5 29t23.5 76v510q0 10 10 10h76q10 0 10 -10v-500q0 -89 -50 -143.5t-132 -54.5t-131.5 54.5zM115.5 775.5q-1.5 3.5 1.5 8.5l67 105q5 7 12 7h81q7 0 12 -7
l69 -105q2 -4 2 -6q0 -6 -8 -6h-61q-7 0 -12 7l-39 69q-1 2 -3 2t-3 -2l-39 -69q-5 -7 -12 -7h-60q-6 0 -7.5 3.5z" />
    <glyph glyph-name="Udieresis" unicode="&#xdc;" horiz-adv-x="477" 
d="M106.5 46.5q-49.5 54.5 -49.5 143.5v500q0 10 10 10h76q10 0 10 -10v-510q0 -47 23.5 -76t61.5 -29q39 0 62.5 29t23.5 76v510q0 10 10 10h76q10 0 10 -10v-500q0 -89 -50 -143.5t-132 -54.5t-131.5 54.5zM129.5 802.5q-15.5 15.5 -15.5 39.5t15.5 39.5t38.5 15.5
q22 0 36.5 -15.5t14.5 -39.5t-14.5 -39.5t-36.5 -15.5q-23 0 -38.5 15.5zM273.5 802.5q-14.5 15.5 -14.5 39.5t14.5 39.5t38.5 15.5q23 0 37.5 -15.5t14.5 -39.5t-14.5 -39.5t-37.5 -15.5q-24 0 -38.5 15.5z" />
    <glyph glyph-name="Yacute" unicode="&#xdd;" horiz-adv-x="442" 
d="M173 11v286l-1 5l-139 387l-1 4q0 7 9 7h80q9 0 12 -8l85 -276q1 -2 3 -2t3 2l85 276q3 8 12 8h80q11 0 8 -11l-139 -387l-1 -5v-286q0 -10 -10 -10h-76q-10 0 -10 10zM166 770.5q-2 3.5 1 8.5l62 108q5 7 12 7h69q6 0 8 -3.5t-1 -8.5l-73 -109q-4 -6 -12 -6h-58
q-6 0 -8 3.5z" />
    <glyph glyph-name="Thorn" unicode="&#xde;" horiz-adv-x="450" 
d="M339 524.5q39 -25.5 60.5 -71t21.5 -104.5q0 -88 -46 -142.5t-121 -54.5h-93q-4 0 -4 -4v-138q0 -10 -10 -10h-76q-10 0 -10 10v680q0 10 10 10h76q10 0 10 -10v-136q0 -4 4 -4h89q50 0 89 -25.5zM300.5 261q24.5 32 24.5 86q0 55 -24.5 87.5t-65.5 32.5h-74q-4 0 -4 -4
v-230q0 -4 4 -4h74q41 0 65.5 32z" />
    <glyph glyph-name="germandbls" unicode="&#xdf;" horiz-adv-x="441" 
d="M52 10v491q0 98 43.5 153t121.5 55q80 0 126.5 -51.5t46.5 -139.5q0 -52 -17.5 -87.5t-49.5 -54.5q-5 -3 0 -6q35 -20 55 -65t20 -107q0 -93 -48 -145.5t-136 -52.5h-20q-10 0 -10 10v62q0 10 10 10l21 1q43 1 66 33t23 92q0 59 -20.5 91.5t-57.5 34.5h-22q-10 0 -10 10
v56q0 10 10 10h21q33 0 51.5 26t18.5 73q0 55 -20 86t-57 31q-33 0 -51.5 -29t-18.5 -82v-505q0 -10 -10 -10h-76q-10 0 -10 10z" />
    <glyph glyph-name="agrave" unicode="&#xe0;" horiz-adv-x="423" 
d="M333.5 471q46.5 -46 46.5 -121v-340q0 -10 -10 -10h-76q-10 0 -10 10v22q0 2 -1.5 3t-3.5 -1q-35 -42 -103 -42q-57 0 -100.5 32.5t-43.5 115.5q0 87 52.5 127.5t137.5 40.5h58q4 0 4 4v29q0 42 -20 67.5t-52 25.5q-25 0 -42 -17t-20 -44q0 -10 -10 -10h-81q-10 0 -10 10
q5 64 51 104t114 40q73 0 119.5 -46zM258 98q26 22 26 62v68q0 4 -4 4h-61q-40 0 -64 -21.5t-24 -62.5q0 -36 18 -54t48 -18q35 0 61 22zM250 590q0 -6 -9 -6h-58q-8 0 -12 6l-73 109l-2 5q0 7 9 7h69q7 0 12 -7l62 -108q2 -4 2 -6z" />
    <glyph glyph-name="aacute" unicode="&#xe1;" horiz-adv-x="423" 
d="M333.5 471q46.5 -46 46.5 -121v-340q0 -10 -10 -10h-76q-10 0 -10 10v22q0 2 -1.5 3t-3.5 -1q-35 -42 -103 -42q-57 0 -100.5 32.5t-43.5 115.5q0 87 52.5 127.5t137.5 40.5h58q4 0 4 4v29q0 42 -20 67.5t-52 25.5q-25 0 -42 -17t-20 -44q0 -10 -10 -10h-81q-10 0 -10 10
q5 64 51 104t114 40q73 0 119.5 -46zM258 98q26 22 26 62v68q0 4 -4 4h-61q-40 0 -64 -21.5t-24 -62.5q0 -36 18 -54t48 -18q35 0 61 22zM159 587.5q-2 3.5 1 8.5l62 108q5 7 12 7h69q6 0 8 -3.5t-1 -8.5l-73 -109q-4 -6 -12 -6h-58q-6 0 -8 3.5z" />
    <glyph glyph-name="acircumflex" unicode="&#xe2;" horiz-adv-x="423" 
d="M333.5 471q46.5 -46 46.5 -121v-340q0 -10 -10 -10h-76q-10 0 -10 10v22q0 2 -1.5 3t-3.5 -1q-35 -42 -103 -42q-57 0 -100.5 32.5t-43.5 115.5q0 87 52.5 127.5t137.5 40.5h58q4 0 4 4v29q0 42 -20 67.5t-52 25.5q-25 0 -42 -17t-20 -44q0 -10 -10 -10h-81q-10 0 -10 10
q5 64 51 104t114 40q73 0 119.5 -46zM258 98q26 22 26 62v68q0 4 -4 4h-61q-40 0 -64 -21.5t-24 -62.5q0 -36 18 -54t48 -18q35 0 61 22zM91.5 581.5q-1.5 3.5 1.5 8.5l67 105q5 7 12 7h81q7 0 12 -7l69 -105q2 -4 2 -6q0 -6 -8 -6h-61q-7 0 -12 7l-39 69q-1 2 -3 2t-3 -2
l-39 -69q-5 -7 -12 -7h-60q-6 0 -7.5 3.5z" />
    <glyph glyph-name="atilde" unicode="&#xe3;" horiz-adv-x="423" 
d="M333.5 471q46.5 -46 46.5 -121v-340q0 -10 -10 -10h-76q-10 0 -10 10v22q0 2 -1.5 3t-3.5 -1q-35 -42 -103 -42q-57 0 -100.5 32.5t-43.5 115.5q0 87 52.5 127.5t137.5 40.5h58q4 0 4 4v29q0 42 -20 67.5t-52 25.5q-25 0 -42 -17t-20 -44q0 -10 -10 -10h-81q-10 0 -10 10
q5 64 51 104t114 40q73 0 119.5 -46zM258 98q26 22 26 62v68q0 4 -4 4h-61q-40 0 -64 -21.5t-24 -62.5q0 -36 18 -54t48 -18q35 0 61 22zM252.5 602q-11.5 5 -29.5 15q-5 3 -13.5 9t-15 8.5t-14.5 2.5q-13 0 -23 -5.5t-19 -20.5q-2 -4 -6 -5t-8 2l-28 20q-7 6 -4 13
q14 30 35 45t46 15q16 0 30 -6t30 -17q4 -2 12 -8t16 -9t16 -3q12 0 22 5.5t19 20.5q4 9 14 3l27 -18q4 -3 4 -9q0 -4 -3 -10q-15 -28 -38 -40.5t-45 -12.5q-13 0 -24.5 5z" />
    <glyph glyph-name="adieresis" unicode="&#xe4;" horiz-adv-x="423" 
d="M333.5 471q46.5 -46 46.5 -121v-340q0 -10 -10 -10h-76q-10 0 -10 10v22q0 2 -1.5 3t-3.5 -1q-35 -42 -103 -42q-57 0 -100.5 32.5t-43.5 115.5q0 87 52.5 127.5t137.5 40.5h58q4 0 4 4v29q0 42 -20 67.5t-52 25.5q-25 0 -42 -17t-20 -44q0 -10 -10 -10h-81q-10 0 -10 10
q5 64 51 104t114 40q73 0 119.5 -46zM258 98q26 22 26 62v68q0 4 -4 4h-61q-40 0 -64 -21.5t-24 -62.5q0 -36 18 -54t48 -18q35 0 61 22zM105.5 608.5q-15.5 15.5 -15.5 39.5t15.5 39.5t38.5 15.5q22 0 36.5 -15.5t14.5 -39.5t-14.5 -39.5t-36.5 -15.5q-23 0 -38.5 15.5z
M249.5 608.5q-14.5 15.5 -14.5 39.5t14.5 39.5t38.5 15.5q23 0 37.5 -15.5t14.5 -39.5t-14.5 -39.5t-37.5 -15.5q-24 0 -38.5 15.5z" />
    <glyph glyph-name="aring" unicode="&#xe5;" horiz-adv-x="423" 
d="M333.5 471q46.5 -46 46.5 -121v-340q0 -10 -10 -10h-76q-10 0 -10 10v22q0 2 -1.5 3t-3.5 -1q-35 -42 -103 -42q-57 0 -100.5 32.5t-43.5 115.5q0 87 52.5 127.5t137.5 40.5h58q4 0 4 4v29q0 42 -20 67.5t-52 25.5q-25 0 -42 -17t-20 -44q0 -10 -10 -10h-81q-10 0 -10 10
q5 64 51 104t114 40q73 0 119.5 -46zM258 98q26 22 26 62v68q0 4 -4 4h-61q-40 0 -64 -21.5t-24 -62.5q0 -36 18 -54t48 -18q35 0 61 22zM140.5 607q-30.5 31 -30.5 75t30.5 75t73.5 31q44 0 74.5 -31t30.5 -75t-30.5 -75t-74.5 -31q-43 0 -73.5 31zM254 641q17 17 17 41
q0 25 -16.5 42t-40.5 17q-23 0 -39.5 -17t-16.5 -42q0 -24 16.5 -41t39.5 -17t40 17z" />
    <glyph glyph-name="ae" unicode="&#xe6;" horiz-adv-x="662" 
d="M32 138q0 86 47 122.5t132 36.5h67q4 0 4 4v40q0 43 -19 68t-54 25q-28 0 -48.5 -17t-23.5 -43q-1 -10 -11 -10l-76 3q-10 0 -10 10q5 64 52 102t115 38q77 0 119 -62q3 -3 6 0q20 29 52.5 45.5t74.5 16.5q74 0 119.5 -44t45.5 -115v-132q0 -10 -10 -10h-227q-4 0 -4 -4
v-55q0 -32 20.5 -54t52.5 -22q26 0 45 16.5t26 41.5q3 9 11 8l74 -9q10 -2 9 -11q-8 -63 -49.5 -99t-108.5 -36q-49 0 -85.5 20.5t-47.5 47.5q-2 5 -3 2q-12 -30 -55 -50t-99 -20q-141 0 -141 146zM387 297h137q4 0 4 4v51q0 36 -20 59t-52 23t-52.5 -23t-20.5 -59v-51
q0 -4 4 -4zM256.5 90q25.5 21 25.5 57v64q0 4 -4 4h-61q-40 0 -64 -19.5t-24 -55.5q0 -35 19 -53t49 -18q34 0 59.5 21z" />
    <glyph glyph-name="ccedilla" unicode="&#xe7;" horiz-adv-x="413" 
d="M370 346l-76 -3q-10 0 -10 10v10q0 29 -21 50t-52 21q-32 0 -52 -23t-20 -59v-195q0 -36 20 -59t52 -23q31 0 52 21t21 50v10q0 10 10 10l76 -1q10 0 10 -10v-15q0 -56 -35 -95.5t-95 -49.5q-5 -2 -2 -5q39 -40 39 -92q0 -46 -24 -64.5t-59 -18.5q-16 0 -36 4q-9 3 -8 12
l5 32q1 9 12 7q4 -1 10 -1q16 0 26 10.5t10 31.5q0 40 -43 81q-1 2 -5 2q-62 10 -97 51.5t-35 105.5v207q0 71 45.5 115t122.5 44q51 0 89.5 -19.5t59 -53t20.5 -75.5v-13q0 -10 -10 -10z" />
    <glyph glyph-name="egrave" unicode="&#xe8;" horiz-adv-x="417" 
d="M369 215h-226q-4 0 -4 -4v-54q0 -36 20 -59t52 -23q28 0 47 17t24 44q3 8 11 8l74 -4q5 0 7.5 -3t1.5 -7q-7 -65 -49.5 -101.5t-115.5 -36.5q-77 0 -122.5 43t-45.5 115v208q0 71 45.5 115t122.5 44q78 0 123 -44t45 -115v-133q0 -10 -10 -10zM159 411q-20 -23 -20 -59
v-53q0 -4 4 -4h137q4 0 4 4v53q0 36 -20 59t-53 23q-32 0 -52 -23zM247 590q0 -6 -9 -6h-58q-8 0 -12 6l-73 109l-2 5q0 7 9 7h69q7 0 12 -7l62 -108q2 -4 2 -6z" />
    <glyph glyph-name="eacute" unicode="&#xe9;" horiz-adv-x="417" 
d="M369 215h-226q-4 0 -4 -4v-54q0 -36 20 -59t52 -23q28 0 47 17t24 44q3 8 11 8l74 -4q5 0 7.5 -3t1.5 -7q-7 -65 -49.5 -101.5t-115.5 -36.5q-77 0 -122.5 43t-45.5 115v208q0 71 45.5 115t122.5 44q78 0 123 -44t45 -115v-133q0 -10 -10 -10zM159 411q-20 -23 -20 -59
v-53q0 -4 4 -4h137q4 0 4 4v53q0 36 -20 59t-53 23q-32 0 -52 -23zM156 587.5q-2 3.5 1 8.5l62 108q5 7 12 7h69q6 0 8 -3.5t-1 -8.5l-73 -109q-4 -6 -12 -6h-58q-6 0 -8 3.5z" />
    <glyph glyph-name="ecircumflex" unicode="&#xea;" horiz-adv-x="417" 
d="M369 215h-226q-4 0 -4 -4v-54q0 -36 20 -59t52 -23q28 0 47 17t24 44q3 8 11 8l74 -4q5 0 7.5 -3t1.5 -7q-7 -65 -49.5 -101.5t-115.5 -36.5q-77 0 -122.5 43t-45.5 115v208q0 71 45.5 115t122.5 44q78 0 123 -44t45 -115v-133q0 -10 -10 -10zM159 411q-20 -23 -20 -59
v-53q0 -4 4 -4h137q4 0 4 4v53q0 36 -20 59t-53 23q-32 0 -52 -23zM88.5 581.5q-1.5 3.5 1.5 8.5l67 105q5 7 12 7h81q7 0 12 -7l69 -105q2 -4 2 -6q0 -6 -8 -6h-61q-7 0 -12 7l-39 69q-1 2 -3 2t-3 -2l-39 -69q-5 -7 -12 -7h-60q-6 0 -7.5 3.5z" />
    <glyph glyph-name="edieresis" unicode="&#xeb;" horiz-adv-x="417" 
d="M369 215h-226q-4 0 -4 -4v-54q0 -36 20 -59t52 -23q28 0 47 17t24 44q3 8 11 8l74 -4q5 0 7.5 -3t1.5 -7q-7 -65 -49.5 -101.5t-115.5 -36.5q-77 0 -122.5 43t-45.5 115v208q0 71 45.5 115t122.5 44q78 0 123 -44t45 -115v-133q0 -10 -10 -10zM159 411q-20 -23 -20 -59
v-53q0 -4 4 -4h137q4 0 4 4v53q0 36 -20 59t-53 23q-32 0 -52 -23zM102.5 608.5q-15.5 15.5 -15.5 39.5t15.5 39.5t38.5 15.5q22 0 36.5 -15.5t14.5 -39.5t-14.5 -39.5t-36.5 -15.5q-23 0 -38.5 15.5zM246.5 608.5q-14.5 15.5 -14.5 39.5t14.5 39.5t38.5 15.5
q23 0 37.5 -15.5t14.5 -39.5t-14.5 -39.5t-37.5 -15.5q-24 0 -38.5 15.5z" />
    <glyph glyph-name="igrave" unicode="&#xec;" horiz-adv-x="198" 
d="M50 10v489q0 10 10 10h76q10 0 10 -10v-489q0 -10 -10 -10h-76q-10 0 -10 10zM134 593q0 -6 -9 -6h-58q-8 0 -12 6l-73 109l-2 5q0 7 9 7h69q7 0 12 -7l62 -108q2 -4 2 -6z" />
    <glyph glyph-name="iacute" unicode="&#xed;" horiz-adv-x="198" 
d="M50 10v489q0 10 10 10h76q10 0 10 -10v-489q0 -10 -10 -10h-76q-10 0 -10 10zM43 590.5q-2 3.5 1 8.5l62 108q5 7 12 7h69q6 0 8 -3.5t-1 -8.5l-73 -109q-4 -6 -12 -6h-58q-6 0 -8 3.5z" />
    <glyph glyph-name="icircumflex" unicode="&#xee;" horiz-adv-x="198" 
d="M50 10v489q0 10 10 10h76q10 0 10 -10v-489q0 -10 -10 -10h-76q-10 0 -10 10zM-24.5 584.5q-1.5 3.5 1.5 8.5l67 105q5 7 12 7h81q7 0 12 -7l69 -105q2 -4 2 -6q0 -6 -8 -6h-61q-7 0 -12 7l-39 69q-1 2 -3 2t-3 -2l-39 -69q-5 -7 -12 -7h-60q-6 0 -7.5 3.5z" />
    <glyph glyph-name="idieresis" unicode="&#xef;" horiz-adv-x="198" 
d="M50 10v489q0 10 10 10h76q10 0 10 -10v-489q0 -10 -10 -10h-76q-10 0 -10 10zM-10.5 611.5q-15.5 15.5 -15.5 39.5t15.5 39.5t38.5 15.5q22 0 36.5 -15.5t14.5 -39.5t-14.5 -39.5t-36.5 -15.5q-23 0 -38.5 15.5zM133.5 611.5q-14.5 15.5 -14.5 39.5t14.5 39.5t38.5 15.5
q23 0 37.5 -15.5t14.5 -39.5t-14.5 -39.5t-37.5 -15.5q-24 0 -38.5 15.5z" />
    <glyph glyph-name="eth" unicode="&#xf0;" horiz-adv-x="438" 
d="M317 587q61 -109 64 -247v-30v-64v-95q0 -73 -45.5 -116t-123.5 -43t-123.5 43t-45.5 116v189q0 46 20 82.5t55.5 56.5t78.5 20q49 0 75 -29q4 -3 4 2q-10 46 -36 95q-2 4 -5 2l-76 -21l-4 -1q-6 0 -9 8l-6 24l-1 4q0 6 8 9l60 17q5 2 2 5q-19 31 -55 74q-2 2 -2 6
q0 2 2 4t6 2h71q7 0 13 -6q10 -14 16 -21l28 -38q2 -4 5 -2l81 23l4 1q6 0 8 -8l6 -26v-3q0 -7 -7 -10l-66 -18q-3 -2 -2 -5zM265 393q-20 23 -53 23q-32 0 -52.5 -23t-20.5 -59v-177q0 -36 20.5 -59t52.5 -23q33 0 53 23t20 59v177q0 36 -20 59z" />
    <glyph glyph-name="ntilde" unicode="&#xf1;" 
d="M169.5 627.5q-8.5 -5.5 -17.5 -19.5q-2 -4 -6 -5t-8 2l-24 19q-7 5 -4 13q12 30 31 45t42 15q14 0 26.5 -6t27.5 -17q4 -3 11.5 -8.5t14.5 -8.5t14 -3q22 0 36 25q7 10 14 4l24 -18q7 -5 4 -13q-14 -31 -35 -45t-43 -14q-12 0 -22.5 5t-26.5 15q-4 3 -11.5 9t-14 8.5
t-13.5 2.5q-11 0 -19.5 -5.5zM351.5 473.5q33.5 -42.5 33.5 -120.5v-343q0 -10 -10 -10h-76q-10 0 -10 10v335q0 42 -18 65t-50 23q-35 0 -54 -24.5t-19 -67.5v-331q0 -10 -10 -10h-76q-10 0 -10 10v489q0 10 10 10h76q10 0 10 -10v-26q0 -2 2 -2.5t4 1.5q36 44 101 44
q63 0 96.5 -42.5z" />
    <glyph glyph-name="ograve" unicode="&#xf2;" horiz-adv-x="424" 
d="M88.5 35q-45.5 43 -45.5 115v208q0 71 46 115t123 44q78 0 123.5 -44t45.5 -115v-208q0 -72 -45.5 -115t-123.5 -43t-123.5 43zM264.5 98.5q20.5 22.5 20.5 58.5v195q0 36 -20.5 59t-52.5 23t-52.5 -23t-20.5 -59v-195q0 -36 20.5 -58.5t52.5 -22.5t52.5 22.5zM248 590
q0 -6 -9 -6h-58q-8 0 -12 6l-73 109l-2 5q0 7 9 7h69q7 0 12 -7l62 -108q2 -4 2 -6z" />
    <glyph glyph-name="oacute" unicode="&#xf3;" horiz-adv-x="424" 
d="M88.5 35q-45.5 43 -45.5 115v208q0 71 46 115t123 44q78 0 123.5 -44t45.5 -115v-208q0 -72 -45.5 -115t-123.5 -43t-123.5 43zM264.5 98.5q20.5 22.5 20.5 58.5v195q0 36 -20.5 59t-52.5 23t-52.5 -23t-20.5 -59v-195q0 -36 20.5 -58.5t52.5 -22.5t52.5 22.5zM157 587.5
q-2 3.5 1 8.5l62 108q5 7 12 7h69q6 0 8 -3.5t-1 -8.5l-73 -109q-4 -6 -12 -6h-58q-6 0 -8 3.5z" />
    <glyph glyph-name="ocircumflex" unicode="&#xf4;" horiz-adv-x="424" 
d="M88.5 35q-45.5 43 -45.5 115v208q0 71 46 115t123 44q78 0 123.5 -44t45.5 -115v-208q0 -72 -45.5 -115t-123.5 -43t-123.5 43zM264.5 98.5q20.5 22.5 20.5 58.5v195q0 36 -20.5 59t-52.5 23t-52.5 -23t-20.5 -59v-195q0 -36 20.5 -58.5t52.5 -22.5t52.5 22.5z
M89.5 581.5q-1.5 3.5 1.5 8.5l67 105q5 7 12 7h81q7 0 12 -7l69 -105q2 -4 2 -6q0 -6 -8 -6h-61q-7 0 -12 7l-39 69q-1 2 -3 2t-3 -2l-39 -69q-5 -7 -12 -7h-60q-6 0 -7.5 3.5z" />
    <glyph glyph-name="otilde" unicode="&#xf5;" horiz-adv-x="424" 
d="M88.5 35q-45.5 43 -45.5 115v208q0 71 46 115t123 44q78 0 123.5 -44t45.5 -115v-208q0 -72 -45.5 -115t-123.5 -43t-123.5 43zM264.5 98.5q20.5 22.5 20.5 58.5v195q0 36 -20.5 59t-52.5 23t-52.5 -23t-20.5 -59v-195q0 -36 20.5 -58.5t52.5 -22.5t52.5 22.5zM250.5 602
q-11.5 5 -29.5 15q-5 3 -13.5 9t-15 8.5t-14.5 2.5q-13 0 -23 -5.5t-19 -20.5q-2 -4 -6 -5t-8 2l-28 20q-7 6 -4 13q14 30 35 45t46 15q16 0 30 -6t30 -17q4 -2 12 -8t16 -9t16 -3q12 0 22 5.5t19 20.5q4 9 14 3l27 -18q4 -3 4 -9q0 -4 -3 -10q-15 -28 -38 -40.5t-45 -12.5
q-13 0 -24.5 5z" />
    <glyph glyph-name="odieresis" unicode="&#xf6;" horiz-adv-x="424" 
d="M88.5 35q-45.5 43 -45.5 115v208q0 71 46 115t123 44q78 0 123.5 -44t45.5 -115v-208q0 -72 -45.5 -115t-123.5 -43t-123.5 43zM264.5 98.5q20.5 22.5 20.5 58.5v195q0 36 -20.5 59t-52.5 23t-52.5 -23t-20.5 -59v-195q0 -36 20.5 -58.5t52.5 -22.5t52.5 22.5z
M103.5 608.5q-15.5 15.5 -15.5 39.5t15.5 39.5t38.5 15.5q22 0 36.5 -15.5t14.5 -39.5t-14.5 -39.5t-36.5 -15.5q-23 0 -38.5 15.5zM247.5 608.5q-14.5 15.5 -14.5 39.5t14.5 39.5t38.5 15.5q23 0 37.5 -15.5t14.5 -39.5t-14.5 -39.5t-37.5 -15.5q-24 0 -38.5 15.5z" />
    <glyph glyph-name="divide" unicode="&#xf7;" horiz-adv-x="440" 
d="M179 438q-17 17 -17 41t17 41t41 17t41.5 -17t17.5 -41t-17.5 -41t-41.5 -17t-41 17zM29 293v54q0 10 10 10h362q10 0 10 -10v-54q0 -10 -10 -10h-362q-10 0 -10 10zM179 124q-17 17 -17 41q0 23 17 40.5t41 17.5q23 0 41 -17.5t18 -40.5q0 -24 -17.5 -41t-41.5 -17
t-41 17z" />
    <glyph glyph-name="oslash" unicode="&#xf8;" horiz-adv-x="448" 
d="M401 508q1 -4 -1 -8l-27 -51q-1 -3 0 -6q22 -34 22 -85v-208q0 -72 -45.5 -115t-123.5 -43q-49 0 -86 17q-5 2 -6 -1l-20 -38q-6 -10 -14 -4l-48 28q-4 2 -4.5 6t1.5 8l29 53q2 3 -1 6q-20 35 -20 83v208q0 71 46 115t123 44q47 0 83 -17q5 -2 6 1l19 37q2 4 6 5t8 -1
l48 -28q4 -2 5 -6zM154.5 208q1.5 0 3.5 2l110 206q1 4 -1 5q-16 13 -41 13q-32 0 -52.5 -23t-20.5 -59v-141q0 -3 1.5 -3zM297.5 306q-1.5 0 -3.5 -2l-112 -209q-1 -4 1 -5q19 -14 43 -14q32 0 52.5 22.5t20.5 58.5v146q0 3 -1.5 3z" />
    <glyph glyph-name="ugrave" unicode="&#xf9;" 
d="M293 509h76q10 0 10 -10v-489q0 -10 -10 -10h-76q-10 0 -10 10v29q0 3 -1.5 3t-3.5 -2q-30 -47 -96 -47q-60 0 -97 36.5t-37 111.5v358q0 10 10 10h76q10 0 10 -10v-337q0 -86 68 -86q34 0 52.5 24.5t18.5 67.5v331q0 10 10 10zM249 582q0 -6 -9 -6h-58q-8 0 -12 6
l-73 109l-2 5q0 7 9 7h69q7 0 12 -7l62 -108q2 -4 2 -6z" />
    <glyph glyph-name="uacute" unicode="&#xfa;" 
d="M293 509h76q10 0 10 -10v-489q0 -10 -10 -10h-76q-10 0 -10 10v29q0 3 -1.5 3t-3.5 -2q-30 -47 -96 -47q-60 0 -97 36.5t-37 111.5v358q0 10 10 10h76q10 0 10 -10v-337q0 -86 68 -86q34 0 52.5 24.5t18.5 67.5v331q0 10 10 10zM158 579.5q-2 3.5 1 8.5l62 108q5 7 12 7
h69q6 0 8 -3.5t-1 -8.5l-73 -109q-4 -6 -12 -6h-58q-6 0 -8 3.5z" />
    <glyph glyph-name="ucircumflex" unicode="&#xfb;" 
d="M293 509h76q10 0 10 -10v-489q0 -10 -10 -10h-76q-10 0 -10 10v29q0 3 -1.5 3t-3.5 -2q-30 -47 -96 -47q-60 0 -97 36.5t-37 111.5v358q0 10 10 10h76q10 0 10 -10v-337q0 -86 68 -86q34 0 52.5 24.5t18.5 67.5v331q0 10 10 10zM90.5 573.5q-1.5 3.5 1.5 8.5l67 105
q5 7 12 7h81q7 0 12 -7l69 -105q2 -4 2 -6q0 -6 -8 -6h-61q-7 0 -12 7l-39 69q-1 2 -3 2t-3 -2l-39 -69q-5 -7 -12 -7h-60q-6 0 -7.5 3.5z" />
    <glyph glyph-name="udieresis" unicode="&#xfc;" 
d="M293 509h76q10 0 10 -10v-489q0 -10 -10 -10h-76q-10 0 -10 10v29q0 3 -1.5 3t-3.5 -2q-30 -47 -96 -47q-60 0 -97 36.5t-37 111.5v358q0 10 10 10h76q10 0 10 -10v-337q0 -86 68 -86q34 0 52.5 24.5t18.5 67.5v331q0 10 10 10zM104.5 600.5q-15.5 15.5 -15.5 39.5
t15.5 39.5t38.5 15.5q22 0 36.5 -15.5t14.5 -39.5t-14.5 -39.5t-36.5 -15.5q-23 0 -38.5 15.5zM248.5 600.5q-14.5 15.5 -14.5 39.5t14.5 39.5t38.5 15.5q23 0 37.5 -15.5t14.5 -39.5t-14.5 -39.5t-37.5 -15.5q-24 0 -38.5 15.5z" />
    <glyph glyph-name="yacute" unicode="&#xfd;" horiz-adv-x="387" 
d="M38 -197q-2 3 -2 7v61q0 10 5 10h5q32 0 50.5 9.5t30 34t19.5 72.5l-1 5l-128 496l-1 3q0 8 10 8h82q10 0 11 -9l73 -361q1 -3 2 -3t2 3l72 361q2 9 11 9l83 -1q5 0 7.5 -3t0.5 -8l-137 -532q-19 -69 -38 -103t-52.5 -48t-95.5 -14h-5q-2 0 -4 3zM139 579.5q-2 3.5 1 8.5
l62 108q5 7 12 7h69q6 0 8 -3.5t-1 -8.5l-73 -109q-4 -6 -12 -6h-58q-6 0 -8 3.5z" />
    <glyph glyph-name="thorn" unicode="&#xfe;" horiz-adv-x="426" 
d="M346 474q37 -42 37 -116v-208q0 -72 -36.5 -115t-102.5 -43q-26 0 -51 10t-44 32q-2 2 -3.5 1t-1.5 -3v-222q0 -10 -10 -10h-76q-10 0 -10 10v880q0 10 10 10h76q10 0 10 -10v-214q0 -2 2 -2.5t4 2.5q19 21 44 30.5t50 9.5q65 0 102 -42zM267 411q-20 23 -52 23
t-51.5 -23t-19.5 -59v-196q0 -36 19.5 -58.5t51.5 -22.5t52 22.5t20 58.5v196q0 36 -20 59z" />
    <glyph glyph-name="ydieresis" unicode="&#xff;" horiz-adv-x="387" 
d="M38 -197q-2 3 -2 7v61q0 10 5 10h5q32 0 50.5 9.5t30 34t19.5 72.5l-1 5l-128 496l-1 3q0 8 10 8h82q10 0 11 -9l73 -361q1 -3 2 -3t2 3l72 361q2 9 11 9l83 -1q5 0 7.5 -3t0.5 -8l-137 -532q-19 -69 -38 -103t-52.5 -48t-95.5 -14h-5q-2 0 -4 3zM85.5 600.5
q-15.5 15.5 -15.5 39.5t15.5 39.5t38.5 15.5q22 0 36.5 -15.5t14.5 -39.5t-14.5 -39.5t-36.5 -15.5q-23 0 -38.5 15.5zM229.5 600.5q-14.5 15.5 -14.5 39.5t14.5 39.5t38.5 15.5q23 0 37.5 -15.5t14.5 -39.5t-14.5 -39.5t-37.5 -15.5q-24 0 -38.5 15.5z" />
    <glyph glyph-name="Amacron" unicode="&#x100;" horiz-adv-x="471" 
d="M343 9l-22 115q0 2 -1.5 3t-3.5 1h-161q-2 0 -3.5 -1t-1.5 -3l-23 -115q-1 -9 -11 -9h-76q-5 0 -7.5 3t-1.5 8l149 680q2 9 11 9h88q10 0 11 -9l151 -680v-2q0 -9 -9 -9h-78q-9 0 -11 9zM170 204h132q3 0 3 4l-66 342q-1 3 -2 3t-2 -3l-68 -342q0 -4 3 -4zM130 791v48
q0 10 10 10h188q10 0 10 -10v-48q0 -10 -10 -10h-188q-10 0 -10 10z" />
    <glyph glyph-name="amacron" unicode="&#x101;" horiz-adv-x="423" 
d="M333.5 471q46.5 -46 46.5 -121v-340q0 -10 -10 -10h-76q-10 0 -10 10v22q0 2 -1.5 3t-3.5 -1q-35 -42 -103 -42q-57 0 -100.5 32.5t-43.5 115.5q0 87 52.5 127.5t137.5 40.5h58q4 0 4 4v29q0 42 -20 67.5t-52 25.5q-25 0 -42 -17t-20 -44q0 -10 -10 -10h-81q-10 0 -10 10
q5 64 51 104t114 40q73 0 119.5 -46zM258 98q26 22 26 62v68q0 4 -4 4h-61q-40 0 -64 -21.5t-24 -62.5q0 -36 18 -54t48 -18q35 0 61 22zM108 608v48q0 10 10 10h188q10 0 10 -10v-48q0 -10 -10 -10h-188q-10 0 -10 10z" />
    <glyph glyph-name="Abreve" unicode="&#x102;" horiz-adv-x="471" 
d="M343 9l-22 115q0 2 -1.5 3t-3.5 1h-161q-2 0 -3.5 -1t-1.5 -3l-23 -115q-1 -9 -11 -9h-76q-5 0 -7.5 3t-1.5 8l149 680q2 9 11 9h88q10 0 11 -9l151 -680v-2q0 -9 -9 -9h-78q-9 0 -11 9zM170 204h132q3 0 3 4l-66 342q-1 3 -2 3t-2 -3l-68 -342q0 -4 3 -4zM159.5 774
q-30.5 28 -34.5 72q0 10 10 10h34q10 0 11 -10q3 -24 18.5 -39t37.5 -15t37.5 15t17.5 39q1 10 11 10h34q10 0 10 -10q-4 -44 -34 -72t-76 -28t-76.5 28z" />
    <glyph glyph-name="abreve" unicode="&#x103;" horiz-adv-x="423" 
d="M333.5 471q46.5 -46 46.5 -121v-340q0 -10 -10 -10h-76q-10 0 -10 10v22q0 2 -1.5 3t-3.5 -1q-35 -42 -103 -42q-57 0 -100.5 32.5t-43.5 115.5q0 87 52.5 127.5t137.5 40.5h58q4 0 4 4v29q0 42 -20 67.5t-52 25.5q-25 0 -42 -17t-20 -44q0 -10 -10 -10h-81q-10 0 -10 10
q5 64 51 104t114 40q73 0 119.5 -46zM258 98q26 22 26 62v68q0 4 -4 4h-61q-40 0 -64 -21.5t-24 -62.5q0 -36 18 -54t48 -18q35 0 61 22zM137.5 591q-30.5 28 -34.5 72q0 10 10 10h34q10 0 11 -10q3 -24 18.5 -39t37.5 -15t37.5 15t17.5 39q1 10 11 10h34q10 0 10 -10
q-4 -44 -34 -72t-76 -28t-76.5 28z" />
    <glyph glyph-name="Aogonek" unicode="&#x104;" horiz-adv-x="484" 
d="M343 9l-22 115q0 2 -1.5 3t-3.5 1h-161q-2 0 -3.5 -1t-1.5 -3l-23 -115q-1 -9 -11 -9h-76q-5 0 -7.5 3t-1.5 8l149 680q2 9 11 9h88q10 0 11 -9l151 -680v-2q0 -9 -9 -9h-78q-9 0 -11 9zM170 204h132q3 0 3 4l-66 342q-1 3 -2 3t-2 -3l-68 -342q0 -4 3 -4zM448 -173
q0 -7 -8 -10q-20 -4 -36 -4q-35 0 -59 18.5t-24 64.5q0 55 45 97l4 4q3 3 10 3h41q7 0 8.5 -3.5t-3.5 -8.5q-41 -41 -41 -78q0 -22 10 -32.5t26 -10.5q7 0 10 1h3q8 0 9 -7l5 -32v-2z" />
    <glyph glyph-name="aogonek" unicode="&#x105;" horiz-adv-x="600" 
d="M375 -132q8 0 9 -7l5 -32v-2q0 -7 -8 -9q-17 -5 -37 -5q-34 0 -58 19t-24 65q0 55 47 98q3 5 -2 5h-13q-10 0 -10 10v22q0 2 -1.5 3t-3.5 -1q-35 -42 -103 -42q-57 0 -100.5 32.5t-43.5 115.5q0 87 52.5 127.5t137.5 40.5h58q4 0 4 4v29q0 42 -20 67.5t-52 25.5
q-25 0 -42 -17t-20 -44q0 -10 -10 -10h-81q-5 0 -7.5 3t-1.5 7q4 64 50 104t114 40q73 0 119.5 -46t46.5 -121v-343q0 -6 -6 -12q-48 -45 -48 -85q0 -7 1 -11q2 -16 11.5 -24t23.5 -8q7 0 10 1h3zM258 98q26 22 26 62v68q0 4 -4 4h-61q-40 0 -64 -21.5t-24 -62.5
q0 -36 18 -54t48 -18q35 0 61 22z" />
    <glyph glyph-name="Cacute" unicode="&#x106;" horiz-adv-x="452" 
d="M97.5 41.5q-49.5 49.5 -49.5 131.5v355q0 82 49.5 131t130.5 49q82 0 131.5 -49t49.5 -131v-16q0 -10 -10 -10l-76 -4q-10 0 -10 10v26q0 41 -23.5 66t-61.5 25t-61 -25t-23 -66v-368q0 -41 23 -66t61 -25t61.5 25t23.5 66v26q0 10 10 10l76 -4q10 0 10 -10v-15
q0 -82 -49.5 -131.5t-131.5 -49.5q-81 0 -130.5 49.5zM173 778.5q-2 3.5 1 8.5l62 108q5 7 12 7h69q6 0 8 -3.5t-1 -8.5l-73 -109q-4 -6 -12 -6h-58q-6 0 -8 3.5z" />
    <glyph glyph-name="cacute" unicode="&#x107;" horiz-adv-x="413" 
d="M88.5 35q-45.5 43 -45.5 116v207q0 71 45.5 115t122.5 44q51 0 89.5 -19.5t59 -53t20.5 -75.5v-13q0 -10 -10 -10l-76 -3q-10 0 -10 10v10q0 29 -21 50t-52 21q-32 0 -52 -23t-20 -59v-195q0 -36 20 -59t52 -23q31 0 52 21t21 50v10q0 10 10 10l76 -1q10 0 10 -10v-15
q0 -65 -46 -106.5t-123 -41.5t-122.5 43zM156 589.5q-2 3.5 1 8.5l62 108q5 7 12 7h69q6 0 8 -3.5t-1 -8.5l-73 -109q-4 -6 -12 -6h-58q-6 0 -8 3.5z" />
    <glyph glyph-name="Cdotaccent" unicode="&#x10a;" horiz-adv-x="452" 
d="M97.5 41.5q-49.5 49.5 -49.5 131.5v355q0 82 49.5 131t130.5 49q82 0 131.5 -49t49.5 -131v-16q0 -10 -10 -10l-76 -4q-10 0 -10 10v26q0 41 -23.5 66t-61.5 25t-61 -25t-23 -66v-368q0 -41 23 -66t61 -25t61.5 25t23.5 66v26q0 10 10 10l76 -4q10 0 10 -10v-15
q0 -82 -49.5 -131.5t-131.5 -49.5q-81 0 -130.5 49.5zM192 787.5q-14 14.5 -14 37.5t14 37t36 14q21 0 34.5 -14.5t13.5 -36.5q0 -23 -13.5 -37.5t-34.5 -14.5q-22 0 -36 14.5z" />
    <glyph glyph-name="cdotaccent" unicode="&#x10b;" horiz-adv-x="413" 
d="M88.5 35q-45.5 43 -45.5 116v207q0 71 45.5 115t122.5 44q51 0 89.5 -19.5t59 -53t20.5 -75.5v-13q0 -10 -10 -10l-76 -3q-10 0 -10 10v10q0 29 -21 50t-52 21q-32 0 -52 -23t-20 -59v-195q0 -36 20 -59t52 -23q31 0 52 21t21 50v10q0 10 10 10l76 -1q10 0 10 -10v-15
q0 -65 -46 -106.5t-123 -41.5t-122.5 43zM175 598.5q-14 14.5 -14 37.5t14 37t36 14q21 0 34.5 -14.5t13.5 -36.5q0 -23 -13.5 -37.5t-34.5 -14.5q-22 0 -36 14.5z" />
    <glyph glyph-name="Ccaron" unicode="&#x10c;" horiz-adv-x="452" 
d="M97.5 41.5q-49.5 49.5 -49.5 131.5v355q0 82 49.5 131t130.5 49q82 0 131.5 -49t49.5 -131v-16q0 -10 -10 -10l-76 -4q-10 0 -10 10v26q0 41 -23.5 66t-61.5 25t-61 -25t-23 -66v-368q0 -41 23 -66t61 -25t61.5 25t23.5 66v26q0 10 10 10l76 -4q10 0 10 -10v-15
q0 -82 -49.5 -131.5t-131.5 -49.5q-81 0 -130.5 49.5zM175 772l-67 104q-2 4 -2 6q0 6 8 6h58q7 0 12 -7l41 -68q1 -1 3 -1t3 1l40 68q5 7 12 7h55q6 0 7.5 -3.5t-1.5 -8.5l-69 -105q-5 -6 -12 -6h-76q-7 0 -12 7z" />
    <glyph glyph-name="ccaron" unicode="&#x10d;" horiz-adv-x="413" 
d="M88.5 35q-45.5 43 -45.5 116v207q0 71 45.5 115t122.5 44q51 0 89.5 -19.5t59 -53t20.5 -75.5v-13q0 -10 -10 -10l-76 -3q-10 0 -10 10v10q0 29 -21 50t-52 21q-32 0 -52 -23t-20 -59v-195q0 -36 20 -59t52 -23q31 0 52 21t21 50v10q0 10 10 10l76 -1q10 0 10 -10v-15
q0 -65 -46 -106.5t-123 -41.5t-122.5 43zM158 583l-67 104q-2 4 -2 6q0 6 8 6h58q7 0 12 -7l41 -68q1 -1 3 -1t3 1l40 68q5 7 12 7h55q6 0 7.5 -3.5t-1.5 -8.5l-69 -105q-5 -6 -12 -6h-76q-7 0 -12 7z" />
    <glyph glyph-name="Dcaron" unicode="&#x10e;" horiz-adv-x="469" 
d="M62 10v680q0 10 10 10h164q83 0 132 -51t49 -138v-322q0 -87 -49 -138t-132 -51h-164q-10 0 -10 10zM162 83l73 1q38 0 61 29.5t24 80.5v312q0 51 -23 81t-62 30h-73q-4 0 -4 -4v-526q0 -4 4 -4zM178 763l-67 105q-2 4 -2 6q0 6 8 6h58q7 0 12 -7l41 -68q1 -1 3 -1t3 1
l40 68q5 7 12 7h55q6 0 7.5 -3.5t-1.5 -8.5l-69 -105q-5 -7 -12 -7h-76q-7 0 -12 7z" />
    <glyph glyph-name="dcaron" unicode="&#x10f;" horiz-adv-x="587" 
d="M293 700h76q10 0 10 -10v-680q0 -10 -10 -10h-76q-10 0 -10 10v23q0 2 -1.5 3t-3.5 -1q-19 -22 -45 -32.5t-51 -10.5q-66 0 -102.5 43t-36.5 115v208q0 74 37 116t102 42q26 0 51.5 -10.5t44.5 -32.5q2 -2 3.5 -1t1.5 3v215q0 10 10 10zM262.5 411q-19.5 23 -51.5 23
t-52 -23t-20 -59v-196q0 -36 20 -58.5t52 -22.5t51.5 22.5t19.5 58.5v196q0 36 -19.5 59zM427 579.5q-2 3.5 1 8.5l62 108q5 7 12 7h69q6 0 8 -3.5t-1 -8.5l-73 -109q-4 -6 -12 -6h-58q-6 0 -8 3.5z" />
    <glyph glyph-name="Dcroat" unicode="&#x110;" horiz-adv-x="508" 
d="M407 649q49 -51 49 -138v-322q0 -87 -49 -138t-132 -51h-164q-10 0 -10 10v323q0 4 -4 4h-25q-10 0 -10 10v38q0 10 10 10h25q4 0 4 4v291q0 10 10 10h164q83 0 132 -51zM359 506q0 51 -23 81t-62 30h-73q-4 0 -4 -4v-214q0 -4 4 -4h63q10 0 10 -10v-38q0 -10 -10 -10
h-63q-4 0 -4 -4v-246q0 -4 4 -4l73 1q38 0 61 29.5t24 80.5v312z" />
    <glyph glyph-name="dcroat" unicode="&#x111;" horiz-adv-x="600" 
d="M429 614v-41q0 -10 -10 -10h-36q-4 0 -4 -4v-549q0 -10 -10 -10h-76q-10 0 -10 10v23q0 2 -1.5 3t-3.5 -1q-19 -22 -45 -32.5t-51 -10.5q-66 0 -102.5 43t-36.5 115v208q0 74 37 116t102 42q26 0 51.5 -10.5t44.5 -32.5q2 -2 3.5 -1t1.5 3v84q0 4 -4 4h-121q-10 0 -10 10
v41q0 10 10 10h121q4 0 4 4v62q0 10 10 10h76q10 0 10 -10v-62q0 -4 4 -4h36q10 0 10 -10zM262.5 411q-19.5 23 -51.5 23t-52 -23t-20 -59v-196q0 -36 20 -58.5t52 -22.5t51.5 22.5t19.5 58.5v196q0 36 -19.5 59z" />
    <glyph glyph-name="Emacron" unicode="&#x112;" 
d="M387 617h-225q-4 0 -4 -4v-217q0 -4 4 -4h138q10 0 10 -10v-63q0 -10 -10 -10h-138q-4 0 -4 -4v-218q0 -4 4 -4h225q10 0 10 -10v-63q0 -10 -10 -10h-315q-10 0 -10 10v680q0 10 10 10h315q10 0 10 -10v-63q0 -10 -10 -10zM124 802v48q0 10 10 10h188q10 0 10 -10v-48
q0 -10 -10 -10h-188q-10 0 -10 10z" />
    <glyph glyph-name="emacron" unicode="&#x113;" horiz-adv-x="417" 
d="M369 215h-226q-4 0 -4 -4v-54q0 -36 20 -59t52 -23q28 0 47 17t24 44q3 8 11 8l74 -4q5 0 7.5 -3t1.5 -7q-7 -65 -49.5 -101.5t-115.5 -36.5q-77 0 -122.5 43t-45.5 115v208q0 71 45.5 115t122.5 44q78 0 123 -44t45 -115v-133q0 -10 -10 -10zM159 411q-20 -23 -20 -59
v-53q0 -4 4 -4h137q4 0 4 4v53q0 36 -20 59t-53 23q-32 0 -52 -23zM105 608v48q0 10 10 10h188q10 0 10 -10v-48q0 -10 -10 -10h-188q-10 0 -10 10z" />
    <glyph glyph-name="Edotaccent" unicode="&#x116;" 
d="M387 617h-225q-4 0 -4 -4v-217q0 -4 4 -4h138q10 0 10 -10v-63q0 -10 -10 -10h-138q-4 0 -4 -4v-218q0 -4 4 -4h225q10 0 10 -10v-63q0 -10 -10 -10h-315q-10 0 -10 10v680q0 10 10 10h315q10 0 10 -10v-63q0 -10 -10 -10zM194 790.5q-14 14.5 -14 37.5t14 37t36 14
q21 0 34.5 -14.5t13.5 -36.5q0 -23 -13.5 -37.5t-34.5 -14.5q-22 0 -36 14.5z" />
    <glyph glyph-name="edotaccent" unicode="&#x117;" horiz-adv-x="417" 
d="M369 215h-226q-4 0 -4 -4v-54q0 -36 20 -59t52 -23q28 0 47 17t24 44q3 8 11 8l74 -4q5 0 7.5 -3t1.5 -7q-7 -65 -49.5 -101.5t-115.5 -36.5q-77 0 -122.5 43t-45.5 115v208q0 71 45.5 115t122.5 44q78 0 123 -44t45 -115v-133q0 -10 -10 -10zM159 411q-20 -23 -20 -59
v-53q0 -4 4 -4h137q4 0 4 4v53q0 36 -20 59t-53 23q-32 0 -52 -23zM175 596.5q-14 14.5 -14 37.5t14 37t36 14q21 0 34.5 -14.5t13.5 -36.5q0 -23 -13.5 -37.5t-34.5 -14.5q-22 0 -36 14.5z" />
    <glyph glyph-name="Eogonek" unicode="&#x118;" 
d="M387 617h-225q-4 0 -4 -4v-217q0 -4 4 -4h138q10 0 10 -10v-63q0 -10 -10 -10h-138q-4 0 -4 -4v-218q0 -4 4 -4h225q10 0 10 -10v-63q0 -10 -10 -10h-125q-3 0 -5 -2q-44 -44 -44 -81q0 -7 1 -11q2 -16 11.5 -24t23.5 -8q7 0 10 1h3q8 0 9 -7l5 -32v-2q0 -7 -8 -9
q-17 -5 -37 -5q-34 0 -58.5 19t-24.5 65q0 50 40 91q2 2 1 3.5t-3 1.5h-114q-10 0 -10 10v680q0 10 10 10h315q10 0 10 -10v-63q0 -10 -10 -10z" />
    <glyph glyph-name="eogonek" unicode="&#x119;" horiz-adv-x="417" 
d="M369 215h-226q-4 0 -4 -4v-54q0 -36 20 -59t52 -23q28 0 47 17t24 44q3 8 11 8l74 -4q5 0 7.5 -3t1.5 -7q-6 -56 -38 -91t-87 -44q-3 0 -5 -2q-47 -45 -47 -84q0 -7 1 -11q2 -16 11.5 -24t23.5 -8q7 0 10 1h3q8 0 9 -7l5 -32v-2q0 -7 -8 -9q-17 -5 -37 -5q-34 0 -58.5 19
t-24.5 65q0 51 43 94q3 3 -2 5q-61 10 -96.5 51t-35.5 104v208q0 71 45.5 115t122.5 44q78 0 123 -44t45 -115v-133q0 -10 -10 -10zM159 411q-20 -23 -20 -59v-53q0 -4 4 -4h137q4 0 4 4v53q0 36 -20 59t-53 23q-32 0 -52 -23z" />
    <glyph glyph-name="Ecaron" unicode="&#x11a;" 
d="M387 617h-225q-4 0 -4 -4v-217q0 -4 4 -4h138q10 0 10 -10v-63q0 -10 -10 -10h-138q-4 0 -4 -4v-218q0 -4 4 -4h225q10 0 10 -10v-63q0 -10 -10 -10h-315q-10 0 -10 10v680q0 10 10 10h315q10 0 10 -10v-63q0 -10 -10 -10zM177 775l-67 104q-2 4 -2 6q0 6 8 6h58
q7 0 12 -7l41 -68q1 -1 3 -1t3 1l40 68q5 7 12 7h55q6 0 7.5 -3.5t-1.5 -8.5l-69 -105q-5 -6 -12 -6h-76q-7 0 -12 7z" />
    <glyph glyph-name="ecaron" unicode="&#x11b;" horiz-adv-x="417" 
d="M369 215h-226q-4 0 -4 -4v-54q0 -36 20 -59t52 -23q28 0 47 17t24 44q3 8 11 8l74 -4q5 0 7.5 -3t1.5 -7q-7 -65 -49.5 -101.5t-115.5 -36.5q-77 0 -122.5 43t-45.5 115v208q0 71 45.5 115t122.5 44q78 0 123 -44t45 -115v-133q0 -10 -10 -10zM159 411q-20 -23 -20 -59
v-53q0 -4 4 -4h137q4 0 4 4v53q0 36 -20 59t-53 23q-32 0 -52 -23zM158 575l-67 105q-2 4 -2 6q0 6 8 6h58q7 0 12 -7l41 -68q1 -1 3 -1t3 1l40 68q5 7 12 7h55q6 0 7.5 -3.5t-1.5 -8.5l-69 -105q-5 -7 -12 -7h-76q-7 0 -12 7z" />
    <glyph glyph-name="Gbreve" unicode="&#x11e;" horiz-adv-x="452" 
d="M97.5 40q-49.5 48 -49.5 127v366q0 79 49.5 127t130.5 48t131 -48t50 -128v-42q0 -10 -10 -10h-76q-10 0 -10 10v44q0 41 -23.5 66t-61.5 25t-61.5 -25t-23.5 -66v-368q0 -41 23.5 -66t61.5 -25t61.5 25t23.5 66v110q0 4 -4 4h-76q-10 0 -10 10v62q0 10 10 10h166
q10 0 10 -10v-185q0 -79 -50 -127t-131 -48t-130.5 48zM151.5 782q-30.5 28 -34.5 72q0 10 10 10h34q10 0 11 -10q3 -24 18.5 -39t37.5 -15t37.5 15t17.5 39q1 10 11 10h34q10 0 10 -10q-4 -44 -34 -72t-76 -28t-76.5 28z" />
    <glyph glyph-name="gbreve" unicode="&#x11f;" horiz-adv-x="423" 
d="M292 509h76q10 0 10 -10v-484q0 -105 -48 -162.5t-165 -57.5l-27 1q-10 1 -10 11v64q0 10 11 10q82 -3 112.5 32.5t30.5 110.5v21q0 2 -1.5 2.5t-3.5 -1.5q-34 -46 -97 -46q-66 0 -101.5 42.5t-35.5 115.5v200q0 74 36 116.5t101 42.5t97 -46q2 -2 3.5 -1t1.5 3v26
q0 10 10 10zM262.5 105.5q19.5 22.5 19.5 58.5v188q0 36 -19.5 59t-51.5 23t-52 -23t-20 -59v-188q0 -36 20 -58.5t52 -22.5t51.5 22.5zM135.5 588q-30.5 28 -34.5 72q0 10 10 10h34q10 0 11 -10q3 -24 18.5 -39t37.5 -15t37.5 15t17.5 39q1 10 11 10h34q10 0 10 -10
q-4 -44 -34 -72t-76 -28t-76.5 28z" />
    <glyph glyph-name="Gdotaccent" unicode="&#x120;" horiz-adv-x="452" 
d="M97.5 40q-49.5 48 -49.5 127v366q0 79 49.5 127t130.5 48t131 -48t50 -128v-42q0 -10 -10 -10h-76q-10 0 -10 10v44q0 41 -23.5 66t-61.5 25t-61.5 -25t-23.5 -66v-368q0 -41 23.5 -66t61.5 -25t61.5 25t23.5 66v110q0 4 -4 4h-76q-10 0 -10 10v62q0 10 10 10h166
q10 0 10 -10v-185q0 -79 -50 -127t-131 -48t-130.5 48zM192 787.5q-14 14.5 -14 37.5t14 37t36 14q21 0 34.5 -14.5t13.5 -36.5q0 -23 -13.5 -37.5t-34.5 -14.5q-22 0 -36 14.5z" />
    <glyph glyph-name="gdotaccent" unicode="&#x121;" horiz-adv-x="423" 
d="M292 509h76q10 0 10 -10v-484q0 -105 -48 -162.5t-165 -57.5l-27 1q-10 1 -10 11v64q0 10 11 10q82 -3 112.5 32.5t30.5 110.5v21q0 2 -1.5 2.5t-3.5 -1.5q-34 -46 -97 -46q-66 0 -101.5 42.5t-35.5 115.5v200q0 74 36 116.5t101 42.5t97 -46q2 -2 3.5 -1t1.5 3v26
q0 10 10 10zM262.5 105.5q19.5 22.5 19.5 58.5v188q0 36 -19.5 59t-51.5 23t-52 -23t-20 -59v-188q0 -36 20 -58.5t52 -22.5t51.5 22.5zM176 593.5q-14 14.5 -14 37.5t14 37t36 14q21 0 34.5 -14.5t13.5 -36.5q0 -23 -13.5 -37.5t-34.5 -14.5q-22 0 -36 14.5z" />
    <glyph glyph-name="uni0122" unicode="&#x122;" horiz-adv-x="452" 
d="M97.5 40q-49.5 48 -49.5 127v366q0 79 49.5 127t130.5 48t131 -48t50 -128v-42q0 -10 -10 -10h-76q-10 0 -10 10v44q0 41 -23.5 66t-61.5 25t-61.5 -25t-23.5 -66v-368q0 -41 23.5 -66t61.5 -25t61.5 25t23.5 66v110q0 4 -4 4h-76q-10 0 -10 10v62q0 10 10 10h166
q10 0 10 -10v-185q0 -79 -50 -127t-131 -48t-130.5 48zM160 -186.5q-2 3.5 1 8.5l62 108q5 7 12 7h69q6 0 8 -3.5t-1 -8.5l-73 -109q-4 -6 -12 -6h-58q-6 0 -8 3.5z" />
    <glyph glyph-name="uni0123" unicode="&#x123;" horiz-adv-x="423" 
d="M276 692.5q2 -3.5 -1 -8.5l-62 -108q-5 -7 -12 -7h-69q-6 0 -8 3.5t1 8.5l73 109q4 6 12 6h58q6 0 8 -3.5zM292 509h76q10 0 10 -10v-484q0 -105 -48 -162.5t-165 -57.5l-27 1q-10 1 -10 11v64q0 10 11 10q82 -3 112.5 32.5t30.5 110.5v21q0 2 -1.5 2.5t-3.5 -1.5
q-34 -46 -97 -46q-66 0 -101.5 42.5t-35.5 115.5v200q0 74 36 116.5t101 42.5t97 -46q2 -2 3.5 -1t1.5 3v26q0 10 10 10zM262.5 105.5q19.5 22.5 19.5 58.5v188q0 36 -19.5 59t-51.5 23t-52 -23t-20 -59v-188q0 -36 20 -58.5t52 -22.5t51.5 22.5z" />
    <glyph glyph-name="Hbar" unicode="&#x126;" horiz-adv-x="475" 
d="M460 566v-48q0 -10 -10 -10h-33q-4 0 -4 -4v-494q0 -10 -10 -10h-76q-10 0 -10 10v295q0 4 -4 4h-151q-4 0 -4 -4v-295q0 -10 -10 -10h-76q-10 0 -10 10v494q0 4 -4 4h-34q-10 0 -10 10v48q0 10 10 10h34q4 0 4 4v110q0 10 10 10h76q10 0 10 -10v-110q0 -4 4 -4h151
q4 0 4 4v110q0 10 10 10h76q10 0 10 -10v-110q0 -4 4 -4h33q10 0 10 -10zM317 396v108q0 4 -4 4h-151q-4 0 -4 -4v-108q0 -4 4 -4h151q4 0 4 4z" />
    <glyph glyph-name="hbar" unicode="&#x127;" 
d="M351.5 473.5q33.5 -42.5 33.5 -120.5v-343q0 -10 -10 -10h-76q-10 0 -10 10v335q0 42 -18 65t-50 23q-35 0 -54 -24.5t-19 -67.5v-331q0 -10 -10 -10h-76q-10 0 -10 10v538q0 4 -4 4h-39q-10 0 -10 10v41q0 10 10 10h39q4 0 4 4v73q0 10 10 10h76q10 0 10 -10v-73
q0 -4 4 -4h118q10 0 10 -10v-41q0 -10 -10 -10h-118q-4 0 -4 -4v-75q0 -2 2 -2.5t4 1.5q36 44 101 44q63 0 96.5 -42.5z" />
    <glyph glyph-name="Imacron" unicode="&#x12a;" horiz-adv-x="220" 
d="M62 10v680q0 10 10 10h76q10 0 10 -10v-680q0 -10 -10 -10h-76q-10 0 -10 10zM4 802v48q0 10 10 10h188q10 0 10 -10v-48q0 -10 -10 -10h-188q-10 0 -10 10z" />
    <glyph glyph-name="imacron" unicode="&#x12b;" horiz-adv-x="198" 
d="M50 10v489q0 10 10 10h76q10 0 10 -10v-489q0 -10 -10 -10h-76q-10 0 -10 10zM-8 611v48q0 10 10 10h188q10 0 10 -10v-48q0 -10 -10 -10h-188q-10 0 -10 10z" />
    <glyph glyph-name="Iogonek" unicode="&#x12e;" horiz-adv-x="263" 
d="M91 10v680q0 10 10 10h76q10 0 10 -10v-680q0 -10 -10 -10h-76q-10 0 -10 10zM197 -173q0 -7 -8 -10q-20 -4 -36 -4q-35 0 -59 18.5t-24 64.5q0 55 45 97l4 4q3 3 10 3h41q7 0 8.5 -3.5t-3.5 -8.5q-41 -41 -41 -78q0 -22 10 -32.5t26 -10.5q7 0 10 1h3q8 0 9 -7l5 -32v-2
z" />
    <glyph glyph-name="iogonek" unicode="&#x12f;" horiz-adv-x="228" 
d="M75 10v489q0 10 10 10h76q10 0 10 -10v-489q0 -10 -10 -10h-76q-10 0 -10 10zM87 599.5q-14 14.5 -14 37.5t14 37t36 14q21 0 34.5 -14.5t13.5 -36.5q0 -23 -13.5 -37.5t-34.5 -14.5q-22 0 -36 14.5zM179 -173q0 -7 -8 -10q-20 -4 -36 -4q-35 0 -59 18.5t-24 64.5
q0 55 45 97l4 4q3 3 10 3h41q7 0 8.5 -3.5t-3.5 -8.5q-41 -41 -41 -78q0 -22 10 -32.5t26 -10.5q7 0 10 1h3q8 0 9 -7l5 -32v-2z" />
    <glyph glyph-name="Idotaccent" unicode="&#x130;" horiz-adv-x="220" 
d="M62 10v680q0 10 10 10h76q10 0 10 -10v-680q0 -10 -10 -10h-76q-10 0 -10 10zM74 790.5q-14 14.5 -14 37.5t14 37t36 14q21 0 34.5 -14.5t13.5 -36.5q0 -23 -13.5 -37.5t-34.5 -14.5q-22 0 -36 14.5z" />
    <glyph glyph-name="dotlessi" unicode="&#x131;" horiz-adv-x="198" 
d="M50 10v489q0 10 10 10h76q10 0 10 -10v-489q0 -10 -10 -10h-76q-10 0 -10 10z" />
    <glyph glyph-name="ij" unicode="&#x133;" horiz-adv-x="408" 
d="M62 602q-17 18 -17 46t17 45.5t44 17.5t43.5 -17.5t16.5 -45.5q0 -29 -16.5 -46.5t-43.5 -17.5t-44 18zM58 10v489q0 10 10 10h76q10 0 10 -10v-489q0 -10 -10 -10h-76q-10 0 -10 10zM264 603q-17 18 -17 46q0 26 18 44.5t42 18.5q25 0 43.5 -18t18.5 -45q0 -28 -17 -46
t-45 -18q-26 0 -43 18zM168 -197v63q0 10 10 10q81 1 81 96v527q0 10 10 10h76q10 0 10 -10v-527q0 -62 -12.5 -99.5t-50.5 -58.5t-111 -21q-13 0 -13 10z" />
    <glyph glyph-name="uni0136" unicode="&#x136;" horiz-adv-x="466" 
d="M62 10v680q0 10 10 10h76q10 0 10 -10v-300q0 -3 2 -3.5t3 2.5l170 304q5 7 12 7h82q6 0 8 -3.5t-1 -8.5l-154 -278q-1 -3 0 -6l167 -392l1 -4q0 -8 -9 -8h-83q-8 0 -11 8l-130 312q-1 5 -5 1l-51 -81q-1 -1 -1 -5v-225q0 -10 -10 -10h-76q-10 0 -10 10zM190 -178.5
q-2 3.5 1 8.5l62 108q5 7 12 7h69q6 0 8 -3.5t-1 -8.5l-73 -109q-4 -6 -12 -6h-58q-6 0 -8 3.5z" />
    <glyph glyph-name="uni0137" unicode="&#x137;" horiz-adv-x="421" 
d="M52 10v680q0 10 10 10h76q10 0 10 -10v-379q0 -3 2 -4t3 2l129 194q5 6 12 6h78q6 0 8 -3.5t-1 -8.5l-103 -152q-3 -3 -1 -6l120 -328l1 -4q0 -7 -9 -7h-79q-9 0 -12 8l-80 251q-1 6 -6 1l-60 -87q-2 -2 -2 -5v-158q0 -10 -10 -10h-76q-10 0 -10 10zM156 -178.5
q-2 3.5 1 8.5l62 108q5 7 12 7h69q6 0 8 -3.5t-1 -8.5l-73 -109q-4 -6 -12 -6h-58q-6 0 -8 3.5z" />
    <glyph glyph-name="Lacute" unicode="&#x139;" horiz-adv-x="407" 
d="M62 10v680q0 10 10 10h76q10 0 10 -10v-603q0 -4 4 -4h224q10 0 10 -10v-63q0 -10 -10 -10h-314q-10 0 -10 10zM56 770.5q-2 3.5 1 8.5l62 108q5 7 12 7h69q6 0 8 -3.5t-1 -8.5l-73 -109q-4 -6 -12 -6h-58q-6 0 -8 3.5z" />
    <glyph glyph-name="lacute" unicode="&#x13a;" horiz-adv-x="191" 
d="M48 10v680q0 10 10 10h76q10 0 10 -10v-680q0 -10 -10 -10h-76q-10 0 -10 10zM42 770.5q-2 3.5 1 8.5l62 108q5 7 12 7h69q6 0 8 -3.5t-1 -8.5l-73 -109q-4 -6 -12 -6h-58q-6 0 -8 3.5z" />
    <glyph glyph-name="uni013B" unicode="&#x13b;" horiz-adv-x="407" 
d="M62 10v680q0 10 10 10h76q10 0 10 -10v-603q0 -4 4 -4h224q10 0 10 -10v-63q0 -10 -10 -10h-314q-10 0 -10 10zM136 -178.5q-2 3.5 1 8.5l62 108q5 7 12 7h69q6 0 8 -3.5t-1 -8.5l-73 -109q-4 -6 -12 -6h-58q-6 0 -8 3.5z" />
    <glyph glyph-name="uni013C" unicode="&#x13c;" horiz-adv-x="191" 
d="M48 10v680q0 10 10 10h76q10 0 10 -10v-680q0 -10 -10 -10h-76q-10 0 -10 10zM-20 -178.5q-2 3.5 1 8.5l62 108q5 7 12 7h69q6 0 8 -3.5t-1 -8.5l-73 -109q-4 -6 -12 -6h-58q-6 0 -8 3.5z" />
    <glyph glyph-name="Lcaron" unicode="&#x13d;" horiz-adv-x="407" 
d="M62 10v680q0 10 10 10h76q10 0 10 -10v-603q0 -4 4 -4h224q10 0 10 -10v-63q0 -10 -10 -10h-314q-10 0 -10 10zM58 758l-67 105q-2 4 -2 6q0 6 8 6h58q7 0 12 -7l41 -68q1 -1 3 -1t3 1l40 68q5 7 12 7h55q6 0 7.5 -3.5t-1.5 -8.5l-69 -105q-5 -7 -12 -7h-76q-7 0 -12 7z
" />
    <glyph glyph-name="lcaron" unicode="&#x13e;" horiz-adv-x="191" 
d="M48 10v680q0 10 10 10h76q10 0 10 -10v-680q0 -10 -10 -10h-76q-10 0 -10 10zM44 758l-67 105q-2 4 -2 6q0 6 8 6h58q7 0 12 -7l41 -68q1 -1 3 -1t3 1l40 68q5 7 12 7h55q6 0 7.5 -3.5t-1.5 -8.5l-69 -105q-5 -7 -12 -7h-76q-7 0 -12 7z" />
    <glyph glyph-name="Lslash" unicode="&#x141;" horiz-adv-x="407" 
d="M162 83h224q10 0 10 -10v-63q0 -10 -10 -10h-314q-10 0 -10 10v212q0 2 -1.5 3t-3.5 -1l-59 -45q-3 -3 -7 -3t-7 4l-35 42q-3 3 -3 7t4 7l110 84q2 2 2 5v365q0 10 10 10h76q10 0 10 -10v-288q0 -2 1.5 -3t3.5 1l144 111q2 2 6 2q5 0 8 -4l35 -42q3 -3 3 -7t-4 -7
l-195 -149q-2 -2 -2 -5v-212q0 -4 4 -4z" />
    <glyph glyph-name="lslash" unicode="&#x142;" horiz-adv-x="191" 
d="M254 388q0 -6 -5 -9l-102 -57q-3 -1 -3 -5v-307q0 -10 -10 -10h-76q-10 0 -10 10v250q0 2 -1.5 3t-3.5 0l-39 -22q-2 -1 -5 -1q-6 0 -9 5l-24 45q-1 2 -1 5q0 6 5 9l75 43q3 2 3 5v338q0 10 10 10h76q10 0 10 -10v-281q0 -2 1.5 -3t3.5 0l64 37q2 1 5 1q6 0 9 -5l26 -46
q1 -2 1 -5z" />
    <glyph glyph-name="Nacute" unicode="&#x143;" horiz-adv-x="501" 
d="M63 10v680q0 10 10 10h77q8 0 11 -8l178 -441q1 -3 3 -2.5t2 3.5v438q0 10 10 10h75q10 0 10 -10v-680q0 -10 -10 -10h-78q-8 0 -11 8l-178 441q-1 3 -3 3t-2 -3l1 -439q0 -10 -10 -10h-75q-10 0 -10 10zM195 782.5q-2 3.5 1 8.5l62 108q5 7 12 7h69q6 0 8 -3.5t-1 -8.5
l-73 -109q-4 -6 -12 -6h-58q-6 0 -8 3.5z" />
    <glyph glyph-name="nacute" unicode="&#x144;" 
d="M351.5 473.5q33.5 -42.5 33.5 -120.5v-343q0 -10 -10 -10h-76q-10 0 -10 10v335q0 42 -18 65t-50 23q-35 0 -54 -24.5t-19 -67.5v-331q0 -10 -10 -10h-76q-10 0 -10 10v489q0 10 10 10h76q10 0 10 -10v-26q0 -2 2 -2.5t4 1.5q36 44 101 44q63 0 96.5 -42.5zM165 583.5
q-2 3.5 1 8.5l62 108q5 7 12 7h69q6 0 8 -3.5t-1 -8.5l-73 -109q-4 -6 -12 -6h-58q-6 0 -8 3.5z" />
    <glyph glyph-name="uni0145" unicode="&#x145;" horiz-adv-x="501" 
d="M63 10v680q0 10 10 10h77q8 0 11 -8l178 -441q1 -3 3 -2.5t2 3.5v438q0 10 10 10h75q10 0 10 -10v-680q0 -10 -10 -10h-78q-8 0 -11 8l-178 441q-1 3 -3 3t-2 -3l1 -439q0 -10 -10 -10h-75q-10 0 -10 10zM191 -178.5q-2 3.5 1 8.5l62 108q5 7 12 7h69q6 0 8 -3.5t-1 -8.5
l-73 -109q-4 -6 -12 -6h-58q-6 0 -8 3.5z" />
    <glyph glyph-name="uni0146" unicode="&#x146;" 
d="M351.5 473.5q33.5 -42.5 33.5 -120.5v-343q0 -10 -10 -10h-76q-10 0 -10 10v335q0 42 -18 65t-50 23q-35 0 -54 -24.5t-19 -67.5v-331q0 -10 -10 -10h-76q-10 0 -10 10v489q0 10 10 10h76q10 0 10 -10v-26q0 -2 2 -2.5t4 1.5q36 44 101 44q63 0 96.5 -42.5zM157 -178.5
q-2 3.5 1 8.5l62 108q5 7 12 7h69q6 0 8 -3.5t-1 -8.5l-73 -109q-4 -6 -12 -6h-58q-6 0 -8 3.5z" />
    <glyph glyph-name="Ncaron" unicode="&#x147;" horiz-adv-x="501" 
d="M63 10v680q0 10 10 10h77q8 0 11 -8l178 -441q1 -3 3 -2.5t2 3.5v438q0 10 10 10h75q10 0 10 -10v-680q0 -10 -10 -10h-78q-8 0 -11 8l-178 441q-1 3 -3 3t-2 -3l1 -439q0 -10 -10 -10h-75q-10 0 -10 10zM197 776l-67 104q-2 4 -2 6q0 6 8 6h58q7 0 12 -7l41 -68
q1 -1 3 -1t3 1l40 68q5 7 12 7h55q6 0 7.5 -3.5t-1.5 -8.5l-69 -105q-5 -6 -12 -6h-76q-7 0 -12 7z" />
    <glyph glyph-name="ncaron" unicode="&#x148;" 
d="M351.5 473.5q33.5 -42.5 33.5 -120.5v-343q0 -10 -10 -10h-76q-10 0 -10 10v335q0 42 -18 65t-50 23q-35 0 -54 -24.5t-19 -67.5v-331q0 -10 -10 -10h-76q-10 0 -10 10v489q0 10 10 10h76q10 0 10 -10v-26q0 -2 2 -2.5t4 1.5q36 44 101 44q63 0 96.5 -42.5zM167 577
l-67 104q-2 4 -2 6q0 6 8 6h58q7 0 12 -7l41 -68q1 -1 3 -1t3 1l40 68q5 7 12 7h55q6 0 7.5 -3.5t-1.5 -8.5l-69 -105q-5 -6 -12 -6h-76q-7 0 -12 7z" />
    <glyph glyph-name="Eng" unicode="&#x14a;" horiz-adv-x="501" 
d="M354 700h75q10 0 10 -10v-690q0 -62 -9 -95.5t-43 -53t-105 -19.5q-14 0 -14 10v63q0 10 10 10q29 0 41 11t14 27t2 58v6q0 4 -1 5l-172 427q-1 3 -3 3t-2 -3l1 -439q0 -10 -10 -10h-75q-10 0 -10 10v680q0 10 10 10h77q8 0 11 -8l169 -419q1 -3 3 -2.5t2 3.5v130
q0 10 5 10v0q4 0 4 4v272q0 10 10 10z" />
    <glyph glyph-name="eng" unicode="&#x14b;" 
d="M351.5 473.5q33.5 -42.5 33.5 -120.5v-346v-7l-1 -2q0 -57 -10 -92.5t-44.5 -57t-105.5 -21.5q-13 0 -13 10v61q0 10 10 10q40 1 53.5 24t13.5 68v231v4q1 1 1 5v105q0 42 -18 65t-50 23q-35 0 -54 -24.5t-19 -67.5v-331q0 -10 -10 -10h-76q-10 0 -10 10v489q0 10 10 10
h76q10 0 10 -10v-26q0 -2 2 -2.5t4 1.5q36 44 101 44q63 0 96.5 -42.5z" />
    <glyph glyph-name="Omacron" unicode="&#x14c;" horiz-adv-x="462" 
d="M98 42q-50 50 -50 133v349q0 83 50 133.5t132 50.5q83 0 133.5 -50.5t50.5 -133.5v-349q0 -83 -50.5 -133t-133.5 -50q-82 0 -132 50zM294 101.5q24 26.5 24 69.5v358q0 43 -24 69.5t-64 26.5q-39 0 -62.5 -26.5t-23.5 -69.5v-358q0 -43 23.5 -69.5t62.5 -26.5
q40 0 64 26.5zM124 794v48q0 10 10 10h188q10 0 10 -10v-48q0 -10 -10 -10h-188q-10 0 -10 10z" />
    <glyph glyph-name="omacron" unicode="&#x14d;" horiz-adv-x="424" 
d="M88.5 35q-45.5 43 -45.5 115v208q0 71 46 115t123 44q78 0 123.5 -44t45.5 -115v-208q0 -72 -45.5 -115t-123.5 -43t-123.5 43zM264.5 98.5q20.5 22.5 20.5 58.5v195q0 36 -20.5 59t-52.5 23t-52.5 -23t-20.5 -59v-195q0 -36 20.5 -58.5t52.5 -22.5t52.5 22.5zM106 608
v48q0 10 10 10h188q10 0 10 -10v-48q0 -10 -10 -10h-188q-10 0 -10 10z" />
    <glyph glyph-name="Ohungarumlaut" unicode="&#x150;" horiz-adv-x="462" 
d="M98 42q-50 50 -50 133v349q0 83 50 133.5t132 50.5q83 0 133.5 -50.5t50.5 -133.5v-349q0 -83 -50.5 -133t-133.5 -50q-82 0 -132 50zM294 101.5q24 26.5 24 69.5v358q0 43 -24 69.5t-64 26.5q-39 0 -62.5 -26.5t-23.5 -69.5v-358q0 -43 23.5 -69.5t62.5 -26.5
q40 0 64 26.5zM129 771.5q-2 3.5 0 8.5l54 108q3 7 12 7h63q6 0 8.5 -3.5t-0.5 -8.5l-59 -108q-3 -7 -12 -7h-59q-5 0 -7 3.5zM265.5 771.5q-2.5 3.5 0.5 8.5l58 108q3 7 12 7h59q6 0 8.5 -3.5t-0.5 -8.5l-59 -108q-3 -7 -12 -7h-58q-6 0 -8.5 3.5z" />
    <glyph glyph-name="ohungarumlaut" unicode="&#x151;" horiz-adv-x="424" 
d="M88.5 35q-45.5 43 -45.5 115v208q0 71 46 115t123 44q78 0 123.5 -44t45.5 -115v-208q0 -72 -45.5 -115t-123.5 -43t-123.5 43zM264.5 98.5q20.5 22.5 20.5 58.5v195q0 36 -20.5 59t-52.5 23t-52.5 -23t-20.5 -59v-195q0 -36 20.5 -58.5t52.5 -22.5t52.5 22.5zM111 585.5
q-2 3.5 0 8.5l54 108q3 7 12 7h63q6 0 8.5 -3.5t-0.5 -8.5l-59 -108q-3 -7 -12 -7h-59q-5 0 -7 3.5zM247.5 585.5q-2.5 3.5 0.5 8.5l58 108q3 7 12 7h59q6 0 8.5 -3.5t-0.5 -8.5l-59 -108q-3 -7 -12 -7h-58q-6 0 -8.5 3.5z" />
    <glyph glyph-name="OE" unicode="&#x152;" horiz-adv-x="688" 
d="M643 617h-225q-4 0 -4 -4v-217q0 -4 4 -4h138q10 0 10 -10v-63q0 -10 -10 -10h-138q-4 0 -4 -4v-218q0 -4 4 -4h225q10 0 10 -10v-63q0 -10 -10 -10h-315q-10 0 -10 10v20q0 2 -1.5 3t-3.5 -1q-40 -40 -105 -40q-44 0 -80.5 23t-58 64.5t-21.5 95.5v349q0 54 21.5 96
t58 65t80.5 23q64 0 105 -41q2 -2 3.5 -1t1.5 3v21q0 10 10 10h315q10 0 10 -10v-63q0 -10 -10 -10zM294 101.5q24 26.5 24 69.5v358q0 43 -24 69.5t-64 26.5q-39 0 -62.5 -26.5t-23.5 -69.5v-358q0 -43 23.5 -69.5t62.5 -26.5q40 0 64 26.5z" />
    <glyph glyph-name="oe" unicode="&#x153;" horiz-adv-x="669" 
d="M622 225h-227q-4 0 -4 -4v-64q0 -36 20 -59t52 -23q28 0 47 17.5t24 44.5q3 8 11 8l75 -4q5 0 7.5 -3t1.5 -7q-8 -66 -50.5 -102.5t-115.5 -36.5q-79 0 -122 61q-3 3 -6 0q-43 -61 -123 -61q-78 0 -123.5 43.5t-45.5 115.5v207q0 71 46 115t123 44q79 0 123 -62q3 -3 6 0
q44 62 122 62q77 0 123 -44t46 -115v-123q0 -10 -10 -10zM265.5 411q-20.5 23 -53.5 23q-32 0 -52.5 -23t-20.5 -59v-195q0 -36 20.5 -59t52.5 -23q33 0 53.5 23t20.5 59v195q0 36 -20.5 59zM411 411q-20 -23 -20 -59v-58q0 -4 4 -4h137q4 0 4 4v58q0 36 -20 59t-53 23
q-32 0 -52 -23z" />
    <glyph glyph-name="Racute" unicode="&#x154;" horiz-adv-x="453" 
d="M328 8l-93 300q-1 3 -4 3h-69q-4 0 -4 -4v-297q0 -10 -10 -10h-76q-10 0 -10 10v681q0 10 10 10h179q51 0 90 -25t60.5 -70.5t21.5 -103.5q0 -63 -26.5 -109.5t-71.5 -66.5q-3 -3 -2 -6l103 -309l1 -4q0 -7 -9 -7h-78q-9 0 -12 8zM158 614v-224q0 -4 4 -4h74
q41 0 66 31.5t25 83.5q0 54 -25 85.5t-66 31.5h-74q-4 0 -4 -4zM171 770.5q-2 3.5 1 8.5l62 108q5 7 12 7h69q6 0 8 -3.5t-1 -8.5l-73 -109q-4 -6 -12 -6h-58q-6 0 -8 3.5z" />
    <glyph glyph-name="racute" unicode="&#x155;" horiz-adv-x="304" 
d="M288 503q7 -4 5 -13l-15 -76q-1 -9 -12 -6q-13 5 -30 5q-11 0 -16 -1q-31 -4 -51.5 -35t-20.5 -75v-292q0 -10 -10 -10h-76q-10 0 -10 10v489q0 10 10 10h76q10 0 10 -10v-58q0 -3 1.5 -3.5t2.5 2.5q29 74 93 74q25 0 43 -11zM121 585.5q-2 3.5 1 8.5l62 108q5 7 12 7h69
q6 0 8 -3.5t-1 -8.5l-73 -109q-4 -6 -12 -6h-58q-6 0 -8 3.5z" />
    <glyph glyph-name="uni0156" unicode="&#x156;" horiz-adv-x="453" 
d="M328 8l-93 300q-1 3 -4 3h-69q-4 0 -4 -4v-297q0 -10 -10 -10h-76q-10 0 -10 10v681q0 10 10 10h179q51 0 90 -25t60.5 -70.5t21.5 -103.5q0 -63 -26.5 -109.5t-71.5 -66.5q-3 -3 -2 -6l103 -309l1 -4q0 -7 -9 -7h-78q-9 0 -12 8zM158 614v-224q0 -4 4 -4h74
q41 0 66 31.5t25 83.5q0 54 -25 85.5t-66 31.5h-74q-4 0 -4 -4zM173 -178.5q-2 3.5 1 8.5l62 108q5 7 12 7h69q6 0 8 -3.5t-1 -8.5l-73 -109q-4 -6 -12 -6h-58q-6 0 -8 3.5z" />
    <glyph glyph-name="uni0157" unicode="&#x157;" horiz-adv-x="304" 
d="M288 503q7 -4 5 -13l-15 -76q-1 -9 -12 -6q-13 5 -30 5q-11 0 -16 -1q-31 -4 -51.5 -35t-20.5 -75v-292q0 -10 -10 -10h-76q-10 0 -10 10v489q0 10 10 10h76q10 0 10 -10v-58q0 -3 1.5 -3.5t2.5 2.5q29 74 93 74q25 0 43 -11zM-16 -178.5q-2 3.5 1 8.5l62 108q5 7 12 7
h69q6 0 8 -3.5t-1 -8.5l-73 -109q-4 -6 -12 -6h-58q-6 0 -8 3.5z" />
    <glyph glyph-name="Rcaron" unicode="&#x158;" horiz-adv-x="453" 
d="M328 8l-93 300q-1 3 -4 3h-69q-4 0 -4 -4v-297q0 -10 -10 -10h-76q-10 0 -10 10v681q0 10 10 10h179q51 0 90 -25t60.5 -70.5t21.5 -103.5q0 -63 -26.5 -109.5t-71.5 -66.5q-3 -3 -2 -6l103 -309l1 -4q0 -7 -9 -7h-78q-9 0 -12 8zM158 614v-224q0 -4 4 -4h74
q41 0 66 31.5t25 83.5q0 54 -25 85.5t-66 31.5h-74q-4 0 -4 -4zM173 764l-67 104q-2 4 -2 6q0 6 8 6h58q7 0 12 -7l41 -68q1 -1 3 -1t3 1l40 68q5 7 12 7h55q6 0 7.5 -3.5t-1.5 -8.5l-69 -105q-5 -6 -12 -6h-76q-7 0 -12 7z" />
    <glyph glyph-name="rcaron" unicode="&#x159;" horiz-adv-x="304" 
d="M288 503q7 -4 5 -13l-15 -76q-1 -9 -12 -6q-13 5 -30 5q-11 0 -16 -1q-31 -4 -51.5 -35t-20.5 -75v-292q0 -10 -10 -10h-76q-10 0 -10 10v489q0 10 10 10h76q10 0 10 -10v-58q0 -3 1.5 -3.5t2.5 2.5q29 74 93 74q25 0 43 -11zM123 579l-67 104q-2 4 -2 6q0 6 8 6h58
q7 0 12 -7l41 -68q1 -1 3 -1t3 1l40 68q5 7 12 7h55q6 0 7.5 -3.5t-1.5 -8.5l-69 -105q-5 -6 -12 -6h-76q-7 0 -12 7z" />
    <glyph glyph-name="Sacute" unicode="&#x15a;" horiz-adv-x="434" 
d="M93.5 41.5q-48.5 49.5 -48.5 129.5v27q0 10 10 10h74q10 0 10 -10v-22q0 -46 23 -73.5t59 -27.5t59.5 26.5t23.5 69.5q0 29 -12.5 51t-33 39.5t-66.5 51.5q-51 38 -80 65t-49 65t-20 89q0 81 48 128.5t125 47.5q80 0 128.5 -51t48.5 -134v-25q0 -10 -10 -10h-74
q-10 0 -10 10v27q0 45 -23 72.5t-60 27.5q-35 0 -56.5 -24.5t-21.5 -68.5q0 -40 22 -67.5t84 -73.5q61 -45 91.5 -73t47 -61.5t16.5 -79.5q0 -84 -49.5 -134.5t-128.5 -50.5t-127.5 49.5zM161 778.5q-2 3.5 1 8.5l62 108q5 7 12 7h69q6 0 8 -3.5t-1 -8.5l-73 -109
q-4 -6 -12 -6h-58q-6 0 -8 3.5z" />
    <glyph glyph-name="sacute" unicode="&#x15b;" horiz-adv-x="387" 
d="M78.5 30.5q-43.5 36.5 -43.5 98.5v9q0 10 10 10h71q10 0 10 -8v-9q0 -27 21 -45.5t52 -18.5q30 0 48.5 18t18.5 46q0 22 -13 37t-30.5 23.5t-53.5 23.5q-39 17 -64.5 33t-45.5 46t-20 76q0 68 42.5 106t114.5 38q74 0 116.5 -39t42.5 -106v-3q0 -10 -10 -10h-69
q-4 0 -7 2.5t-3 6.5v8q0 27 -19 46t-49 19q-31 0 -49 -19t-18 -46q0 -21 12 -35t29 -22.5t54 -24.5q41 -18 68 -34.5t47.5 -46.5t20.5 -75q0 -65 -44.5 -103t-120.5 -38q-75 0 -118.5 36.5zM141 584.5q-2 3.5 1 8.5l62 108q5 7 12 7h69q6 0 8 -3.5t-1 -8.5l-73 -109
q-4 -6 -12 -6h-58q-6 0 -8 3.5z" />
    <glyph glyph-name="Scedilla" unicode="&#x15e;" horiz-adv-x="434" 
d="M361 55.5q-38 -48.5 -102 -60.5q-6 -1 -2 -5q40 -40 40 -92q0 -46 -24 -64.5t-59 -18.5q-16 0 -36 4q-9 3 -8 12l5 32q1 9 12 7q4 -1 10 -1q14 0 23.5 8t11.5 24q1 4 1 11q0 39 -44 81q-1 2 -5 2q-63 11 -101 58.5t-38 117.5v27q0 10 10 10h74q10 0 10 -10v-22
q0 -46 23 -73.5t59 -27.5t59.5 26.5t23.5 69.5q0 29 -12.5 51t-33 39.5t-66.5 51.5q-51 38 -80 65t-49 65t-20 89q0 81 48 128.5t125 47.5q80 0 128.5 -51t48.5 -134v-25q0 -10 -10 -10h-74q-10 0 -10 10v27q0 45 -23 72.5t-60 27.5q-35 0 -56.5 -24.5t-21.5 -68.5
q0 -40 22 -67.5t84 -73.5q61 -45 91.5 -73t47 -61.5t16.5 -79.5q0 -73 -38 -121.5z" />
    <glyph glyph-name="scedilla" unicode="&#x15f;" horiz-adv-x="387" 
d="M328.5 43.5q-33.5 -36.5 -92.5 -46.5q-5 -2 -2 -5q39 -40 39 -92q0 -46 -24 -64.5t-59 -18.5q-16 0 -36 4q-9 3 -8 12l5 32q1 9 12 7q4 -1 10 -1q16 0 26 10.5t10 31.5q0 40 -43 81q-1 2 -5 2q-59 9 -92.5 44.5t-33.5 88.5v9q0 10 10 10h71q10 0 10 -8v-9q0 -27 21 -45.5
t52 -18.5q30 0 48.5 18t18.5 46q0 22 -13 37t-30.5 23.5t-53.5 23.5q-39 17 -64.5 33t-45.5 46t-20 76q0 68 42.5 106t114.5 38q74 0 116.5 -39t42.5 -106v-3q0 -10 -10 -10h-69q-4 0 -7 2.5t-3 6.5v8q0 27 -19 46t-49 19q-31 0 -49 -19t-18 -46q0 -21 12 -35t29 -22.5
t54 -24.5q41 -18 68 -34.5t47.5 -46.5t20.5 -75q0 -55 -33.5 -91.5z" />
    <glyph glyph-name="Scaron" unicode="&#x160;" horiz-adv-x="434" 
d="M93.5 41.5q-48.5 49.5 -48.5 129.5v27q0 10 10 10h74q10 0 10 -10v-22q0 -46 23 -73.5t59 -27.5t59.5 26.5t23.5 69.5q0 29 -12.5 51t-33 39.5t-66.5 51.5q-51 38 -80 65t-49 65t-20 89q0 81 48 128.5t125 47.5q80 0 128.5 -51t48.5 -134v-25q0 -10 -10 -10h-74
q-10 0 -10 10v27q0 45 -23 72.5t-60 27.5q-35 0 -56.5 -24.5t-21.5 -68.5q0 -40 22 -67.5t84 -73.5q61 -45 91.5 -73t47 -61.5t16.5 -79.5q0 -84 -49.5 -134.5t-128.5 -50.5t-127.5 49.5zM163 772l-67 104q-2 4 -2 6q0 6 8 6h58q7 0 12 -7l41 -68q1 -1 3 -1t3 1l40 68
q5 7 12 7h55q6 0 7.5 -3.5t-1.5 -8.5l-69 -105q-5 -6 -12 -6h-76q-7 0 -12 7z" />
    <glyph glyph-name="scaron" unicode="&#x161;" horiz-adv-x="387" 
d="M78.5 30.5q-43.5 36.5 -43.5 98.5v9q0 10 10 10h71q10 0 10 -8v-9q0 -27 21 -45.5t52 -18.5q30 0 48.5 18t18.5 46q0 22 -13 37t-30.5 23.5t-53.5 23.5q-39 17 -64.5 33t-45.5 46t-20 76q0 68 42.5 106t114.5 38q74 0 116.5 -39t42.5 -106v-3q0 -10 -10 -10h-69
q-4 0 -7 2.5t-3 6.5v8q0 27 -19 46t-49 19q-31 0 -49 -19t-18 -46q0 -21 12 -35t29 -22.5t54 -24.5q41 -18 68 -34.5t47.5 -46.5t20.5 -75q0 -65 -44.5 -103t-120.5 -38q-75 0 -118.5 36.5zM143 578l-67 104q-2 4 -2 6q0 6 8 6h58q7 0 12 -7l41 -68q1 -1 3 -1t3 1l40 68
q5 7 12 7h55q6 0 7.5 -3.5t-1.5 -8.5l-69 -105q-5 -6 -12 -6h-76q-7 0 -12 7z" />
    <glyph glyph-name="uni0162" unicode="&#x162;" horiz-adv-x="439" 
d="M264 613v-603q0 -10 -7 -10h-1q-2 0 -3 -1.5t1 -3.5q38 -41 38 -91q0 -46 -24 -64.5t-59 -18.5q-16 0 -36 4q-9 3 -8 12l5 32q1 9 12 7q4 -1 10 -1q16 0 26 10.5t10 31.5q0 40 -43 81l-4 2h-3q-10 0 -10 10v603q0 4 -4 4h-124q-10 0 -10 10v63q0 10 10 10h359
q10 0 10 -10v-63q0 -10 -10 -10h-131q-4 0 -4 -4z" />
    <glyph glyph-name="uni0163" unicode="&#x163;" horiz-adv-x="275" 
d="M241 439h-70q-4 0 -4 -4v-281q0 -40 14 -55.5t44 -14.5h9q10 0 10 -10v-64q0 -10 -10 -10h-17q-5 0 -2 -5q27 -36 27 -75q0 -46 -24.5 -65t-59.5 -19q-16 0 -36 4q-9 3 -8 12l5 32q1 9 12 7q4 -1 10 -1q16 0 26 10.5t10 32.5q0 35 -36 73q0 1 -5 3q-30 10 -46 36t-16 75
v315q0 4 -4 4h-39q-10 0 -10 10v50q0 10 10 10h39q4 0 4 4v113q0 10 10 10h73q10 0 10 -10v-113q0 -4 4 -4h70q10 0 10 -10v-50q0 -10 -10 -10z" />
    <glyph glyph-name="Tcaron" unicode="&#x164;" horiz-adv-x="439" 
d="M409 690v-63q0 -10 -10 -10h-131q-4 0 -4 -4v-603q0 -10 -10 -10h-76q-10 0 -10 10v603q0 4 -4 4h-124q-10 0 -10 10v63q0 10 10 10h359q10 0 10 -10zM166 758l-67 105q-2 4 -2 6q0 6 8 6h58q7 0 12 -7l41 -68q1 -1 3 -1t3 1l40 68q5 7 12 7h55q6 0 7.5 -3.5t-1.5 -8.5
l-69 -105q-5 -7 -12 -7h-76q-7 0 -12 7z" />
    <glyph glyph-name="tcaron" unicode="&#x165;" horiz-adv-x="275" 
d="M241 439h-70q-4 0 -4 -4v-281q0 -40 14 -55.5t44 -14.5h9q10 0 10 -10v-64q0 -10 -10 -10h-31q-64 0 -96.5 25t-32.5 95v315q0 4 -4 4h-39q-10 0 -10 10v50q0 10 10 10h39q4 0 4 4v113q0 10 10 10h73q10 0 10 -10v-113q0 -4 4 -4h70q10 0 10 -10v-50q0 -10 -10 -10z
M70 694l-67 105q-2 4 -2 6q0 6 8 6h58q7 0 12 -7l41 -68q1 -1 3 -1t3 1l40 68q5 7 12 7h55q6 0 7.5 -3.5t-1.5 -8.5l-69 -105q-5 -7 -12 -7h-76q-7 0 -12 7z" />
    <glyph glyph-name="Tbar" unicode="&#x166;" horiz-adv-x="600" 
d="M399 617h-131q-4 0 -4 -4v-194q0 -4 4 -4h74q10 0 10 -10v-41q0 -10 -10 -10h-74q-4 0 -4 -4v-340q0 -10 -10 -10h-76q-10 0 -10 10v340q0 4 -4 4h-83q-10 0 -10 10v41q0 10 10 10h83q4 0 4 4v194q0 4 -4 4h-124q-10 0 -10 10v63q0 10 10 10h359q10 0 10 -10v-63
q0 -10 -10 -10z" />
    <glyph glyph-name="tbar" unicode="&#x167;" horiz-adv-x="600" 
d="M245 423h-74q-4 0 -4 -4v-265q0 -40 14 -55.5t44 -14.5h9q10 0 10 -10v-64q0 -10 -10 -10h-31q-64 0 -96.5 25t-32.5 95v299q0 4 -4 4h-39q-10 0 -10 10v66q0 10 10 10h39q4 0 4 4v113q0 10 10 10h73q10 0 10 -10v-113q0 -4 4 -4h70q10 0 10 -10v-12q0 -1 2 -5q2 -2 2 -8
v-41q0 -10 -10 -10z" />
    <glyph glyph-name="Umacron" unicode="&#x16a;" horiz-adv-x="477" 
d="M106.5 46.5q-49.5 54.5 -49.5 143.5v500q0 10 10 10h76q10 0 10 -10v-510q0 -47 23.5 -76t61.5 -29q39 0 62.5 29t23.5 76v510q0 10 10 10h76q10 0 10 -10v-500q0 -89 -50 -143.5t-132 -54.5t-131.5 54.5zM132 802v48q0 10 10 10h188q10 0 10 -10v-48q0 -10 -10 -10h-188
q-10 0 -10 10z" />
    <glyph glyph-name="umacron" unicode="&#x16b;" 
d="M293 509h76q10 0 10 -10v-489q0 -10 -10 -10h-76q-10 0 -10 10v29q0 3 -1.5 3t-3.5 -2q-30 -47 -96 -47q-60 0 -97 36.5t-37 111.5v358q0 10 10 10h76q10 0 10 -10v-337q0 -86 68 -86q34 0 52.5 24.5t18.5 67.5v331q0 10 10 10zM107 600v48q0 10 10 10h188q10 0 10 -10
v-48q0 -10 -10 -10h-188q-10 0 -10 10z" />
    <glyph glyph-name="Uring" unicode="&#x16e;" horiz-adv-x="477" 
d="M106.5 46.5q-49.5 54.5 -49.5 143.5v500q0 10 10 10h76q10 0 10 -10v-510q0 -47 23.5 -76t61.5 -29q39 0 62.5 29t23.5 76v510q0 10 10 10h76q10 0 10 -10v-500q0 -89 -50 -143.5t-132 -54.5t-131.5 54.5zM164.5 801q-30.5 31 -30.5 75t30.5 75t73.5 31q44 0 74.5 -31
t30.5 -75t-30.5 -75t-74.5 -31q-43 0 -73.5 31zM278 835q17 17 17 41q0 25 -16.5 42t-40.5 17q-23 0 -39.5 -17t-16.5 -42q0 -24 16.5 -41t39.5 -17t40 17z" />
    <glyph glyph-name="uring" unicode="&#x16f;" 
d="M293 509h76q10 0 10 -10v-489q0 -10 -10 -10h-76q-10 0 -10 10v29q0 3 -1.5 3t-3.5 -2q-30 -47 -96 -47q-60 0 -97 36.5t-37 111.5v358q0 10 10 10h76q10 0 10 -10v-337q0 -86 68 -86q34 0 52.5 24.5t18.5 67.5v331q0 10 10 10zM139.5 599q-30.5 31 -30.5 75t30.5 75
t73.5 31q44 0 74.5 -31t30.5 -75t-30.5 -75t-74.5 -31q-43 0 -73.5 31zM253 633q17 17 17 41q0 25 -16.5 42t-40.5 17q-23 0 -39.5 -17t-16.5 -42q0 -24 16.5 -41t39.5 -17t40 17z" />
    <glyph glyph-name="Uhungarumlaut" unicode="&#x170;" horiz-adv-x="477" 
d="M106.5 46.5q-49.5 54.5 -49.5 143.5v500q0 10 10 10h76q10 0 10 -10v-510q0 -47 23.5 -76t61.5 -29q39 0 62.5 29t23.5 76v510q0 10 10 10h76q10 0 10 -10v-500q0 -89 -50 -143.5t-132 -54.5t-131.5 54.5zM137 779.5q-2 3.5 0 8.5l54 108q3 7 12 7h63q6 0 8.5 -3.5
t-0.5 -8.5l-59 -108q-3 -7 -12 -7h-59q-5 0 -7 3.5zM273.5 779.5q-2.5 3.5 0.5 8.5l58 108q3 7 12 7h59q6 0 8.5 -3.5t-0.5 -8.5l-59 -108q-3 -7 -12 -7h-58q-6 0 -8.5 3.5z" />
    <glyph glyph-name="uhungarumlaut" unicode="&#x171;" 
d="M293 509h76q10 0 10 -10v-489q0 -10 -10 -10h-76q-10 0 -10 10v29q0 3 -1.5 3t-3.5 -2q-30 -47 -96 -47q-60 0 -97 36.5t-37 111.5v358q0 10 10 10h76q10 0 10 -10v-337q0 -86 68 -86q34 0 52.5 24.5t18.5 67.5v331q0 10 10 10zM112 577.5q-2 3.5 0 8.5l54 108q3 7 12 7
h63q6 0 8.5 -3.5t-0.5 -8.5l-59 -108q-3 -7 -12 -7h-59q-5 0 -7 3.5zM248.5 577.5q-2.5 3.5 0.5 8.5l58 108q3 7 12 7h59q6 0 8.5 -3.5t-0.5 -8.5l-59 -108q-3 -7 -12 -7h-58q-6 0 -8.5 3.5z" />
    <glyph glyph-name="Uogonek" unicode="&#x172;" horiz-adv-x="477" 
d="M334 700h76q10 0 10 -10v-500q0 -80 -40.5 -132.5t-109.5 -63.5q-3 0 -5 -2q-38 -40 -38 -76q0 -21 10.5 -31.5t26.5 -10.5q6 0 9 1h3q8 0 9 -7l5 -32v-2q0 -7 -8 -9q-17 -5 -37 -5q-34 0 -58 19t-24 65q0 48 35 87q3 3 -1 5q-64 13 -102 65t-38 129v500q0 10 10 10h76
q10 0 10 -10v-510q0 -47 23.5 -76t61.5 -29q39 0 62.5 29t23.5 76v510q0 10 10 10z" />
    <glyph glyph-name="uogonek" unicode="&#x173;" 
d="M375 -132q8 0 9 -7l5 -32v-2q0 -7 -8 -9q-17 -5 -37 -5q-34 0 -58 19t-24 65q0 55 47 98q3 5 -2 5h-14q-10 0 -10 10v29q0 3 -1.5 3t-3.5 -2q-30 -47 -96 -47q-60 0 -97 36.5t-37 111.5v358q0 10 10 10h76q10 0 10 -10v-337q0 -86 68 -86q34 0 52.5 24.5t18.5 67.5v331
q0 10 10 10h76q10 0 10 -10v-499l-5 -5q-48 -45 -48 -85q0 -7 1 -11q2 -16 11.5 -24t23.5 -8q7 0 10 1h3z" />
    <glyph glyph-name="Wcircumflex" unicode="&#x174;" horiz-adv-x="646" 
d="M159 9l-133 680v2q0 9 9 9h79q10 0 11 -9l81 -469q1 -2 2 -2t2 2l72 469q1 9 10 9h67q9 0 10 -9l77 -469q1 -2 2 -2t2 2l74 469q2 9 10 9h78q5 0 7.5 -3t1.5 -8l-126 -680q-1 -9 -11 -9h-71q-8 0 -10 9l-76 473q-1 2 -2.5 2t-1.5 -2l-72 -473q-1 -9 -10 -9h-71
q-9 0 -11 9zM197.5 764.5q-1.5 3.5 1.5 8.5l67 105q5 7 12 7h81q7 0 12 -7l69 -105q2 -4 2 -6q0 -6 -8 -6h-61q-7 0 -12 7l-39 69q-1 2 -3 2t-3 -2l-39 -69q-5 -7 -12 -7h-60q-6 0 -7.5 3.5z" />
    <glyph glyph-name="wcircumflex" unicode="&#x175;" horiz-adv-x="575" 
d="M128 9l-107 489v2q0 9 9 9h73q10 0 11 -9l62 -358q1 -2 2 -2t2 2l63 358q2 9 11 9h66q10 0 11 -9l65 -358q1 -2 2 -2t2 2l63 358q2 9 11 9l71 -1q11 0 9 -11l-107 -488q-1 -9 -11 -9h-74q-9 0 -11 9l-64 329q-1 2 -2 2t-2 -2l-61 -329q-1 -9 -11 -9h-72q-9 0 -11 9z
M164.5 573.5q-1.5 3.5 1.5 8.5l67 105q5 7 12 7h81q7 0 12 -7l69 -105q2 -4 2 -6q0 -6 -8 -6h-61q-7 0 -12 7l-39 69q-1 2 -3 2t-3 -2l-39 -69q-5 -7 -12 -7h-60q-6 0 -7.5 3.5z" />
    <glyph glyph-name="Ycircumflex" unicode="&#x176;" horiz-adv-x="442" 
d="M173 11v286l-1 5l-139 387l-1 4q0 7 9 7h80q9 0 12 -8l85 -276q1 -2 3 -2t3 2l85 276q3 8 12 8h80q11 0 8 -11l-139 -387l-1 -5v-286q0 -10 -10 -10h-76q-10 0 -10 10zM98.5 764.5q-1.5 3.5 1.5 8.5l67 105q5 7 12 7h81q7 0 12 -7l69 -105q2 -4 2 -6q0 -6 -8 -6h-61
q-7 0 -12 7l-39 69q-1 2 -3 2t-3 -2l-39 -69q-5 -7 -12 -7h-60q-6 0 -7.5 3.5z" />
    <glyph glyph-name="ycircumflex" unicode="&#x177;" horiz-adv-x="387" 
d="M38 -197q-2 3 -2 7v61q0 10 5 10h5q32 0 50.5 9.5t30 34t19.5 72.5l-1 5l-128 496l-1 3q0 8 10 8h82q10 0 11 -9l73 -361q1 -3 2 -3t2 3l72 361q2 9 11 9l83 -1q5 0 7.5 -3t0.5 -8l-137 -532q-19 -69 -38 -103t-52.5 -48t-95.5 -14h-5q-2 0 -4 3zM71.5 573.5
q-1.5 3.5 1.5 8.5l67 105q5 7 12 7h81q7 0 12 -7l69 -105q2 -4 2 -6q0 -6 -8 -6h-61q-7 0 -12 7l-39 69q-1 2 -3 2t-3 -2l-39 -69q-5 -7 -12 -7h-60q-6 0 -7.5 3.5z" />
    <glyph glyph-name="Ydieresis" unicode="&#x178;" horiz-adv-x="442" 
d="M173 11v286l-1 5l-139 387l-1 4q0 7 9 7h80q9 0 12 -8l85 -276q1 -2 3 -2t3 2l85 276q3 8 12 8h80q11 0 8 -11l-139 -387l-1 -5v-286q0 -10 -10 -10h-76q-10 0 -10 10zM112.5 791.5q-15.5 15.5 -15.5 39.5t15.5 39.5t38.5 15.5q22 0 36.5 -15.5t14.5 -39.5t-14.5 -39.5
t-36.5 -15.5q-23 0 -38.5 15.5zM256.5 791.5q-14.5 15.5 -14.5 39.5t14.5 39.5t38.5 15.5q23 0 37.5 -15.5t14.5 -39.5t-14.5 -39.5t-37.5 -15.5q-24 0 -38.5 15.5z" />
    <glyph glyph-name="Zacute" unicode="&#x179;" horiz-adv-x="401" 
d="M29 10v67q0 5 3 12l232 523q1 2 0 3.5t-3 1.5h-222q-10 0 -10 10v63q0 10 10 10h319q10 0 10 -10v-67q0 -4 -3 -12l-233 -523q-1 -2 0 -3.5t3 -1.5h223q10 0 10 -10v-63q0 -10 -10 -10h-319q-10 0 -10 10zM144 783.5q-2 3.5 1 8.5l62 108q5 7 12 7h69q6 0 8 -3.5t-1 -8.5
l-73 -109q-4 -6 -12 -6h-58q-6 0 -8 3.5z" />
    <glyph glyph-name="zacute" unicode="&#x17a;" horiz-adv-x="365" 
d="M28 10v70q0 7 3 13l187 323q1 2 0 3.5t-3 1.5h-173q-10 0 -10 10v68q0 10 10 10h283q10 0 10 -10v-71q0 -7 -3 -13l-192 -323q-1 -2 0 -3.5t3 -1.5h185q10 0 10 -10v-67q0 -10 -10 -10h-290q-10 0 -10 10zM130 590.5q-2 3.5 1 8.5l62 108q5 7 12 7h69q6 0 8 -3.5t-1 -8.5
l-73 -109q-4 -6 -12 -6h-58q-6 0 -8 3.5z" />
    <glyph glyph-name="Zdotaccent" unicode="&#x17b;" horiz-adv-x="401" 
d="M29 10v67q0 5 3 12l232 523q1 2 0 3.5t-3 1.5h-222q-10 0 -10 10v63q0 10 10 10h319q10 0 10 -10v-67q0 -4 -3 -12l-233 -523q-1 -2 0 -3.5t3 -1.5h223q10 0 10 -10v-63q0 -10 -10 -10h-319q-10 0 -10 10zM163 792.5q-14 14.5 -14 37.5t14 37t36 14q21 0 34.5 -14.5
t13.5 -36.5q0 -23 -13.5 -37.5t-34.5 -14.5q-22 0 -36 14.5z" />
    <glyph glyph-name="zdotaccent" unicode="&#x17c;" horiz-adv-x="365" 
d="M28 10v70q0 7 3 13l187 323q1 2 0 3.5t-3 1.5h-173q-10 0 -10 10v68q0 10 10 10h283q10 0 10 -10v-71q0 -7 -3 -13l-192 -323q-1 -2 0 -3.5t3 -1.5h185q10 0 10 -10v-67q0 -10 -10 -10h-290q-10 0 -10 10zM149 599.5q-14 14.5 -14 37.5t14 37t36 14q21 0 34.5 -14.5
t13.5 -36.5q0 -23 -13.5 -37.5t-34.5 -14.5q-22 0 -36 14.5z" />
    <glyph glyph-name="Zcaron" unicode="&#x17d;" horiz-adv-x="401" 
d="M29 10v67q0 5 3 12l232 523q1 2 0 3.5t-3 1.5h-222q-10 0 -10 10v63q0 10 10 10h319q10 0 10 -10v-67q0 -4 -3 -12l-233 -523q-1 -2 0 -3.5t3 -1.5h223q10 0 10 -10v-63q0 -10 -10 -10h-319q-10 0 -10 10zM146 777l-67 104q-2 4 -2 6q0 6 8 6h58q7 0 12 -7l41 -68
q1 -1 3 -1t3 1l40 68q5 7 12 7h55q6 0 7.5 -3.5t-1.5 -8.5l-69 -105q-5 -6 -12 -6h-76q-7 0 -12 7z" />
    <glyph glyph-name="zcaron" unicode="&#x17e;" horiz-adv-x="365" 
d="M28 10v70q0 7 3 13l187 323q1 2 0 3.5t-3 1.5h-173q-10 0 -10 10v68q0 10 10 10h283q10 0 10 -10v-71q0 -7 -3 -13l-192 -323q-1 -2 0 -3.5t3 -1.5h185q10 0 10 -10v-67q0 -10 -10 -10h-290q-10 0 -10 10zM132 584l-67 104q-2 4 -2 6q0 6 8 6h58q7 0 12 -7l41 -68
q1 -1 3 -1t3 1l40 68q5 7 12 7h55q6 0 7.5 -3.5t-1.5 -8.5l-69 -105q-5 -6 -12 -6h-76q-7 0 -12 7z" />
    <glyph glyph-name="florin" unicode="&#x192;" horiz-adv-x="471" 
d="M284 671.5q36 37.5 107 37.5q19 0 43 -3q5 -1 7.5 -3t2.5 -7l-2 -66q0 -10 -10 -10h-26q-35 0 -52.5 -23.5t-24.5 -70.5l-20 -125q0 -4 3 -4h67q10 0 10 -10v-50q0 -10 -10 -10h-79q-5 0 -5 -4l-61 -376q-13 -80 -49 -118t-108 -38q-20 0 -42 3q-5 1 -7.5 3t-2.5 7l2 66
q0 10 10 10h25q35 0 52.5 24t24.5 70l58 349q0 4 -3 4h-53q-10 0 -10 10v50q0 10 10 10h64q5 0 5 4l25 152q13 81 49 118.5z" />
    <glyph glyph-name="uni01CD" unicode="&#x1cd;" horiz-adv-x="471" 
d="M343 9l-22 115q0 2 -1.5 3t-3.5 1h-161q-2 0 -3.5 -1t-1.5 -3l-23 -115q-1 -9 -11 -9h-76q-5 0 -7.5 3t-1.5 8l149 680q2 9 11 9h88q10 0 11 -9l151 -680v-2q0 -9 -9 -9h-78q-9 0 -11 9zM170 204h132q3 0 3 4l-66 342q-1 3 -2 3t-2 -3l-68 -342q0 -4 3 -4zM183 758
l-67 105q-2 4 -2 6q0 6 8 6h58q7 0 12 -7l41 -68q1 -1 3 -1t3 1l40 68q5 7 12 7h55q6 0 7.5 -3.5t-1.5 -8.5l-69 -105q-5 -7 -12 -7h-76q-7 0 -12 7z" />
    <glyph glyph-name="uni01CE" unicode="&#x1ce;" horiz-adv-x="423" 
d="M333.5 471q46.5 -46 46.5 -121v-340q0 -10 -10 -10h-76q-10 0 -10 10v22q0 2 -1.5 3t-3.5 -1q-35 -42 -103 -42q-57 0 -100.5 32.5t-43.5 115.5q0 87 52.5 127.5t137.5 40.5h58q4 0 4 4v29q0 42 -20 67.5t-52 25.5q-25 0 -42 -17t-20 -44q0 -10 -10 -10h-81q-10 0 -10 10
q5 64 51 104t114 40q73 0 119.5 -46zM258 98q26 22 26 62v68q0 4 -4 4h-61q-40 0 -64 -21.5t-24 -62.5q0 -36 18 -54t48 -18q35 0 61 22zM161 575l-67 105q-2 4 -2 6q0 6 8 6h58q7 0 12 -7l41 -68q1 -1 3 -1t3 1l40 68q5 7 12 7h55q6 0 7.5 -3.5t-1.5 -8.5l-69 -105
q-5 -7 -12 -7h-76q-7 0 -12 7z" />
    <glyph glyph-name="uni0218" unicode="&#x218;" horiz-adv-x="434" 
d="M93.5 41.5q-48.5 49.5 -48.5 129.5v27q0 10 10 10h74q10 0 10 -10v-22q0 -46 23 -73.5t59 -27.5t59.5 26.5t23.5 69.5q0 29 -12.5 51t-33 39.5t-66.5 51.5q-51 38 -80 65t-49 65t-20 89q0 81 48 128.5t125 47.5q80 0 128.5 -51t48.5 -134v-25q0 -10 -10 -10h-74
q-10 0 -10 10v27q0 45 -23 72.5t-60 27.5q-35 0 -56.5 -24.5t-21.5 -68.5q0 -40 22 -67.5t84 -73.5q61 -45 91.5 -73t47 -61.5t16.5 -79.5q0 -84 -49.5 -134.5t-128.5 -50.5t-127.5 49.5zM157 -186.5q-2 3.5 1 8.5l62 108q5 7 12 7h69q6 0 8 -3.5t-1 -8.5l-73 -109
q-4 -6 -12 -6h-58q-6 0 -8 3.5z" />
    <glyph glyph-name="uni0219" unicode="&#x219;" horiz-adv-x="387" 
d="M78.5 30.5q-43.5 36.5 -43.5 98.5v9q0 10 10 10h71q10 0 10 -8v-9q0 -27 21 -45.5t52 -18.5q30 0 48.5 18t18.5 46q0 22 -13 37t-30.5 23.5t-53.5 23.5q-39 17 -64.5 33t-45.5 46t-20 76q0 68 42.5 106t114.5 38q74 0 116.5 -39t42.5 -106v-3q0 -10 -10 -10h-69
q-4 0 -7 2.5t-3 6.5v8q0 27 -19 46t-49 19q-31 0 -49 -19t-18 -46q0 -21 12 -35t29 -22.5t54 -24.5q41 -18 68 -34.5t47.5 -46.5t20.5 -75q0 -65 -44.5 -103t-120.5 -38q-75 0 -118.5 36.5zM133 -184.5q-2 3.5 1 8.5l62 108q5 7 12 7h69q6 0 8 -3.5t-1 -8.5l-73 -109
q-4 -6 -12 -6h-58q-6 0 -8 3.5z" />
    <glyph glyph-name="uni021A" unicode="&#x21a;" horiz-adv-x="426" 
d="M409 690v-63q0 -10 -10 -10h-131q-4 0 -4 -4v-603q0 -10 -10 -10h-76q-10 0 -10 10v603q0 4 -4 4h-124q-10 0 -10 10v63q0 10 10 10h359q10 0 10 -10zM95 -180.5q-2 3.5 1 8.5l62 108q5 7 12 7h69q6 0 8 -3.5t-1 -8.5l-73 -109q-4 -6 -12 -6h-58q-6 0 -8 3.5z" />
    <glyph glyph-name="uni021B" unicode="&#x21b;" horiz-adv-x="275" 
d="M241 439h-70q-4 0 -4 -4v-281q0 -40 14 -55.5t44 -14.5h9q10 0 10 -10v-64q0 -10 -10 -10h-31q-64 0 -96.5 25t-32.5 95v315q0 4 -4 4h-39q-10 0 -10 10v50q0 10 10 10h39q4 0 4 4v113q0 10 10 10h73q10 0 10 -10v-113q0 -4 4 -4h70q10 0 10 -10v-50q0 -10 -10 -10z
M101 -165.5q-2 3.5 1 8.5l62 108q5 7 12 7h69q6 0 8 -3.5t-1 -8.5l-73 -109q-4 -6 -12 -6h-58q-6 0 -8 3.5z" />
    <glyph glyph-name="uni0228" unicode="&#x228;" 
d="M387 617h-225q-4 0 -4 -4v-217q0 -4 4 -4h138q10 0 10 -10v-63q0 -10 -10 -10h-138q-4 0 -4 -4v-218q0 -4 4 -4h225q10 0 10 -10v-63q0 -10 -10 -10h-120q-2 0 -3 -1.5t1 -3.5q36 -40 36 -88q0 -46 -24 -65t-59 -19q-16 0 -36 4q-9 3 -8 12l5 32q1 9 12 7q4 -1 10 -1
q16 0 26 10.5t10 31.5q0 38 -41 79q-2 2 -5 2h-119q-10 0 -10 10v680q0 10 10 10h315q10 0 10 -10v-63q0 -10 -10 -10z" />
    <glyph glyph-name="uni0229" unicode="&#x229;" horiz-adv-x="417" 
d="M369 215h-226q-4 0 -4 -4v-54q0 -36 20 -59t52 -23q28 0 47 17t24 44q3 8 11 8l74 -4q5 0 7.5 -3t1.5 -7q-6 -56 -38.5 -91t-87.5 -44q-5 -2 -2 -5q39 -40 39 -92q0 -46 -24 -64.5t-59 -18.5q-16 0 -36 4q-9 3 -8 12l5 32q1 9 12 7q4 -1 10 -1q16 0 26 10.5t10 31.5
q0 40 -43 81q-1 2 -5 2q-62 10 -97 51.5t-35 104.5v208q0 71 45.5 115t122.5 44q78 0 123 -44t45 -115v-133q0 -10 -10 -10zM159 411q-20 -23 -20 -59v-53q0 -4 4 -4h137q4 0 4 4v53q0 36 -20 59t-53 23q-32 0 -52 -23z" />
    <glyph glyph-name="circumflex" unicode="&#x2c6;" horiz-adv-x="257" 
d="M6.5 573.5q-1.5 3.5 1.5 8.5l67 105q5 7 12 7h81q7 0 12 -7l69 -105q2 -4 2 -6q0 -6 -8 -6h-61q-7 0 -12 7l-39 69q-1 2 -3 2t-3 -2l-39 -69q-5 -7 -12 -7h-60q-6 0 -7.5 3.5z" />
    <glyph glyph-name="caron" unicode="&#x2c7;" horiz-adv-x="290" 
d="M94 575l-67 104q-2 4 -2 6q0 6 8 6h58q7 0 12 -7l41 -68q1 -1 3 -1t3 1l40 68q5 7 12 7h55q6 0 7.5 -3.5t-1.5 -8.5l-69 -105q-5 -6 -12 -6h-76q-7 0 -12 7z" />
    <glyph glyph-name="uni02C9" unicode="&#x2c9;" horiz-adv-x="436" 
d="M113 600v48q0 10 10 10h188q10 0 10 -10v-48q0 -10 -10 -10h-188q-10 0 -10 10z" />
    <glyph glyph-name="breve" unicode="&#x2d8;" horiz-adv-x="259" 
d="M53.5 583q-30.5 28 -34.5 72q0 10 10 10h34q10 0 11 -10q3 -24 18.5 -39t37.5 -15t37.5 15t17.5 39q1 10 11 10h34q10 0 10 -10q-4 -44 -34 -72t-76 -28t-76.5 28z" />
    <glyph glyph-name="dotaccent" unicode="&#x2d9;" horiz-adv-x="136" 
d="M33 588.5q-14 14.5 -14 37.5t14 37t36 14q21 0 34.5 -14.5t13.5 -36.5q0 -23 -13.5 -37.5t-34.5 -14.5q-22 0 -36 14.5z" />
    <glyph glyph-name="ring" unicode="&#x2da;" horiz-adv-x="247" 
d="M49.5 599q-30.5 31 -30.5 75t30.5 75t73.5 31q44 0 74.5 -31t30.5 -75t-30.5 -75t-74.5 -31q-43 0 -73.5 31zM163 633q17 17 17 41q0 25 -16.5 42t-40.5 17q-23 0 -39.5 -17t-16.5 -42q0 -24 16.5 -41t39.5 -17t40 17z" />
    <glyph glyph-name="ogonek" unicode="&#x2db;" horiz-adv-x="132" 
d="M127 -173q0 -7 -8 -10q-20 -4 -36 -4q-35 0 -59 18.5t-24 64.5q0 55 45 97l4 4q3 3 10 3h41q7 0 8.5 -3.5t-3.5 -8.5q-41 -41 -41 -78q0 -22 10 -32.5t26 -10.5q7 0 10 1h3q8 0 9 -7l5 -32v-2z" />
    <glyph glyph-name="tilde" unicode="&#x2dc;" horiz-adv-x="316" 
d="M182.5 594q-11.5 5 -29.5 15q-5 3 -13.5 9t-15 8.5t-14.5 2.5q-13 0 -23 -5.5t-19 -20.5q-2 -4 -6 -5t-8 2l-28 20q-7 6 -4 13q14 30 35 45t46 15q16 0 30 -6t30 -17q4 -2 12 -8t16 -9t16 -3q12 0 22 5.5t19 20.5q4 9 14 3l27 -18q4 -3 4 -9q0 -4 -3 -10
q-15 -28 -38 -40.5t-45 -12.5q-13 0 -24.5 5z" />
    <glyph glyph-name="hungarumlaut" unicode="&#x2dd;" horiz-adv-x="338" 
d="M25 587.5q-2 3.5 1 8.5l61 108q5 7 12 7h69q6 0 8 -3.5t-1 -8.5l-73 -109q-4 -6 -12 -6h-57q-6 0 -8 3.5zM162 587.5q-2 3.5 1 8.5l61 108q5 7 12 7h69q6 0 8 -3.5t-1 -8.5l-73 -109q-4 -6 -12 -6h-57q-6 0 -8 3.5z" />
    <glyph glyph-name="gravecomb" unicode="&#x300;" horiz-adv-x="0" 
d="M-5 582q0 -6 -9 -6h-58q-8 0 -12 6l-73 109l-2 5q0 7 9 7h69q7 0 12 -7l62 -108q2 -4 2 -6z" />
    <glyph glyph-name="acutecomb" unicode="&#x301;" horiz-adv-x="0" 
d="M-159 579.5q-2 3.5 1 8.5l62 108q5 7 12 7h69q6 0 8 -3.5t-1 -8.5l-73 -109q-4 -6 -12 -6h-58q-6 0 -8 3.5z" />
    <glyph glyph-name="uni0302" unicode="&#x302;" horiz-adv-x="0" 
d="M-251.5 573.5q-1.5 3.5 1.5 8.5l67 105q5 7 12 7h81q7 0 12 -7l69 -105q2 -4 2 -6q0 -6 -8 -6h-61q-7 0 -12 7l-39 69q-1 2 -3 2t-3 -2l-39 -69q-5 -7 -12 -7h-60q-6 0 -7.5 3.5z" />
    <glyph glyph-name="tildecomb" unicode="&#x303;" horiz-adv-x="0" 
d="M-114.5 594q-11.5 5 -29.5 15q-5 3 -13.5 9t-15 8.5t-14.5 2.5q-13 0 -23 -5.5t-19 -20.5q-2 -4 -6 -5t-8 2l-28 20q-7 6 -4 13q14 30 35 45t46 15q16 0 30 -6t30 -17q4 -2 12 -8t16 -9t16 -3q12 0 22 5.5t19 20.5q4 9 14 3l27 -18q4 -3 4 -9q0 -4 -3 -10
q-15 -28 -38 -40.5t-45 -12.5q-13 0 -24.5 5z" />
    <glyph glyph-name="uni0304" unicode="&#x304;" horiz-adv-x="0" 
d="M-323 600v48q0 10 10 10h188q10 0 10 -10v-48q0 -10 -10 -10h-188q-10 0 -10 10z" />
    <glyph glyph-name="uni0306" unicode="&#x306;" horiz-adv-x="0" 
d="M-205 572q-31 28 -35 71q0 10 10 10h34q10 0 11 -10q3 -23 18.5 -38t37.5 -15t37 15t18 38q1 10 11 10h34q10 0 10 -10q-4 -44 -34.5 -71.5t-75.5 -27.5t-76 28z" />
    <glyph glyph-name="uni0307" unicode="&#x307;" horiz-adv-x="0" 
d="M-84 588.5q-14 14.5 -14 37.5t14 37t36 14q21 0 34.5 -14.5t13.5 -36.5q0 -23 -13.5 -37.5t-34.5 -14.5q-22 0 -36 14.5z" />
    <glyph glyph-name="uni0308" unicode="&#x308;" horiz-adv-x="0" 
d="M-234.5 600.5q-15.5 15.5 -15.5 39.5t15.5 39.5t38.5 15.5q22 0 36.5 -15.5t14.5 -39.5t-14.5 -39.5t-36.5 -15.5q-23 0 -38.5 15.5zM-90.5 600.5q-14.5 15.5 -14.5 39.5t14.5 39.5t38.5 15.5q23 0 37.5 -15.5t14.5 -39.5t-14.5 -39.5t-37.5 -15.5q-24 0 -38.5 15.5z" />
    <glyph glyph-name="uni030A" unicode="&#x30a;" horiz-adv-x="0" 
d="M-178.5 599q-30.5 31 -30.5 75t30.5 75t73.5 31q44 0 74.5 -31t30.5 -75t-30.5 -75t-74.5 -31q-43 0 -73.5 31zM-65 633q17 17 17 41q0 25 -16.5 42t-40.5 17q-23 0 -39.5 -17t-16.5 -42q0 -24 16.5 -41t39.5 -17t40 17z" />
    <glyph glyph-name="uni030B" unicode="&#x30b;" horiz-adv-x="0" 
d="M-299 577.5q-2 3.5 0 8.5l54 108q3 7 12 7h63q6 0 8.5 -3.5t-0.5 -8.5l-59 -108q-3 -7 -12 -7h-59q-5 0 -7 3.5zM-162.5 577.5q-2.5 3.5 0.5 8.5l58 108q3 7 12 7h59q6 0 8.5 -3.5t-0.5 -8.5l-59 -108q-3 -7 -12 -7h-58q-6 0 -8.5 3.5z" />
    <glyph glyph-name="uni030C" unicode="&#x30c;" horiz-adv-x="0" 
d="M-196 569l-67 105q-2 4 -2 6q0 6 8 6h58q7 0 12 -7l41 -68q1 -1 3 -1t3 1l40 68q5 7 12 7h55q6 0 7.5 -3.5t-1.5 -8.5l-69 -105q-5 -7 -12 -7h-76q-7 0 -12 7z" />
    <glyph glyph-name="uni0312" unicode="&#x312;" horiz-adv-x="0" 
d="M-25 688.5q2 -3.5 -1 -8.5l-62 -108q-5 -7 -12 -7h-69q-6 0 -8 3.5t1 8.5l73 109q4 6 12 6h58q6 0 8 -3.5z" />
    <glyph glyph-name="uni0313" unicode="&#x313;" horiz-adv-x="0" 
d="M-159 579.5q-2 3.5 1 8.5l62 108q5 7 12 7h69q6 0 8 -3.5t-1 -8.5l-73 -109q-4 -6 -12 -6h-58q-6 0 -8 3.5z" />
    <glyph glyph-name="uni0326" unicode="&#x326;" horiz-adv-x="0" 
d="M-178 -178.5q-2 3.5 1 8.5l62 108q5 7 12 7h69q6 0 8 -3.5t-1 -8.5l-73 -109q-4 -6 -12 -6h-58q-6 0 -8 3.5z" />
    <glyph glyph-name="uni0327" unicode="&#x327;" horiz-adv-x="0" 
d="M-127 -171l5 32q1 9 12 7q4 -1 10 -1q16 0 26 10.5t10 32.5q0 37 -41 78q-3 3 -3 7q0 5 8 5h41q7 0 10 -3l4 -4q45 -42 45 -97q0 -15 -2 -23q-7 -33 -29.5 -46.5t-51.5 -13.5q-16 0 -36 4q-9 3 -8 12z" />
    <glyph glyph-name="uni0328" unicode="&#x328;" horiz-adv-x="0" 
d="M-5 -173q0 -7 -8 -10q-20 -4 -36 -4q-35 0 -59 18.5t-24 64.5q0 55 45 97l4 4q3 3 10 3h41q7 0 8.5 -3.5t-3.5 -8.5q-41 -41 -41 -78q0 -22 10 -32.5t26 -10.5q7 0 10 1h3q8 0 9 -7l5 -32v-2z" />
    <glyph glyph-name="uni0335" unicode="&#x335;" horiz-adv-x="0" 
d="M-271 624h261q10 0 10 -10v-41q0 -10 -10 -10h-261q-10 0 -10 10v41q0 10 10 10z" />
    <glyph glyph-name="uni0336" unicode="&#x336;" horiz-adv-x="0" 
d="M-446 523v48q0 10 10 10h426q10 0 10 -10v-48q0 -10 -10 -10h-426q-10 0 -10 10z" />
    <glyph glyph-name="uni0337" unicode="&#x337;" horiz-adv-x="0" 
d="M-305 132q-4 0 -7 4l-35 42q-3 3 -3 7t4 7l357 275q2 2 6 2q5 0 8 -4l35 -42q3 -3 3 -7t-4 -7l-357 -274q-3 -3 -7 -3z" />
    <glyph glyph-name="uni0338" unicode="&#x338;" horiz-adv-x="0" 
d="M-399.5 -39.5q-2.5 3.5 -0.5 8.5l329 771q3 8 11 8h47q5 0 7.5 -3.5t0.5 -8.5l-330 -771q-3 -8 -11 -8h-46q-5 0 -7.5 3.5z" />
    <glyph glyph-name="uni0394" unicode="&#x394;" horiz-adv-x="549" 
d="M29 10v67q0 4 2 12l205 603q3 8 12 8h53q9 0 12 -8l206 -604q2 -8 2 -12v-66q0 -10 -10 -10h-472q-10 0 -10 10zM123.5 84.5q1.5 -1.5 3.5 -1.5h295q2 0 3.5 1.5t0.5 3.5l-148 482q-1 2 -3 2t-3 -2l-149 -482q-1 -2 0.5 -3.5z" />
    <glyph glyph-name="uni03A9" unicode="&#x3a9;" horiz-adv-x="487" 
d="M48 10v63q0 10 10 10h49q5 0 2 5q-48 46 -48 123v313q0 83 50.5 133.5t132.5 50.5q83 0 133.5 -50.5t50.5 -133.5v-313q0 -77 -49 -123q-3 -5 2 -5h48q10 0 10 -10v-63q0 -10 -10 -10h-154q-10 0 -10 10v64q0 8 9 11q24 7 41 32.5t17 60.5v351q0 43 -24 69.5t-64 26.5
q-39 0 -63 -26.5t-24 -69.5v-351q0 -35 16.5 -60t40.5 -32q9 -3 9 -11v-65q0 -10 -10 -10h-155q-10 0 -10 10z" />
    <glyph glyph-name="uni03BC" unicode="&#x3bc;" horiz-adv-x="437" 
d="M298 509h76q10 0 10 -10v-489q0 -10 -10 -10h-76q-10 0 -10 10v29q0 3 -1.5 3t-3.5 -2q-30 -47 -96 -47q-18 0 -35 3q-1 1 -2.5 -0.5t-1.5 -3.5v-182q0 -10 -10 -10h-76q-10 0 -10 10v689q0 10 10 10h77q10 0 10 -10v-337q0 -86 68 -86q34 0 52.5 24.5t18.5 67.5v331
q0 10 10 10z" />
    <glyph glyph-name="pi" unicode="&#x3c0;" horiz-adv-x="519" 
d="M480 427h-47q-4 0 -4 -4v-291q0 -32 10.5 -40.5t32.5 -7.5q10 0 10 -10v-64q0 -10 -10 -10q-44 -1 -71.5 2.5t-48 22t-20.5 59.5v339q0 4 -4 4h-135q-4 0 -4 -4v-413q0 -10 -10 -10h-76q-10 0 -10 10v413q0 4 -4 4h-50q-10 0 -10 10v62q0 10 10 10h441q10 0 10 -10v-62
q0 -10 -10 -10z" />
    <glyph glyph-name="Wgrave" unicode="&#x1e80;" horiz-adv-x="646" 
d="M159 9l-133 680v2q0 9 9 9h79q10 0 11 -9l81 -469q1 -2 2 -2t2 2l72 469q1 9 10 9h67q9 0 10 -9l77 -469q1 -2 2 -2t2 2l74 469q2 9 10 9h78q5 0 7.5 -3t1.5 -8l-126 -680q-1 -9 -11 -9h-71q-8 0 -10 9l-76 473q-1 2 -2.5 2t-1.5 -2l-72 -473q-1 -9 -10 -9h-71
q-9 0 -11 9zM356 773q0 -6 -9 -6h-58q-8 0 -12 6l-73 109l-2 5q0 7 9 7h69q7 0 12 -7l62 -108q2 -4 2 -6z" />
    <glyph glyph-name="wgrave" unicode="&#x1e81;" horiz-adv-x="575" 
d="M128 9l-107 489v2q0 9 9 9h73q10 0 11 -9l62 -358q1 -2 2 -2t2 2l63 358q2 9 11 9h66q10 0 11 -9l65 -358q1 -2 2 -2t2 2l63 358q2 9 11 9l71 -1q11 0 9 -11l-107 -488q-1 -9 -11 -9h-74q-9 0 -11 9l-64 329q-1 2 -2 2t-2 -2l-61 -329q-1 -9 -11 -9h-72q-9 0 -11 9z
M323 582q0 -6 -9 -6h-58q-8 0 -12 6l-73 109l-2 5q0 7 9 7h69q7 0 12 -7l62 -108q2 -4 2 -6z" />
    <glyph glyph-name="Wacute" unicode="&#x1e82;" horiz-adv-x="646" 
d="M159 9l-133 680v2q0 9 9 9h79q10 0 11 -9l81 -469q1 -2 2 -2t2 2l72 469q1 9 10 9h67q9 0 10 -9l77 -469q1 -2 2 -2t2 2l74 469q2 9 10 9h78q5 0 7.5 -3t1.5 -8l-126 -680q-1 -9 -11 -9h-71q-8 0 -10 9l-76 473q-1 2 -2.5 2t-1.5 -2l-72 -473q-1 -9 -10 -9h-71
q-9 0 -11 9zM265 770.5q-2 3.5 1 8.5l62 108q5 7 12 7h69q6 0 8 -3.5t-1 -8.5l-73 -109q-4 -6 -12 -6h-58q-6 0 -8 3.5z" />
    <glyph glyph-name="wacute" unicode="&#x1e83;" horiz-adv-x="575" 
d="M128 9l-107 489v2q0 9 9 9h73q10 0 11 -9l62 -358q1 -2 2 -2t2 2l63 358q2 9 11 9h66q10 0 11 -9l65 -358q1 -2 2 -2t2 2l63 358q2 9 11 9l71 -1q11 0 9 -11l-107 -488q-1 -9 -11 -9h-74q-9 0 -11 9l-64 329q-1 2 -2 2t-2 -2l-61 -329q-1 -9 -11 -9h-72q-9 0 -11 9z
M232 579.5q-2 3.5 1 8.5l62 108q5 7 12 7h69q6 0 8 -3.5t-1 -8.5l-73 -109q-4 -6 -12 -6h-58q-6 0 -8 3.5z" />
    <glyph glyph-name="Wdieresis" unicode="&#x1e84;" horiz-adv-x="646" 
d="M159 9l-133 680v2q0 9 9 9h79q10 0 11 -9l81 -469q1 -2 2 -2t2 2l72 469q1 9 10 9h67q9 0 10 -9l77 -469q1 -2 2 -2t2 2l74 469q2 9 10 9h78q5 0 7.5 -3t1.5 -8l-126 -680q-1 -9 -11 -9h-71q-8 0 -10 9l-76 473q-1 2 -2.5 2t-1.5 -2l-72 -473q-1 -9 -10 -9h-71
q-9 0 -11 9zM211.5 791.5q-15.5 15.5 -15.5 39.5t15.5 39.5t38.5 15.5q22 0 36.5 -15.5t14.5 -39.5t-14.5 -39.5t-36.5 -15.5q-23 0 -38.5 15.5zM355.5 791.5q-14.5 15.5 -14.5 39.5t14.5 39.5t38.5 15.5q23 0 37.5 -15.5t14.5 -39.5t-14.5 -39.5t-37.5 -15.5
q-24 0 -38.5 15.5z" />
    <glyph glyph-name="wdieresis" unicode="&#x1e85;" horiz-adv-x="575" 
d="M128 9l-107 489v2q0 9 9 9h73q10 0 11 -9l62 -358q1 -2 2 -2t2 2l63 358q2 9 11 9h66q10 0 11 -9l65 -358q1 -2 2 -2t2 2l63 358q2 9 11 9l71 -1q11 0 9 -11l-107 -488q-1 -9 -11 -9h-74q-9 0 -11 9l-64 329q-1 2 -2 2t-2 -2l-61 -329q-1 -9 -11 -9h-72q-9 0 -11 9z
M178.5 600.5q-15.5 15.5 -15.5 39.5t15.5 39.5t38.5 15.5q22 0 36.5 -15.5t14.5 -39.5t-14.5 -39.5t-36.5 -15.5q-23 0 -38.5 15.5zM322.5 600.5q-14.5 15.5 -14.5 39.5t14.5 39.5t38.5 15.5q23 0 37.5 -15.5t14.5 -39.5t-14.5 -39.5t-37.5 -15.5q-24 0 -38.5 15.5z" />
    <glyph glyph-name="Ygrave" unicode="&#x1ef2;" horiz-adv-x="442" 
d="M173 11v286l-1 5l-139 387l-1 4q0 7 9 7h80q9 0 12 -8l85 -276q1 -2 3 -2t3 2l85 276q3 8 12 8h80q11 0 8 -11l-139 -387l-1 -5v-286q0 -10 -10 -10h-76q-10 0 -10 10zM257 773q0 -6 -9 -6h-58q-8 0 -12 6l-73 109l-2 5q0 7 9 7h69q7 0 12 -7l62 -108q2 -4 2 -6z" />
    <glyph glyph-name="ygrave" unicode="&#x1ef3;" horiz-adv-x="387" 
d="M38 -197q-2 3 -2 7v61q0 10 5 10h5q32 0 50.5 9.5t30 34t19.5 72.5l-1 5l-128 496l-1 3q0 8 10 8h82q10 0 11 -9l73 -361q1 -3 2 -3t2 3l72 361q2 9 11 9l83 -1q5 0 7.5 -3t0.5 -8l-137 -532q-19 -69 -38 -103t-52.5 -48t-95.5 -14h-5q-2 0 -4 3zM230 582q0 -6 -9 -6h-58
q-8 0 -12 6l-73 109l-2 5q0 7 9 7h69q7 0 12 -7l62 -108q2 -4 2 -6z" />
    <glyph glyph-name="endash" unicode="&#x2013;" horiz-adv-x="375" 
d="M29 252v63q0 10 10 10h297q10 0 10 -10v-63q0 -10 -10 -10h-297q-10 0 -10 10z" />
    <glyph glyph-name="emdash" unicode="&#x2014;" horiz-adv-x="592" 
d="M29 252v63q0 10 10 10h514q10 0 10 -10v-63q0 -10 -10 -10h-514q-10 0 -10 10z" />
    <glyph glyph-name="quoteleft" unicode="&#x2018;" horiz-adv-x="146" 
d="M4 499l63 193q3 8 12 8h56q5 0 7.5 -3t1.5 -8l-44 -192q-2 -9 -11 -9h-77q-11 0 -8 11z" />
    <glyph glyph-name="quoteright" unicode="&#x2019;" horiz-adv-x="146" 
d="M142 689l-63 -193q-3 -8 -12 -8h-56q-5 0 -7.5 3t-1.5 8l44 192q2 9 11 9h77q11 0 8 -11z" />
    <glyph glyph-name="quotesinglbase" unicode="&#x201a;" horiz-adv-x="600" 
d="M37 -82.5q-3 3.5 -2 7.5l29 222q1 9 10 9h66q11 0 9 -11l-48 -222q-1 -9 -11 -9h-45q-5 0 -8 3.5z" />
    <glyph glyph-name="quotedblleft" unicode="&#x201c;" horiz-adv-x="287" 
d="M4 499l67 193q3 8 12 8h54q11 0 8 -11l-48 -192q-1 -9 -11 -9h-74q-11 0 -8 11zM144 499l65 193q3 8 12 8h55q11 0 8 -11l-47 -192q-1 -9 -11 -9h-74q-11 0 -8 11z" />
    <glyph glyph-name="quotedblright" unicode="&#x201d;" horiz-adv-x="287" 
d="M143 689l-65 -193q-3 -8 -12 -8h-55q-11 0 -8 11l47 192q2 9 11 9h74q11 0 8 -11zM283 689l-67 -193q-3 -8 -12 -8h-54q-11 0 -8 11l48 192q2 9 11 9h74q11 0 8 -11z" />
    <glyph glyph-name="quotedblbase" unicode="&#x201e;" horiz-adv-x="277" 
d="M143 117l-65 -193q-3 -8 -12 -8h-55q-11 0 -8 11l47 192q2 9 11 9h74q11 0 8 -11zM283 117l-67 -193q-3 -8 -12 -8h-54q-11 0 -8 11l48 192q2 9 11 9h74q11 0 8 -11z" />
    <glyph glyph-name="dagger" unicode="&#x2020;" horiz-adv-x="347" 
d="M318 450v-54q0 -10 -10 -10h-82q-4 0 -4 -4v-572q0 -10 -10 -10h-76q-10 0 -10 10v572q0 4 -4 4h-83q-10 0 -10 10v54q0 10 10 10h83q4 0 4 4v226q0 10 10 10h76q10 0 10 -10v-226q0 -4 4 -4h82q10 0 10 -10z" />
    <glyph glyph-name="daggerdbl" unicode="&#x2021;" horiz-adv-x="347" 
d="M308 386h-82q-4 0 -4 -4v-264q0 -4 4 -4h82q10 0 10 -10v-54q0 -10 -10 -10h-82q-4 0 -4 -4v-226q0 -10 -10 -10h-76q-10 0 -10 10v226q0 4 -4 4h-83q-10 0 -10 10v54q0 10 10 10h83q4 0 4 4v264q0 4 -4 4h-83q-10 0 -10 10v54q0 10 10 10h83q4 0 4 4v226q0 10 10 10h76
q10 0 10 -10v-226q0 -4 4 -4h82q10 0 10 -10v-54q0 -10 -10 -10z" />
    <glyph glyph-name="bullet" unicode="&#x2022;" horiz-adv-x="299" 
d="M64.5 185.5q-35.5 35.5 -35.5 85.5t35.5 84.5t85.5 34.5t85 -34.5t35 -84.5t-35 -85.5t-85 -35.5t-85.5 35.5z" />
    <glyph glyph-name="ellipsis" unicode="&#x2026;" horiz-adv-x="683" 
d="M65.5 20q-18.5 20 -18.5 50q0 28 20 48t45 20q26 0 46 -20t20 -48q0 -29 -19 -49.5t-47 -20.5t-46.5 20zM292.5 20q-18.5 20 -18.5 50q0 28 20 48t45 20q26 0 46 -20t20 -48q0 -29 -19 -49.5t-47 -20.5t-46.5 20zM518.5 20q-18.5 20 -18.5 50q0 28 20 48t45 20
q26 0 46 -20t20 -48q0 -29 -19 -49.5t-47 -20.5t-46.5 20z" />
    <glyph glyph-name="perthousand" unicode="&#x2030;" horiz-adv-x="1013" 
d="M54.5 307q-30.5 32 -30.5 83v204q0 51 30.5 82.5t79.5 31.5q50 0 80.5 -31.5t30.5 -82.5v-204q0 -51 -31 -83t-80 -32t-79.5 32zM167.5 347q12.5 15 12.5 40v210q0 25 -12.5 40t-33.5 15q-20 0 -32.5 -15t-12.5 -40v-210q0 -25 12.5 -40t32.5 -15q21 0 33.5 15zM126 3.5
q-2 3.5 1 8.5l424 681q5 7 12 7h49q6 0 8 -3.5t-1 -8.5l-424 -681q-5 -7 -12 -7h-49q-6 0 -8 3.5zM529.5 24q-30.5 32 -30.5 83v204q0 51 30.5 82.5t79.5 31.5q50 0 80.5 -31.5t30.5 -82.5v-204q0 -51 -31 -83t-80 -32t-79.5 32zM642.5 64q12.5 15 12.5 40v210
q0 25 -12.5 40t-33.5 15q-20 0 -32.5 -15t-12.5 -40v-210q0 -25 12.5 -40t32.5 -15q21 0 33.5 15zM798.5 24q-30.5 32 -30.5 83v204q0 51 30.5 82.5t79.5 31.5q50 0 80.5 -31.5t30.5 -82.5v-204q0 -51 -31 -83t-80 -32t-79.5 32zM911.5 64q12.5 15 12.5 40v210
q0 25 -12.5 40t-33.5 15q-20 0 -32.5 -15t-12.5 -40v-210q0 -25 12.5 -40t32.5 -15q21 0 33.5 15z" />
    <glyph glyph-name="guilsinglleft" unicode="&#x2039;" horiz-adv-x="303" 
d="M236 113q0 -6 -9 -6h-70q-7 0 -12 7l-96 160q-2 3 -2 7t2 7l96 160q5 7 12 7h70q6 0 8 -3.5t-1 -8.5l-96 -159q-1 -3 0 -6l96 -159q2 -4 2 -6z" />
    <glyph glyph-name="guilsinglright" unicode="&#x203a;" horiz-adv-x="319" 
d="M68 110.5q-2 3.5 1 8.5l96 159q2 3 0 6l-96 159q-2 4 -2 6q0 6 9 6h70q7 0 12 -7l96 -160q2 -3 2 -7t-2 -7l-96 -160q-5 -7 -12 -7h-70q-6 0 -8 3.5z" />
    <glyph glyph-name="fraction" unicode="&#x2044;" horiz-adv-x="224" 
d="M-133 3.5q-2 3.5 1 8.5l424 681q5 7 12 7h49q6 0 8 -3.5t-1 -8.5l-424 -681q-5 -7 -12 -7h-49q-6 0 -8 3.5z" />
    <glyph glyph-name="uni2074" unicode="&#x2074;" horiz-adv-x="265" 
d="M255 592v-39q0 -10 -10 -10h-14q-4 0 -4 -4v-96q0 -10 -10 -10h-45q-10 0 -10 10v96q0 4 -4 4h-137q-10 0 -10 10v33q0 4 2 12l82 247q3 8 12 8h48q11 0 8 -11l-76 -235q-1 -2 0.5 -3.5t3.5 -1.5h67q4 0 4 4v71q0 10 10 10h45q10 0 10 -10v-71q0 -4 4 -4h14q10 0 10 -10z
" />
    <glyph glyph-name="uni2075" unicode="&#x2075;" horiz-adv-x="246" 
d="M229 561q0 -30 -4 -47q-4 -42 -31.5 -65t-71.5 -23t-71 22.5t-32 67.5l-2 24q0 10 10 10h45q10 0 10 -10q0 -12 1 -17q7 -40 39 -40q31 0 38 36q4 16 4 42q0 25 -4 40q-8 35 -38 35q-14 0 -24 -7t-14 -20q-3 -9 -11 -9h-47q-10 0 -10 10v231q0 10 10 10h186q10 0 10 -10
v-36q0 -10 -10 -10h-126q-4 0 -4 -4l-1 -115q0 -2 1.5 -3t3.5 1q22 19 56 19q35 0 56 -21t26 -61q5 -23 5 -50z" />
    <glyph glyph-name="uni2076" unicode="&#x2076;" horiz-adv-x="256" 
d="M238 561q0 -34 -5 -53q-5 -39 -32 -60.5t-69 -21.5q-41 0 -67 20.5t-34 61.5q-5 18 -5 49l-1 194q0 48 29 76.5t77 28.5q45 0 73 -28.5t28 -76.5v-11q0 -10 -10 -10h-45q-4 0 -7 2.5t-3 6.5v9q0 22 -10.5 36t-25.5 14q-18 0 -29.5 -14t-11.5 -36v-75q0 -2 1.5 -2.5
t3.5 1.5q20 22 54 22t56 -21.5t27 -60.5q6 -21 6 -51zM168 518q4 30 4 47q0 22 -5 49q-9 32 -36 32t-36 -31q-1 -1 -1 -4q-4 -32 -4 -46q0 -25 4 -46q8 -36 37 -36q27 0 36 31q1 1 1 4z" />
    <glyph glyph-name="uni2077" unicode="&#x2077;" horiz-adv-x="230" 
d="M55.5 436q-2.5 3 -1.5 8l99 349q1 1 -0.5 2.5t-3.5 1.5h-84q-4 0 -4 -4v-30q0 -10 -10 -10h-33q-10 0 -10 10v80q0 10 10 10h194q10 0 10 -10v-40q0 -2 -2 -12l-99 -350q-3 -8 -11 -8h-47q-5 0 -7.5 3z" />
    <glyph glyph-name="uni2078" unicode="&#x2078;" horiz-adv-x="260" 
d="M190 649q29 -18 39 -51q6 -25 6 -47t-6 -48q-11 -35 -37.5 -56t-62.5 -21q-35 0 -60.5 21t-37.5 56q-6 19 -6 48q0 30 6 48q8 31 37 50q4 3 0 6q-27 17 -37 49q-7 21 -7 42q0 25 7 42q11 34 37 52t61 18q36 0 62.5 -18.5t37.5 -51.5q7 -24 7 -42q0 -17 -7 -42
q-10 -31 -39 -49q-5 -3 0 -6zM88 740q0 -13 1 -20q8 -43 40 -43q33 0 41 43q1 7 1 20t-1 20q-4 20 -14.5 31t-26.5 11t-27 -11.5t-13 -30.5zM170.5 543q-0.5 8 -0.5 11q0 4 0.5 12t-0.5 15q-3 22 -13.5 34t-27.5 12t-28 -12.5t-12 -33.5v-52q1 -21 12 -33.5t28 -12.5
t27.5 12t13.5 34q1 6 0.5 14z" />
    <glyph glyph-name="uni2079" unicode="&#x2079;" horiz-adv-x="256" 
d="M231 532q0 -48 -29 -76.5t-77 -28.5q-45 0 -73 28.5t-28 76.5v11q0 10 10 10h45q4 0 7 -2.5t3 -6.5v-9q0 -22 10.5 -36t25.5 -14q18 0 29.5 14t11.5 36v75q0 2 -1.5 2.5t-3.5 -1.5q-20 -22 -54 -22t-56 21.5t-27 60.5q-6 21 -6 51q0 34 5 53q5 39 32 60.5t69 21.5
q41 0 67 -20.5t34 -61.5q5 -17 5 -49zM161 668q1 1 1 4q4 32 4 46q0 25 -4 46q-8 36 -37 36q-27 0 -36 -31q-1 -1 -1 -4q-4 -30 -4 -47q0 -22 5 -49q9 -32 36 -32t36 31z" />
    <glyph glyph-name="franc" unicode="&#x20a3;" horiz-adv-x="476" 
d="M453 617h-224q-4 0 -4 -4v-217q0 -4 4 -4h137q10 0 10 -10v-63q0 -10 -10 -10h-137q-4 0 -4 -4v-108q0 -4 4 -4h104q10 0 10 -10v-41q0 -10 -10 -10h-104q-4 0 -4 -4v-118q0 -10 -10 -10h-76q-10 0 -10 10v118q0 4 -4 4h-53q-10 0 -10 10v41q0 10 10 10h53q4 0 4 4v493
q0 10 10 10h314q10 0 10 -10v-63q0 -10 -10 -10z" />
    <glyph glyph-name="Euro" unicode="&#x20ac;" horiz-adv-x="491" 
d="M330 95.5q19 20.5 22 55.5q2 11 11 9l74 -11q10 -2 9 -11q-9 -68 -53 -107t-111 -39q-75 0 -120.5 49.5t-45.5 131.5v88q0 4 -4 4h-54q-10 0 -10 10v34q0 10 10 10h54q4 0 4 4v52q0 4 -4 4h-54q-10 0 -10 10v33q0 10 10 10h54q4 0 4 4v92q0 82 45.5 131t120.5 49
q69 0 113 -40t52 -110v-2q0 -7 -9 -9l-75 -10h-2q-7 0 -9 10q-3 35 -22 56.5t-48 21.5q-32 0 -51 -25t-19 -66v-98q0 -4 4 -4h161q11 0 8 -11l-11 -34q-3 -8 -12 -8h-146q-4 0 -4 -4v-52q0 -4 4 -4h130q11 0 8 -11l-12 -35q-3 -8 -12 -8h-114q-4 0 -4 -4v-95q0 -41 19 -66
t51 -25q29 0 48 20.5z" />
    <glyph glyph-name="uni20BA" unicode="&#x20ba;" horiz-adv-x="568" 
d="M525 263q-2 -106 -67 -177.5t-187 -81.5q-61 -5 -106 -4q-10 0 -10 10v289q0 2 -1.5 3.5t-3.5 0.5l-76 -24l-4 -1q-6 0 -9 8l-10 36l-1 5q0 6 7 8l95 29q3 2 3 4v54q0 2 -1.5 3.5t-3.5 0.5l-76 -24l-4 -1q-6 0 -9 8l-10 35l-1 5q0 6 7 8l95 29q3 2 3 4v200q0 10 10 10h76
q10 0 10 -10v-169q0 -2 1.5 -3.5t3.5 -0.5l125 39l4 1q6 0 9 -8l11 -36l1 -4q0 -6 -8 -9l-144 -43q-3 -1 -3 -4v-54q0 -2 1.5 -3.5t3.5 -0.5l125 39l4 1q6 0 9 -8l11 -36l1 -4q0 -6 -8 -9l-144 -44q-3 -1 -3 -4v-243q0 -4 4 -4q82 6 127 53.5t47 126.5q0 10 10 10h76
q10 0 10 -10z" />
    <glyph glyph-name="uni20BD" unicode="&#x20bd;" horiz-adv-x="517" 
d="M228 304q-4 0 -4 -4v-73q0 -4 4 -4h161q10 0 10 -10v-36q0 -10 -10 -10h-161q-4 0 -4 -4v-153q0 -10 -10 -10h-76q-10 0 -10 10v153q0 4 -4 4h-52q-10 0 -10 10v36q0 10 10 10h52q4 0 4 4v73q0 4 -4 4h-52q-10 0 -10 10v57q0 10 10 10h52q4 0 4 4v306q0 10 10 10h179
q50 0 89.5 -25t61 -71t21.5 -105q0 -88 -46.5 -142t-121.5 -54h-93zM224 614v-229q0 -4 4 -4h74q41 0 66 31.5t25 85.5q0 55 -25 87.5t-66 32.5h-74q-4 0 -4 -4z" />
    <glyph glyph-name="uni2113" unicode="&#x2113;" horiz-adv-x="426" 
d="M331 98q4 0 7 -4l33 -41q6 -6 0 -14q-41 -47 -122 -47q-64 0 -99.5 42.5t-35.5 118.5v71q0 5 -5 2l-28 -21l-5 -2q-6 0 -8 6l-17 43q-3 7 2 12l4 3q26 21 54 42q2 2 2 5l-1 189q0 50 17 97t50.5 77.5t79.5 30.5q52 0 84 -38.5t32 -98.5q0 -77 -48 -143.5t-132 -134.5
q-2 -2 -2 -5v-122q0 -101 66 -101q36 0 65 29q3 4 7 4zM192 385q0 -2 1.5 -3t3.5 1q49 45 77 90t28 91q0 34 -13 55.5t-36 19.5q-27 -4 -44.5 -43t-16.5 -106v-105z" />
    <glyph glyph-name="trademark" unicode="&#x2122;" horiz-adv-x="525" 
d="M15 661v29q0 10 10 10h192q10 0 10 -10v-29q0 -10 -10 -10h-66q-4 0 -4 -4v-288q0 -10 -10 -10h-36q-10 0 -10 10v288q0 4 -4 4h-62q-10 0 -10 10zM448 700h36q10 0 10 -10v-331q0 -10 -10 -10h-36q-10 0 -10 10v244q0 3 -1.5 3t-3.5 -2l-42 -83q-3 -7 -7 -7q-5 0 -8 7
l-43 84q-2 2 -3.5 2t-1.5 -3v-245q0 -10 -10 -10h-37q-10 0 -10 10v331q0 10 10 10h38q9 0 12 -7l49 -96q1 -2 3 -2t3 2l50 96q3 7 12 7z" />
    <glyph glyph-name="uni2126" unicode="&#x2126;" horiz-adv-x="487" 
d="M48 10v63q0 10 10 10h49q5 0 2 5q-48 46 -48 123v313q0 83 50.5 133.5t132.5 50.5q83 0 133.5 -50.5t50.5 -133.5v-313q0 -77 -49 -123q-3 -5 2 -5h48q10 0 10 -10v-63q0 -10 -10 -10h-154q-10 0 -10 10v64q0 8 9 11q24 7 41 32.5t17 60.5v351q0 43 -24 69.5t-64 26.5
q-39 0 -63 -26.5t-24 -69.5v-351q0 -35 16.5 -60t40.5 -32q9 -3 9 -11v-65q0 -10 -10 -10h-155q-10 0 -10 10z" />
    <glyph glyph-name="estimated" unicode="&#x212e;" horiz-adv-x="829" 
d="M603 661q84 -47 131.5 -129t47.5 -185q0 -4 -10 -4h-622q-4 0 -4 -4v-191q0 -3 2 -5q46 -57 114.5 -89t151.5 -32q94 0 174 46.5t121 122.5q4 7 12 7h15q5 0 7.5 -3.5t-0.5 -8.5q-44 -87 -133 -140.5t-196 -53.5q-105 0 -188.5 46.5t-130.5 127.5t-47 181q0 103 47 185.5
t130.5 129t188.5 46.5t189 -47zM147 551v-174q0 -4 4 -4h526q4 0 4 4v175q0 3 -2 5q-46 57 -114 89t-151 32t-151.5 -32t-113.5 -90q-2 -1 -2 -5z" />
    <glyph glyph-name="oneeighth" unicode="&#x215b;" horiz-adv-x="688" 
d="M65 700h48q10 0 10 -10v-400q0 -10 -10 -10h-45q-10 0 -10 10v346q0 2 -1.5 3.5t-2.5 0.5l-20 -5l-4 -1q-7 0 -7 9v29q0 7 7 12l22 13q5 3 13 3zM65 3.5q-2 3.5 1 8.5l424 681q5 7 12 7h49q6 0 8 -3.5t-1 -8.5l-424 -681q-5 -7 -12 -7h-49q-6 0 -8 3.5zM618 216
q29 -18 39 -51q6 -25 6 -47t-6 -48q-11 -35 -37.5 -56t-62.5 -21q-35 0 -60.5 21t-37.5 56q-6 19 -6 48q0 30 6 48q8 31 37 50q4 3 0 6q-27 17 -37 49q-7 21 -7 42q0 25 7 42q11 34 37 52t61 18q36 0 62.5 -18.5t37.5 -51.5q7 -24 7 -42q0 -17 -7 -42q-10 -31 -39 -49
q-5 -3 0 -6zM516 307q0 -13 1 -20q8 -43 40 -43q33 0 41 43q1 7 1 20t-1 20q-4 20 -14.5 31t-26.5 11t-27 -11.5t-13 -30.5zM598.5 110q-0.5 8 -0.5 11q0 4 0.5 12t-0.5 15q-3 22 -13.5 34t-27.5 12t-28 -12.5t-12 -33.5v-52q1 -21 12 -33.5t28 -12.5t27.5 12t13.5 34
q1 6 0.5 14z" />
    <glyph glyph-name="threeeighths" unicode="&#x215c;" horiz-adv-x="760" 
d="M240 409q0 -31 -6 -54q-1 -1 -1 -4q-6 -36 -32.5 -57t-66.5 -21q-45 0 -73.5 26.5t-32.5 68.5q-2 20 -2 31q0 10 10 10h44q10 0 10 -10q0 -6 2 -20q2 -23 13 -36t29 -13q29 0 39 35q6 24 6 50q0 27 -4 46q-8 40 -41 40q-4 0 -12 -2l-4 -2q-7 -3 -11 2l-22 22q-6 6 -1 14
l75 103q2 2 1 3.5t-3 1.5h-116q-10 0 -10 10v35q0 10 10 10h186q10 0 10 -10v-38q0 -8 -4 -13l-64 -89q-2 -3 1 -5q26 -5 43 -28.5t22 -56.5q5 -25 5 -49zM137 3.5q-2 3.5 1 8.5l424 681q5 7 12 7h49q6 0 8 -3.5t-1 -8.5l-424 -681q-5 -7 -12 -7h-49q-6 0 -8 3.5zM690 216
q29 -18 39 -51q6 -25 6 -47t-6 -48q-11 -35 -37.5 -56t-62.5 -21q-35 0 -60.5 21t-37.5 56q-6 19 -6 48q0 30 6 48q8 31 37 50q4 3 0 6q-27 17 -37 49q-7 21 -7 42q0 25 7 42q11 34 37 52t61 18q36 0 62.5 -18.5t37.5 -51.5q7 -24 7 -42q0 -17 -7 -42q-10 -31 -39 -49
q-5 -3 0 -6zM588 307q0 -13 1 -20q8 -43 40 -43q33 0 41 43q1 7 1 20t-1 20q-4 20 -14.5 31t-26.5 11t-27 -11.5t-13 -30.5zM670.5 110q-0.5 8 -0.5 11q0 4 0.5 12t-0.5 15q-3 22 -13.5 34t-27.5 12t-28 -12.5t-12 -33.5v-52q1 -21 12 -33.5t28 -12.5t27.5 12t13.5 34
q1 6 0.5 14z" />
    <glyph glyph-name="fiveeighths" unicode="&#x215d;" horiz-adv-x="719" 
d="M229 408q0 -30 -4 -47q-4 -42 -31.5 -65t-71.5 -23t-71 22.5t-32 67.5l-2 24q0 10 10 10h45q10 0 10 -10q0 -12 1 -17q7 -40 39 -40q31 0 38 36q4 16 4 42q0 25 -4 40q-8 35 -38 35q-14 0 -24 -7t-14 -20q-3 -9 -11 -9h-47q-10 0 -10 10v231q0 10 10 10h186q10 0 10 -10
v-36q0 -10 -10 -10h-126q-4 0 -4 -4l-1 -115q0 -2 1.5 -3t3.5 1q22 19 56 19q35 0 56 -21t26 -61q5 -23 5 -50zM96 3.5q-2 3.5 1 8.5l424 681q5 7 12 7h49q6 0 8 -3.5t-1 -8.5l-424 -681q-5 -7 -12 -7h-49q-6 0 -8 3.5zM649 216q29 -18 39 -51q6 -25 6 -47t-6 -48
q-11 -35 -37.5 -56t-62.5 -21q-35 0 -60.5 21t-37.5 56q-6 19 -6 48q0 30 6 48q8 31 37 50q4 3 0 6q-27 17 -37 49q-7 21 -7 42q0 25 7 42q11 34 37 52t61 18q36 0 62.5 -18.5t37.5 -51.5q7 -24 7 -42q0 -17 -7 -42q-10 -31 -39 -49q-5 -3 0 -6zM547 307q0 -13 1 -20
q8 -43 40 -43q33 0 41 43q1 7 1 20t-1 20q-4 20 -14.5 31t-26.5 11t-27 -11.5t-13 -30.5zM629.5 110q-0.5 8 -0.5 11q0 4 0.5 12t-0.5 15q-3 22 -13.5 34t-27.5 12t-28 -12.5t-12 -33.5v-52q1 -21 12 -33.5t28 -12.5t27.5 12t13.5 34q1 6 0.5 14z" />
    <glyph glyph-name="seveneighths" unicode="&#x215e;" horiz-adv-x="686" 
d="M55.5 283q-2.5 3 -1.5 8l99 349q1 1 -0.5 2.5t-3.5 1.5h-84q-4 0 -4 -4v-30q0 -10 -10 -10h-33q-10 0 -10 10v80q0 10 10 10h194q10 0 10 -10v-40q0 -2 -2 -12l-99 -350q-3 -8 -11 -8h-47q-5 0 -7.5 3zM63 3.5q-2 3.5 1 8.5l424 681q5 7 12 7h49q6 0 8 -3.5t-1 -8.5
l-424 -681q-5 -7 -12 -7h-49q-6 0 -8 3.5zM616 216q29 -18 39 -51q6 -25 6 -47t-6 -48q-11 -35 -37.5 -56t-62.5 -21q-35 0 -60.5 21t-37.5 56q-6 19 -6 48q0 30 6 48q8 31 37 50q4 3 0 6q-27 17 -37 49q-7 21 -7 42q0 25 7 42q11 34 37 52t61 18q36 0 62.5 -18.5
t37.5 -51.5q7 -24 7 -42q0 -17 -7 -42q-10 -31 -39 -49q-5 -3 0 -6zM514 307q0 -13 1 -20q8 -43 40 -43q33 0 41 43q1 7 1 20t-1 20q-4 20 -14.5 31t-26.5 11t-27 -11.5t-13 -30.5zM596.5 110q-0.5 8 -0.5 11q0 4 0.5 12t-0.5 15q-3 22 -13.5 34t-27.5 12t-28 -12.5
t-12 -33.5v-52q1 -21 12 -33.5t28 -12.5t27.5 12t13.5 34q1 6 0.5 14z" />
    <glyph glyph-name="partialdiff" unicode="&#x2202;" horiz-adv-x="529" 
d="M456 492.5q19 -78.5 19 -160.5q0 -31 -3 -60q-10 -118 -63 -199t-161 -81q-59 0 -105.5 25t-73 74.5t-26.5 119.5q0 73 29 124.5t75.5 77t98.5 25.5q70 0 128 -42q2 -1 3.5 -0.5t0.5 2.5q-12 107 -51 163q-40 54 -99 54q-21 0 -45.5 -7t-45.5 -20q-4 -2 -6 -2q-5 0 -7 6
l-26 64l-1 4q0 7 7 10q71 36 132 36q50 0 91.5 -22t71.5 -62q38 -51 57 -129.5zM345 127.5q31 52.5 37 143.5q0 4 -1 5q-16 37 -49.5 59.5t-71.5 22.5q-52 0 -86.5 -40t-34.5 -107q0 -62 32.5 -99t84.5 -37q58 0 89 52.5z" />
    <glyph glyph-name="uni2206" unicode="&#x2206;" horiz-adv-x="549" 
d="M29 10v67q0 4 2 12l205 603q3 8 12 8h53q9 0 12 -8l206 -604q2 -8 2 -12v-66q0 -10 -10 -10h-472q-10 0 -10 10zM123.5 84.5q1.5 -1.5 3.5 -1.5h295q2 0 3.5 1.5t0.5 3.5l-148 482q-1 2 -3 2t-3 -2l-149 -482q-1 -2 0.5 -3.5z" />
    <glyph glyph-name="product" unicode="&#x220f;" horiz-adv-x="476" 
d="M414 790v-980q0 -10 -10 -10h-76q-10 0 -10 10v903q0 4 -4 4h-152q-4 0 -4 -4v-903q0 -10 -10 -10h-76q-10 0 -10 10v980q0 10 10 10h332q10 0 10 -10z" />
    <glyph glyph-name="summation" unicode="&#x2211;" horiz-adv-x="507" 
d="M62 -189v65q0 5 3 13l204 416q1 2 -1 6l-202 344q-3 6 -3 13v66q0 10 10 10h388q10 0 10 -10v-63q0 -10 -10 -10h-302q-2 0 -3 -1.5t0 -3.5l206 -341q2 -4 2 -6t-2 -8l-207 -413q-2 -5 3 -5h303q10 0 10 -10v-62q0 -10 -10 -10h-389q-10 0 -10 10z" />
    <glyph glyph-name="minus" unicode="&#x2212;" horiz-adv-x="440" 
d="M29 287v54q0 10 10 10h362q10 0 10 -10v-54q0 -10 -10 -10h-362q-10 0 -10 10z" />
    <glyph glyph-name="uni2215" unicode="&#x2215;" horiz-adv-x="427" 
d="M24.5 3.5q-2.5 3.5 -0.5 8.5l292 680q3 8 11 8h68q5 0 7.5 -3.5t0.5 -8.5l-291 -680q-3 -8 -11 -8h-69q-5 0 -7.5 3.5z" />
    <glyph glyph-name="uni2219" unicode="&#x2219;" horiz-adv-x="299" 
d="M64.5 220.5q-35.5 35.5 -35.5 85.5t35.5 85t85.5 35t85 -35t35 -85t-35.5 -85.5t-84.5 -35.5q-50 0 -85.5 35.5z" />
    <glyph glyph-name="radical" unicode="&#x221a;" horiz-adv-x="677" 
d="M144 -192l-122 367l-1 4q0 6 8 9l70 23l4 1q6 0 9 -8l73 -242q1 -2 2.5 -2t2.5 2l188 821q2 9 11 9h226q10 0 10 -10v-63q0 -10 -10 -10h-157q-5 0 -5 -3l-209 -897q-2 -9 -11 -9h-77q-9 0 -12 8z" />
    <glyph glyph-name="infinity" unicode="&#x221e;" horiz-adv-x="646" 
d="M544.5 466q33.5 -22 52.5 -60.5t19 -86.5q0 -49 -19.5 -87.5t-53.5 -59.5t-75 -21q-44 0 -79.5 26.5t-67.5 72.5q-3 3 -6 0q-67 -99 -144 -99q-39 0 -71.5 22t-51.5 61t-19 86q0 49 19.5 87.5t52.5 59.5t72 21q43 0 77.5 -26.5t65.5 -71.5q3 -3 6 0q70 98 148 98
q41 0 74.5 -22zM219 248.5q23 21.5 54 69.5q2 3 0 6q-30 47 -51.5 67.5t-47.5 20.5q-29 0 -49.5 -25t-20.5 -67q0 -41 20 -67t48 -26q24 0 47 21.5zM520.5 252q20.5 25 20.5 67t-20 67.5t-49 25.5q-27 0 -53 -21.5t-57 -67.5q-2 -3 1 -7q27 -43 52 -66t54 -23q31 0 51.5 25z
" />
    <glyph glyph-name="integral" unicode="&#x222b;" horiz-adv-x="329" 
d="M25 -195v65q0 10 10 10h14q35 0 48.5 24t13.5 70l3 579q0 59 17 91.5t55 46t105 14.5q10 0 10 -10v-65q0 -10 -10 -10h-16q-35 0 -48.5 -23.5t-14.5 -70.5l-2 -579q-1 -59 -17.5 -91.5t-54 -46t-103.5 -14.5q-10 0 -10 10z" />
    <glyph glyph-name="approxequal" unicode="&#x2248;" horiz-adv-x="471" 
d="M277.5 358q-18.5 8 -45.5 24q-5 3 -19.5 11t-27 12t-24.5 4q-42 0 -69 -39q-5 -10 -14 -4l-41 25q-8 5 -5 14q16 39 48 63.5t73 24.5q23 0 42 -7t38 -19q28 -17 45 -25t39 -8q19 0 32.5 10t26.5 29q6 8 14 3l44 -27q8 -5 4 -11l-2 -4q-48 -84 -114 -84q-26 0 -44.5 8z
M277.5 148q-18.5 8 -45.5 24q-5 3 -19.5 11t-27 12t-24.5 4q-42 0 -69 -39q-5 -10 -14 -4l-41 25q-8 5 -5 14q16 39 48 63.5t73 24.5q23 0 42 -7t38 -19q28 -17 45 -25t39 -8q19 0 32.5 10t26.5 29q6 8 14 3l44 -27q8 -5 4 -11l-2 -4q-48 -84 -114 -84q-26 0 -44.5 8z" />
    <glyph glyph-name="notequal" unicode="&#x2260;" horiz-adv-x="440" 
d="M401 386h-125q-2 0 -4 -3l-53 -115q-1 -2 0 -3.5t3 -1.5h179q10 0 10 -10v-54q0 -10 -10 -10h-214q-2 0 -4 -3l-40 -86q-3 -8 -11 -8h-40q-5 0 -7.5 3.5t-0.5 8.5l37 80q1 2 0 3.5t-3 1.5h-79q-10 0 -10 10v54q0 10 10 10h114q3 0 4 3l52 115q1 2 0 3.5t-3 1.5h-167
q-10 0 -10 10v54q0 10 10 10h203q3 0 4 3l38 83q3 8 11 8h41q5 0 7.5 -3.5t0.5 -8.5l-36 -77q-1 -2 0 -3.5t3 -1.5h90q10 0 10 -10v-54q0 -10 -10 -10z" />
    <glyph glyph-name="lessequal" unicode="&#x2264;" horiz-adv-x="440" 
d="M407.5 124.5q-3.5 -2.5 -8.5 0.5l-363 174q-7 4 -7 12v69q0 8 7 12l363 174l5 2q3 0 5 -2.5t2 -6.5v-73q0 -7 -7 -11l-278 -127q-6 -3 0 -6l278 -127q7 -3 7 -11v-72q0 -5 -3.5 -7.5zM401 22h-362q-10 0 -10 10v54q0 10 10 10h362q10 0 10 -10v-54q0 -10 -10 -10z" />
    <glyph glyph-name="greaterequal" unicode="&#x2265;" horiz-adv-x="440" 
d="M29 32v54q0 10 10 10h362q10 0 10 -10v-54q0 -10 -10 -10h-362q-10 0 -10 10zM36 123q-3 0 -5 2.5t-2 6.5v72q0 8 7 11l278 127q6 3 0 6l-278 127q-7 4 -7 11v73q0 5 3.5 7.5t8.5 -0.5l363 -174q7 -4 7 -12v-69q0 -8 -7 -12l-363 -174z" />
    <glyph glyph-name="lozenge" unicode="&#x25ca;" horiz-adv-x="417" 
d="M171 -41l-140 384q-3 7 0 14l141 384q3 8 12 8h50q9 0 12 -8l140 -384q4 -7 0 -14l-139 -384q-3 -8 -12 -8h-52q-9 0 -12 8zM209 53q2 0 3 2l98 292q2 3 0 6l-98 288q-1 2 -3 2t-3 -2l-98 -288q-1 -3 0 -6l98 -292q1 -2 3 -2z" />
    <glyph glyph-name="NULL" horiz-adv-x="0" 
 />
    <glyph glyph-name="i.loclTRK" horiz-adv-x="198" 
d="M50 10v489q0 10 10 10h76q10 0 10 -10v-489q0 -10 -10 -10h-76q-10 0 -10 10zM62 599.5q-14 14.5 -14 37.5t14 37t36 14q21 0 34.5 -14.5t13.5 -36.5q0 -23 -13.5 -37.5t-34.5 -14.5q-22 0 -36 14.5z" />
    <glyph glyph-name="a.alt" horiz-adv-x="431" 
d="M292 509h76q10 0 10 -10v-489q0 -10 -10 -10h-76q-10 0 -10 10v22q0 2 -1.5 3t-3.5 -1q-19 -22 -44 -32t-51 -10q-66 0 -102.5 43t-36.5 115v208q0 74 37 116t102 42q26 0 51 -10t44 -32q2 -2 3.5 -1t1.5 3v23q0 10 10 10zM262.5 97.5q19.5 22.5 19.5 58.5v196
q0 36 -19.5 59t-51.5 23t-52 -23t-20 -59v-196q0 -36 20 -58.5t52 -22.5t51.5 22.5z" />
    <glyph glyph-name="a.sc" horiz-adv-x="431" 
d="M306 9l-17 86q0 2 -1.5 3t-3.5 1h-139q-2 0 -3.5 -1t-1.5 -3l-18 -86q-1 -9 -11 -9h-76q-11 0 -8 11l133 557q2 9 11 9h88q10 0 11 -9l134 -557l1 -4q0 -7 -9 -7h-79q-9 0 -11 9zM158 176.5q1 -1.5 3 -1.5h108q3 0 3 4l-53 263q-1 3 -2 3t-2 -3l-57 -263q-1 -1 0 -2.5z
" />
    <glyph glyph-name="aacute.sc" horiz-adv-x="431" 
d="M306 9l-17 86q0 2 -1.5 3t-3.5 1h-139q-2 0 -3.5 -1t-1.5 -3l-18 -86q-1 -9 -11 -9h-76q-11 0 -8 11l133 557q2 9 11 9h88q10 0 11 -9l134 -557l1 -4q0 -7 -9 -7h-79q-9 0 -11 9zM158 176.5q1 -1.5 3 -1.5h108q3 0 3 4l-53 263q-1 3 -2 3t-2 -3l-57 -263q-1 -1 0 -2.5z
M160 647.5q-2 3.5 1 8.5l62 108q5 7 12 7h69q6 0 8 -3.5t-1 -8.5l-73 -109q-4 -6 -12 -6h-58q-6 0 -8 3.5z" />
    <glyph glyph-name="abreve.sc" horiz-adv-x="431" 
d="M306 9l-17 86q0 2 -1.5 3t-3.5 1h-139q-2 0 -3.5 -1t-1.5 -3l-18 -86q-1 -9 -11 -9h-76q-11 0 -8 11l133 557q2 9 11 9h88q10 0 11 -9l134 -557l1 -4q0 -7 -9 -7h-79q-9 0 -11 9zM158 176.5q1 -1.5 3 -1.5h108q3 0 3 4l-53 263q-1 3 -2 3t-2 -3l-57 -263q-1 -1 0 -2.5z
M139 640q-31 28 -35 71q0 10 10 10h34q10 0 11 -10q3 -23 18.5 -38t37.5 -15t37 15t18 38q1 10 11 10h34q10 0 10 -10q-4 -44 -34.5 -71.5t-75.5 -27.5t-76 28z" />
    <glyph glyph-name="uni01CE.sc" horiz-adv-x="431" 
d="M306 9l-17 86q0 2 -1.5 3t-3.5 1h-139q-2 0 -3.5 -1t-1.5 -3l-18 -86q-1 -9 -11 -9h-76q-11 0 -8 11l133 557q2 9 11 9h88q10 0 11 -9l134 -557l1 -4q0 -7 -9 -7h-79q-9 0 -11 9zM158 176.5q1 -1.5 3 -1.5h108q3 0 3 4l-53 263q-1 3 -2 3t-2 -3l-57 -263q-1 -1 0 -2.5z
M162 635l-67 105q-2 4 -2 6q0 6 8 6h58q7 0 12 -7l41 -68q1 -1 3 -1t3 1l40 68q5 7 12 7h55q6 0 7.5 -3.5t-1.5 -8.5l-69 -105q-5 -7 -12 -7h-76q-7 0 -12 7z" />
    <glyph glyph-name="acircumflex.sc" horiz-adv-x="431" 
d="M306 9l-17 86q0 2 -1.5 3t-3.5 1h-139q-2 0 -3.5 -1t-1.5 -3l-18 -86q-1 -9 -11 -9h-76q-11 0 -8 11l133 557q2 9 11 9h88q10 0 11 -9l134 -557l1 -4q0 -7 -9 -7h-79q-9 0 -11 9zM158 176.5q1 -1.5 3 -1.5h108q3 0 3 4l-53 263q-1 3 -2 3t-2 -3l-57 -263q-1 -1 0 -2.5z
M92.5 641.5q-1.5 3.5 1.5 8.5l67 105q5 7 12 7h81q7 0 12 -7l69 -105q2 -4 2 -6q0 -6 -8 -6h-61q-7 0 -12 7l-39 69q-1 2 -3 2t-3 -2l-39 -69q-5 -7 -12 -7h-60q-6 0 -7.5 3.5z" />
    <glyph glyph-name="adieresis.sc" horiz-adv-x="431" 
d="M306 9l-17 86q0 2 -1.5 3t-3.5 1h-139q-2 0 -3.5 -1t-1.5 -3l-18 -86q-1 -9 -11 -9h-76q-11 0 -8 11l133 557q2 9 11 9h88q10 0 11 -9l134 -557l1 -4q0 -7 -9 -7h-79q-9 0 -11 9zM158 176.5q1 -1.5 3 -1.5h108q3 0 3 4l-53 263q-1 3 -2 3t-2 -3l-57 -263q-1 -1 0 -2.5z
M106.5 668.5q-15.5 15.5 -15.5 39.5t15.5 39.5t38.5 15.5q22 0 36.5 -15.5t14.5 -39.5t-14.5 -39.5t-36.5 -15.5q-23 0 -38.5 15.5zM250.5 668.5q-14.5 15.5 -14.5 39.5t14.5 39.5t38.5 15.5q23 0 37.5 -15.5t14.5 -39.5t-14.5 -39.5t-37.5 -15.5q-24 0 -38.5 15.5z" />
    <glyph glyph-name="agrave.sc" horiz-adv-x="431" 
d="M306 9l-17 86q0 2 -1.5 3t-3.5 1h-139q-2 0 -3.5 -1t-1.5 -3l-18 -86q-1 -9 -11 -9h-76q-11 0 -8 11l133 557q2 9 11 9h88q10 0 11 -9l134 -557l1 -4q0 -7 -9 -7h-79q-9 0 -11 9zM158 176.5q1 -1.5 3 -1.5h108q3 0 3 4l-53 263q-1 3 -2 3t-2 -3l-57 -263q-1 -1 0 -2.5z
M251 650q0 -6 -9 -6h-58q-8 0 -12 6l-73 109l-2 5q0 7 9 7h69q7 0 12 -7l62 -108q2 -4 2 -6z" />
    <glyph glyph-name="amacron.sc" horiz-adv-x="431" 
d="M306 9l-17 86q0 2 -1.5 3t-3.5 1h-139q-2 0 -3.5 -1t-1.5 -3l-18 -86q-1 -9 -11 -9h-76q-11 0 -8 11l133 557q2 9 11 9h88q10 0 11 -9l134 -557l1 -4q0 -7 -9 -7h-79q-9 0 -11 9zM158 176.5q1 -1.5 3 -1.5h108q3 0 3 4l-53 263q-1 3 -2 3t-2 -3l-57 -263q-1 -1 0 -2.5z
M109 668v48q0 10 10 10h188q10 0 10 -10v-48q0 -10 -10 -10h-188q-10 0 -10 10z" />
    <glyph glyph-name="aogonek.sc" horiz-adv-x="444" 
d="M306 9l-17 86q0 2 -1.5 3t-3.5 1h-139q-2 0 -3.5 -1t-1.5 -3l-18 -86q-1 -9 -11 -9h-76q-11 0 -8 11l133 557q2 9 11 9h88q10 0 11 -9l134 -557l1 -4q0 -7 -9 -7h-79q-9 0 -11 9zM158 176.5q1 -1.5 3 -1.5h108q3 0 3 4l-53 263q-1 3 -2 3t-2 -3l-57 -263q-1 -1 0 -2.5z
M415 -173q0 -7 -8 -10q-20 -4 -36 -4q-35 0 -59 18.5t-24 64.5q0 55 45 97l4 4q3 3 10 3h41q7 0 8.5 -3.5t-3.5 -8.5q-41 -41 -41 -78q0 -22 10 -32.5t26 -10.5q7 0 10 1h3q8 0 9 -7l5 -32v-2z" />
    <glyph glyph-name="aring.sc" horiz-adv-x="431" 
d="M306 9l-17 86q0 2 -1.5 3t-3.5 1h-139q-2 0 -3.5 -1t-1.5 -3l-18 -86q-1 -9 -11 -9h-76q-11 0 -8 11l133 557q2 9 11 9h88q10 0 11 -9l134 -557l1 -4q0 -7 -9 -7h-79q-9 0 -11 9zM158 176.5q1 -1.5 3 -1.5h108q3 0 3 4l-53 263q-1 3 -2 3t-2 -3l-57 -263q-1 -1 0 -2.5z
M141.5 667q-30.5 31 -30.5 75t30.5 75t73.5 31q44 0 74.5 -31t30.5 -75t-30.5 -75t-74.5 -31q-43 0 -73.5 31zM255 701q17 17 17 41q0 25 -16.5 42t-40.5 17q-23 0 -39.5 -17t-16.5 -42q0 -24 16.5 -41t39.5 -17t40 17z" />
    <glyph glyph-name="atilde.sc" horiz-adv-x="431" 
d="M306 9l-17 86q0 2 -1.5 3t-3.5 1h-139q-2 0 -3.5 -1t-1.5 -3l-18 -86q-1 -9 -11 -9h-76q-11 0 -8 11l133 557q2 9 11 9h88q10 0 11 -9l134 -557l1 -4q0 -7 -9 -7h-79q-9 0 -11 9zM158 176.5q1 -1.5 3 -1.5h108q3 0 3 4l-53 263q-1 3 -2 3t-2 -3l-57 -263q-1 -1 0 -2.5z
M253.5 662q-11.5 5 -29.5 15q-5 3 -13.5 9t-15 8.5t-14.5 2.5q-13 0 -23 -5.5t-19 -20.5q-2 -4 -6 -5t-8 2l-28 20q-7 6 -4 13q14 30 35 45t46 15q16 0 30 -6t30 -17q4 -2 12 -8t16 -9t16 -3q12 0 22 5.5t19 20.5q4 9 14 3l27 -18q4 -3 4 -9q0 -4 -3 -10q-15 -28 -38 -40.5
t-45 -12.5q-13 0 -24.5 5z" />
    <glyph glyph-name="ae.sc" horiz-adv-x="669" 
d="M629 493h-198q-4 0 -4 -4v-154q0 -4 4 -4h118q10 0 10 -10v-64q0 -10 -10 -10h-118q-4 0 -4 -4v-156q0 -4 4 -4h198q10 0 10 -10v-63q0 -10 -10 -10h-289q-10 0 -10 10v85q0 4 -4 4h-153q-2 0 -4 -3l-41 -88q-3 -8 -11 -8h-80q-5 0 -7.5 3.5t-0.5 8.5l260 558q3 7 11 7
h329q10 0 10 -10v-64q0 -10 -10 -10zM207 176.5q1 -1.5 3 -1.5h116q4 0 4 4l1 263q0 3 -2 3t-3 -2l-119 -263q-1 -2 0 -3.5z" />
    <glyph glyph-name="b.sc" horiz-adv-x="413" 
d="M340 41.5q-47 -41.5 -124 -41.5h-155q-10 0 -10 10v557q0 10 10 10h141q84 0 131.5 -40t47.5 -116q0 -87 -70 -120q-2 -1 -2 -2t1 -2q77 -43 77 -139q0 -75 -47 -116.5zM147 489v-156q0 -4 4 -4h54q39 0 61 21t22 60q0 40 -22 61.5t-61 21.5h-54q-4 0 -4 -4zM269 107
q22 23 22 65t-22 66.5t-60 24.5h-58q-4 0 -4 -4v-171q0 -4 4 -4h57q39 0 61 23z" />
    <glyph glyph-name="c.sc" horiz-adv-x="410" 
d="M86 37q-45 44 -45 121v261q0 78 45 121.5t121 43.5t121.5 -43.5t45.5 -121.5v-10q0 -10 -10 -10l-76 -3q-10 0 -10 10v20q0 35 -19 54.5t-52 19.5q-32 0 -51 -19.5t-19 -54.5v-275q0 -35 19 -55t51 -20q33 0 52 19.5t19 55.5v20q0 10 10 10l76 -4q10 0 10 -9v-10
q0 -77 -45.5 -121t-121.5 -44t-121 44z" />
    <glyph glyph-name="cacute.sc" horiz-adv-x="410" 
d="M86 37q-45 44 -45 121v261q0 78 45 121.5t121 43.5t121.5 -43.5t45.5 -121.5v-10q0 -10 -10 -10l-76 -3q-10 0 -10 10v20q0 35 -19 54.5t-52 19.5q-32 0 -51 -19.5t-19 -54.5v-275q0 -35 19 -55t51 -20q33 0 52 19.5t19 55.5v20q0 10 10 10l76 -4q10 0 10 -9v-10
q0 -77 -45.5 -121t-121.5 -44t-121 44zM152 654.5q-2 3.5 1 8.5l62 108q5 7 12 7h69q6 0 8 -3.5t-1 -8.5l-73 -109q-4 -6 -12 -6h-58q-6 0 -8 3.5z" />
    <glyph glyph-name="ccaron.sc" horiz-adv-x="410" 
d="M86 37q-45 44 -45 121v261q0 78 45 121.5t121 43.5t121.5 -43.5t45.5 -121.5v-10q0 -10 -10 -10l-76 -3q-10 0 -10 10v20q0 35 -19 54.5t-52 19.5q-32 0 -51 -19.5t-19 -54.5v-275q0 -35 19 -55t51 -20q33 0 52 19.5t19 55.5v20q0 10 10 10l76 -4q10 0 10 -9v-10
q0 -77 -45.5 -121t-121.5 -44t-121 44zM154 642l-67 105q-2 4 -2 6q0 6 8 6h58q7 0 12 -7l41 -68q1 -1 3 -1t3 1l40 68q5 7 12 7h55q6 0 7.5 -3.5t-1.5 -8.5l-69 -105q-5 -7 -12 -7h-76q-7 0 -12 7z" />
    <glyph glyph-name="ccedilla.sc" horiz-adv-x="410" 
d="M364 399l-76 -3q-10 0 -10 10v20q0 35 -19 54.5t-52 19.5q-32 0 -51 -19.5t-19 -54.5v-275q0 -35 19 -55t51 -20q33 0 52 19.5t19 55.5v20q0 10 10 10l76 -4q10 0 10 -9v-10q0 -66 -34.5 -108.5t-94.5 -53.5q-5 -2 -2 -5q40 -40 40 -92q0 -46 -24 -64.5t-59 -18.5
q-16 0 -36 4q-9 3 -8 12l5 32q1 9 12 7q4 -1 10 -1q14 0 23.5 8t11.5 24q1 4 1 11q0 20 -12 40.5t-32 39.5q-1 2 -5 2q-60 11 -94.5 53.5t-34.5 109.5v261q0 78 45 121.5t121 43.5t121.5 -43.5t45.5 -121.5v-10q0 -10 -10 -10z" />
    <glyph glyph-name="cdotaccent.sc" horiz-adv-x="410" 
d="M86 37q-45 44 -45 121v261q0 78 45 121.5t121 43.5t121.5 -43.5t45.5 -121.5v-10q0 -10 -10 -10l-76 -3q-10 0 -10 10v20q0 35 -19 54.5t-52 19.5q-32 0 -51 -19.5t-19 -54.5v-275q0 -35 19 -55t51 -20q33 0 52 19.5t19 55.5v20q0 10 10 10l76 -4q10 0 10 -9v-10
q0 -77 -45.5 -121t-121.5 -44t-121 44zM171 663.5q-14 14.5 -14 37.5t14 37t36 14q21 0 34.5 -14.5t13.5 -36.5q0 -23 -13.5 -37.5t-34.5 -14.5q-22 0 -36 14.5z" />
    <glyph glyph-name="d.sc" horiz-adv-x="422" 
d="M51 10v557q0 10 10 10h151q76 0 121.5 -43t45.5 -114v-263q0 -71 -45.5 -114t-121.5 -43h-151q-10 0 -10 10zM151 83l59 1q32 0 51.5 21.5t20.5 58.5v250q0 36 -19.5 57.5t-52.5 21.5h-59q-4 0 -4 -4v-402q0 -4 4 -4z" />
    <glyph glyph-name="eth.sc" horiz-adv-x="454" 
d="M365.5 534q45.5 -43 45.5 -114v-263q0 -71 -45.5 -114t-121.5 -43h-151q-10 0 -10 10v258q0 4 -4 4h-18q-10 0 -10 10v37q0 10 10 10h18q4 0 4 4v234q0 10 10 10h151q76 0 121.5 -43zM314 414q0 36 -19.5 57.5t-52.5 21.5h-59q-4 0 -4 -4v-156q0 -4 4 -4h52q10 0 10 -10
v-37q0 -10 -10 -10h-52q-4 0 -4 -4v-181q0 -4 4 -4l59 1q32 0 51.5 21.5t20.5 58.5v250z" />
    <glyph glyph-name="dcaron.sc" horiz-adv-x="422" 
d="M51 10v557q0 10 10 10h151q76 0 121.5 -43t45.5 -114v-263q0 -71 -45.5 -114t-121.5 -43h-151q-10 0 -10 10zM151 83l59 1q32 0 51.5 21.5t20.5 58.5v250q0 36 -19.5 57.5t-52.5 21.5h-59q-4 0 -4 -4v-402q0 -4 4 -4zM152 639l-67 105q-2 4 -2 6q0 6 8 6h58q7 0 12 -7
l41 -68q1 -1 3 -1t3 1l40 68q5 7 12 7h55q6 0 7.5 -3.5t-1.5 -8.5l-69 -105q-5 -7 -12 -7h-76q-7 0 -12 7z" />
    <glyph glyph-name="dcroat.sc" horiz-adv-x="454" 
d="M365.5 534q45.5 -43 45.5 -114v-263q0 -71 -45.5 -114t-121.5 -43h-151q-10 0 -10 10v258q0 4 -4 4h-18q-10 0 -10 10v37q0 10 10 10h18q4 0 4 4v234q0 10 10 10h151q76 0 121.5 -43zM314 414q0 36 -19.5 57.5t-52.5 21.5h-59q-4 0 -4 -4v-156q0 -4 4 -4h52q10 0 10 -10
v-37q0 -10 -10 -10h-52q-4 0 -4 -4v-181q0 -4 4 -4l59 1q32 0 51.5 21.5t20.5 58.5v250z" />
    <glyph glyph-name="e.sc" horiz-adv-x="389" 
d="M349 493h-198q-4 0 -4 -4v-154q0 -4 4 -4h119q10 0 10 -10v-64q0 -10 -10 -10h-119q-4 0 -4 -4v-156q0 -4 4 -4h198q10 0 10 -10v-63q0 -10 -10 -10h-288q-10 0 -10 10v556q0 10 10 10h288q10 0 10 -10v-63q0 -10 -10 -10z" />
    <glyph glyph-name="eacute.sc" horiz-adv-x="389" 
d="M349 493h-198q-4 0 -4 -4v-154q0 -4 4 -4h119q10 0 10 -10v-64q0 -10 -10 -10h-119q-4 0 -4 -4v-156q0 -4 4 -4h198q10 0 10 -10v-63q0 -10 -10 -10h-288q-10 0 -10 10v556q0 10 10 10h288q10 0 10 -10v-63q0 -10 -10 -10zM150 657.5q-2 3.5 1 8.5l62 108q5 7 12 7h69
q6 0 8 -3.5t-1 -8.5l-73 -109q-4 -6 -12 -6h-58q-6 0 -8 3.5z" />
    <glyph glyph-name="ecaron.sc" horiz-adv-x="389" 
d="M349 493h-198q-4 0 -4 -4v-154q0 -4 4 -4h119q10 0 10 -10v-64q0 -10 -10 -10h-119q-4 0 -4 -4v-156q0 -4 4 -4h198q10 0 10 -10v-63q0 -10 -10 -10h-288q-10 0 -10 10v556q0 10 10 10h288q10 0 10 -10v-63q0 -10 -10 -10zM152 645l-67 105q-2 4 -2 6q0 6 8 6h58
q7 0 12 -7l41 -68q1 -1 3 -1t3 1l40 68q5 7 12 7h55q6 0 7.5 -3.5t-1.5 -8.5l-69 -105q-5 -7 -12 -7h-76q-7 0 -12 7z" />
    <glyph glyph-name="uni0229.sc" horiz-adv-x="389" 
d="M349 493h-198q-4 0 -4 -4v-154q0 -4 4 -4h119q10 0 10 -10v-64q0 -10 -10 -10h-119q-4 0 -4 -4v-156q0 -4 4 -4h198q10 0 10 -10v-63q0 -10 -10 -10h-107q-2 0 -3 -1.5t1 -3.5q36 -40 36 -88q0 -46 -24 -65t-59 -19q-16 0 -36 4q-9 3 -8 12l5 32q1 9 12 7q4 -1 10 -1
q16 0 26 10.5t10 31.5q0 38 -41 79q-2 2 -5 2h-105q-10 0 -10 10v556q0 10 10 10h288q10 0 10 -10v-63q0 -10 -10 -10z" />
    <glyph glyph-name="ecircumflex.sc" horiz-adv-x="389" 
d="M349 493h-198q-4 0 -4 -4v-154q0 -4 4 -4h119q10 0 10 -10v-64q0 -10 -10 -10h-119q-4 0 -4 -4v-156q0 -4 4 -4h198q10 0 10 -10v-63q0 -10 -10 -10h-288q-10 0 -10 10v556q0 10 10 10h288q10 0 10 -10v-63q0 -10 -10 -10zM82.5 651.5q-1.5 3.5 1.5 8.5l67 105q5 7 12 7
h81q7 0 12 -7l69 -105q2 -4 2 -6q0 -6 -8 -6h-61q-7 0 -12 7l-39 69q-1 2 -3 2t-3 -2l-39 -69q-5 -7 -12 -7h-60q-6 0 -7.5 3.5z" />
    <glyph glyph-name="edieresis.sc" horiz-adv-x="389" 
d="M349 493h-198q-4 0 -4 -4v-154q0 -4 4 -4h119q10 0 10 -10v-64q0 -10 -10 -10h-119q-4 0 -4 -4v-156q0 -4 4 -4h198q10 0 10 -10v-63q0 -10 -10 -10h-288q-10 0 -10 10v556q0 10 10 10h288q10 0 10 -10v-63q0 -10 -10 -10zM96.5 678.5q-15.5 15.5 -15.5 39.5t15.5 39.5
t38.5 15.5q22 0 36.5 -15.5t14.5 -39.5t-14.5 -39.5t-36.5 -15.5q-23 0 -38.5 15.5zM240.5 678.5q-14.5 15.5 -14.5 39.5t14.5 39.5t38.5 15.5q23 0 37.5 -15.5t14.5 -39.5t-14.5 -39.5t-37.5 -15.5q-24 0 -38.5 15.5z" />
    <glyph glyph-name="edotaccent.sc" horiz-adv-x="389" 
d="M349 493h-198q-4 0 -4 -4v-154q0 -4 4 -4h119q10 0 10 -10v-64q0 -10 -10 -10h-119q-4 0 -4 -4v-156q0 -4 4 -4h198q10 0 10 -10v-63q0 -10 -10 -10h-288q-10 0 -10 10v556q0 10 10 10h288q10 0 10 -10v-63q0 -10 -10 -10zM169 666.5q-14 14.5 -14 37.5t14 37t36 14
q21 0 34.5 -14.5t13.5 -36.5q0 -23 -13.5 -37.5t-34.5 -14.5q-22 0 -36 14.5z" />
    <glyph glyph-name="egrave.sc" horiz-adv-x="389" 
d="M349 493h-198q-4 0 -4 -4v-154q0 -4 4 -4h119q10 0 10 -10v-64q0 -10 -10 -10h-119q-4 0 -4 -4v-156q0 -4 4 -4h198q10 0 10 -10v-63q0 -10 -10 -10h-288q-10 0 -10 10v556q0 10 10 10h288q10 0 10 -10v-63q0 -10 -10 -10zM241 660q0 -6 -9 -6h-58q-8 0 -12 6l-73 109
l-2 5q0 7 9 7h69q7 0 12 -7l62 -108q2 -4 2 -6z" />
    <glyph glyph-name="emacron.sc" horiz-adv-x="389" 
d="M349 493h-198q-4 0 -4 -4v-154q0 -4 4 -4h119q10 0 10 -10v-64q0 -10 -10 -10h-119q-4 0 -4 -4v-156q0 -4 4 -4h198q10 0 10 -10v-63q0 -10 -10 -10h-288q-10 0 -10 10v556q0 10 10 10h288q10 0 10 -10v-63q0 -10 -10 -10zM99 678v48q0 10 10 10h188q10 0 10 -10v-48
q0 -10 -10 -10h-188q-10 0 -10 10z" />
    <glyph glyph-name="eogonek.sc" horiz-adv-x="389" 
d="M349 493h-198q-4 0 -4 -4v-154q0 -4 4 -4h119q10 0 10 -10v-64q0 -10 -10 -10h-119q-4 0 -4 -4v-156q0 -4 4 -4h198q10 0 10 -10v-63q0 -10 -10 -10h-112q-3 0 -5 -2q-44 -44 -44 -81q0 -7 1 -11q2 -16 11.5 -24t23.5 -8q7 0 10 1h3q8 0 9 -7l5 -32v-2q0 -7 -8 -9
q-17 -5 -37 -5q-34 0 -58.5 19t-24.5 65q0 50 40 91q2 2 1 3.5t-3 1.5h-100q-10 0 -10 10v556q0 10 10 10h288q10 0 10 -10v-63q0 -10 -10 -10z" />
    <glyph glyph-name="f.sc" horiz-adv-x="370" 
d="M348 493h-197q-4 0 -4 -4v-154q0 -4 4 -4h119q10 0 10 -10v-64q0 -10 -10 -10h-119q-4 0 -4 -4v-233q0 -10 -10 -10h-76q-10 0 -10 10v557q0 10 10 10h287q10 0 10 -10v-64q0 -10 -10 -10z" />
    <glyph glyph-name="g.sc" horiz-adv-x="410" 
d="M86 35q-45 42 -45 116v276q0 73 45 115t121 42t121.5 -42.5t45.5 -116.5v-23q0 -10 -10 -10h-76q-10 0 -10 10v25q0 35 -19.5 54t-51.5 19t-51 -19t-19 -54v-277q0 -35 19 -54t51 -19t51.5 19t19.5 54v77q0 4 -4 4h-53q-10 0 -10 10v49q0 10 10 10h143q10 0 10 -10v-139
q0 -73 -45.5 -115.5t-121.5 -42.5t-121 42z" />
    <glyph glyph-name="gbreve.sc" horiz-adv-x="410" 
d="M86 35q-45 42 -45 116v276q0 73 45 115t121 42t121.5 -42.5t45.5 -116.5v-23q0 -10 -10 -10h-76q-10 0 -10 10v25q0 35 -19.5 54t-51.5 19t-51 -19t-19 -54v-277q0 -35 19 -54t51 -19t51.5 19t19.5 54v77q0 4 -4 4h-53q-10 0 -10 10v49q0 10 10 10h143q10 0 10 -10v-139
q0 -73 -45.5 -115.5t-121.5 -42.5t-121 42zM131 647q-31 28 -35 71q0 10 10 10h34q10 0 11 -10q3 -23 18.5 -38t37.5 -15t37 15t18 38q1 10 11 10h34q10 0 10 -10q-4 -44 -34.5 -71.5t-75.5 -27.5t-76 28z" />
    <glyph glyph-name="uni0123.sc" horiz-adv-x="410" 
d="M86 35q-45 42 -45 116v276q0 73 45 115t121 42t121.5 -42.5t45.5 -116.5v-23q0 -10 -10 -10h-76q-10 0 -10 10v25q0 35 -19.5 54t-51.5 19t-51 -19t-19 -54v-277q0 -35 19 -54t51 -19t51.5 19t19.5 54v77q0 4 -4 4h-53q-10 0 -10 10v49q0 10 10 10h143q10 0 10 -10v-139
q0 -73 -45.5 -115.5t-121.5 -42.5t-121 42zM141 -185.5q-2 3.5 1 8.5l62 108q5 7 12 7h69q6 0 8 -3.5t-1 -8.5l-73 -109q-4 -6 -12 -6h-58q-6 0 -8 3.5z" />
    <glyph glyph-name="gdotaccent.sc" horiz-adv-x="410" 
d="M86 35q-45 42 -45 116v276q0 73 45 115t121 42t121.5 -42.5t45.5 -116.5v-23q0 -10 -10 -10h-76q-10 0 -10 10v25q0 35 -19.5 54t-51.5 19t-51 -19t-19 -54v-277q0 -35 19 -54t51 -19t51.5 19t19.5 54v77q0 4 -4 4h-53q-10 0 -10 10v49q0 10 10 10h143q10 0 10 -10v-139
q0 -73 -45.5 -115.5t-121.5 -42.5t-121 42zM171 663.5q-14 14.5 -14 37.5t14 37t36 14q21 0 34.5 -14.5t13.5 -36.5q0 -23 -13.5 -37.5t-34.5 -14.5q-22 0 -36 14.5z" />
    <glyph glyph-name="h.sc" horiz-adv-x="427" 
d="M289 577h76q10 0 10 -10v-557q0 -10 -10 -10h-76q-10 0 -10 10v233q0 4 -4 4h-124q-4 0 -4 -4v-233q0 -10 -10 -10h-76q-10 0 -10 10v557q0 10 10 10h76q10 0 10 -10v-232q0 -4 4 -4h124q4 0 4 4v232q0 10 10 10z" />
    <glyph glyph-name="hbar.sc" horiz-adv-x="427" 
d="M436 477v-48q0 -10 -10 -10h-47q-4 0 -4 -4v-405q0 -10 -10 -10h-76q-10 0 -10 10v233q0 4 -4 4h-124q-4 0 -4 -4v-233q0 -10 -10 -10h-76q-10 0 -10 10v405q0 4 -4 4h-47q-10 0 -10 10v48q0 10 10 10h47q4 0 4 4v76q0 10 10 10h76q10 0 10 -10v-76q0 -4 4 -4h124
q4 0 4 4v76q0 10 10 10h76q10 0 10 -10v-76q0 -4 4 -4h47q10 0 10 -10zM279 335v80q0 4 -4 4h-124q-4 0 -4 -4v-80q0 -4 4 -4h124q4 0 4 4z" />
    <glyph glyph-name="i.sc" horiz-adv-x="199" 
d="M51 10v556q0 10 10 10h76q10 0 10 -10v-556q0 -10 -10 -10h-76q-10 0 -10 10z" />
    <glyph glyph-name="iacute.sc" horiz-adv-x="199" 
d="M51 10v556q0 10 10 10h76q10 0 10 -10v-556q0 -10 -10 -10h-76q-10 0 -10 10zM44 657.5q-2 3.5 1 8.5l62 108q5 7 12 7h69q6 0 8 -3.5t-1 -8.5l-73 -109q-4 -6 -12 -6h-58q-6 0 -8 3.5z" />
    <glyph glyph-name="icircumflex.sc" horiz-adv-x="199" 
d="M51 10v556q0 10 10 10h76q10 0 10 -10v-556q0 -10 -10 -10h-76q-10 0 -10 10zM-23.5 651.5q-1.5 3.5 1.5 8.5l67 105q5 7 12 7h81q7 0 12 -7l69 -105q2 -4 2 -6q0 -6 -8 -6h-61q-7 0 -12 7l-39 69q-1 2 -3 2t-3 -2l-39 -69q-5 -7 -12 -7h-60q-6 0 -7.5 3.5z" />
    <glyph glyph-name="idieresis.sc" horiz-adv-x="199" 
d="M51 10v556q0 10 10 10h76q10 0 10 -10v-556q0 -10 -10 -10h-76q-10 0 -10 10zM-9.5 678.5q-15.5 15.5 -15.5 39.5t15.5 39.5t38.5 15.5q22 0 36.5 -15.5t14.5 -39.5t-14.5 -39.5t-36.5 -15.5q-23 0 -38.5 15.5zM134.5 678.5q-14.5 15.5 -14.5 39.5t14.5 39.5t38.5 15.5
q23 0 37.5 -15.5t14.5 -39.5t-14.5 -39.5t-37.5 -15.5q-24 0 -38.5 15.5z" />
    <glyph glyph-name="i.sc.loclTRK" horiz-adv-x="199" 
d="M51 10v556q0 10 10 10h76q10 0 10 -10v-556q0 -10 -10 -10h-76q-10 0 -10 10zM63 666.5q-14 14.5 -14 37.5t14 37t36 14q21 0 34.5 -14.5t13.5 -36.5q0 -23 -13.5 -37.5t-34.5 -14.5q-22 0 -36 14.5z" />
    <glyph glyph-name="igrave.sc" horiz-adv-x="199" 
d="M51 10v556q0 10 10 10h76q10 0 10 -10v-556q0 -10 -10 -10h-76q-10 0 -10 10zM135 660q0 -6 -9 -6h-58q-8 0 -12 6l-73 109l-2 5q0 7 9 7h69q7 0 12 -7l62 -108q2 -4 2 -6z" />
    <glyph glyph-name="ij.sc" horiz-adv-x="593" 
d="M51 10v556q0 10 10 10h76q10 0 10 -10v-556q0 -10 -10 -10h-76q-10 0 -10 10zM259 35q-45 42 -45 113v55q0 10 10 10h76q10 0 10 -10v-56q0 -33 18.5 -52t48.5 -19q31 0 49.5 19t18.5 52v420q0 10 10 10h77q10 0 10 -10v-419q0 -71 -45 -113t-120 -42q-73 0 -118 42z" />
    <glyph glyph-name="imacron.sc" horiz-adv-x="199" 
d="M51 10v556q0 10 10 10h76q10 0 10 -10v-556q0 -10 -10 -10h-76q-10 0 -10 10zM-7 678v48q0 10 10 10h188q10 0 10 -10v-48q0 -10 -10 -10h-188q-10 0 -10 10z" />
    <glyph glyph-name="iogonek.sc" horiz-adv-x="206" 
d="M51 10v556q0 10 10 10h76q10 0 10 -10v-556q0 -10 -10 -10h-76q-10 0 -10 10zM157 -173q0 -7 -8 -10q-20 -4 -36 -4q-35 0 -59 18.5t-24 64.5q0 55 45 97l4 4q3 3 10 3h41q7 0 8.5 -3.5t-3.5 -8.5q-41 -41 -41 -78q0 -22 10 -32.5t26 -10.5q7 0 10 1h3q8 0 9 -7l5 -32v-2
z" />
    <glyph glyph-name="j.sc" horiz-adv-x="394" 
d="M60 35q-45 42 -45 113v55q0 10 10 10h76q10 0 10 -10v-56q0 -33 18.5 -52t48.5 -19q31 0 49.5 19t18.5 52v420q0 10 10 10h77q10 0 10 -10v-419q0 -71 -45 -113t-120 -42q-73 0 -118 42z" />
    <glyph glyph-name="k.sc" horiz-adv-x="423" 
d="M51 10v557q0 10 10 10h76q10 0 10 -10v-231q0 -3 2 -3.5t3 2.5l144 235q5 7 12 7h81q6 0 8 -3.5t-1 -8.5l-130 -222q-2 -4 -1 -6l141 -325l1 -4q0 -8 -9 -8h-82q-8 0 -11 8l-106 245q-1 4 -5 0l-45 -68q-2 -2 -2 -5v-170q0 -10 -10 -10h-76q-10 0 -10 10z" />
    <glyph glyph-name="uni0137.sc" horiz-adv-x="423" 
d="M51 10v557q0 10 10 10h76q10 0 10 -10v-231q0 -3 2 -3.5t3 2.5l144 235q5 7 12 7h81q6 0 8 -3.5t-1 -8.5l-130 -222q-2 -4 -1 -6l141 -325l1 -4q0 -8 -9 -8h-82q-8 0 -11 8l-106 245q-1 4 -5 0l-45 -68q-2 -2 -2 -5v-170q0 -10 -10 -10h-76q-10 0 -10 10zM148 -178.5
q-2 3.5 1 8.5l62 108q5 7 12 7h69q6 0 8 -3.5t-1 -8.5l-73 -109q-4 -6 -12 -6h-58q-6 0 -8 3.5z" />
    <glyph glyph-name="l.sc" horiz-adv-x="369" 
d="M51 10v557q0 10 10 10h76q10 0 10 -10v-480q0 -4 4 -4h197q10 0 10 -10v-63q0 -10 -10 -10h-287q-10 0 -10 10z" />
    <glyph glyph-name="lacute.sc" horiz-adv-x="369" 
d="M51 10v557q0 10 10 10h76q10 0 10 -10v-480q0 -4 4 -4h197q10 0 10 -10v-63q0 -10 -10 -10h-287q-10 0 -10 10zM45 647.5q-2 3.5 1 8.5l62 108q5 7 12 7h69q6 0 8 -3.5t-1 -8.5l-73 -109q-4 -6 -12 -6h-58q-6 0 -8 3.5z" />
    <glyph glyph-name="lcaron.sc" horiz-adv-x="369" 
d="M51 10v557q0 10 10 10h76q10 0 10 -10v-480q0 -4 4 -4h197q10 0 10 -10v-63q0 -10 -10 -10h-287q-10 0 -10 10zM47 635l-67 105q-2 4 -2 6q0 6 8 6h58q7 0 12 -7l41 -68q1 -1 3 -1t3 1l40 68q5 7 12 7h55q6 0 7.5 -3.5t-1.5 -8.5l-69 -105q-5 -7 -12 -7h-76q-7 0 -12 7z
" />
    <glyph glyph-name="uni013C.sc" horiz-adv-x="369" 
d="M51 10v557q0 10 10 10h76q10 0 10 -10v-480q0 -4 4 -4h197q10 0 10 -10v-63q0 -10 -10 -10h-287q-10 0 -10 10zM116 -178.5q-2 3.5 1 8.5l62 108q5 7 12 7h69q6 0 8 -3.5t-1 -8.5l-73 -109q-4 -6 -12 -6h-58q-6 0 -8 3.5z" />
    <glyph glyph-name="lslash.sc" horiz-adv-x="555" 
d="M151 83h197q10 0 10 -10v-63q0 -10 -10 -10h-287q-10 0 -10 10v158q0 2 -1.5 3t-3.5 -1l-28 -22q-3 -3 -7 -3t-7 4l-31 37q-3 3 -3 7t4 7l75 58q2 2 2 5v304q0 10 10 10h76q10 0 10 -10v-228q0 -2 1.5 -3t3.5 1l146 113q2 2 6 2q5 0 8 -4l31 -37q2 -2 2 -6q0 -5 -4 -8
l-192 -148q-2 -2 -2 -5v-157q0 -4 4 -4z" />
    <glyph glyph-name="m.sc" horiz-adv-x="471" 
d="M51 10v557q0 10 10 10h76q9 0 12 -7l83 -174q1 -2 3 -2t3 2l84 174q3 7 12 7h75q10 0 10 -10v-557q0 -10 -10 -10h-76q-10 0 -10 10v422q0 3 -1.5 3t-3.5 -2l-74 -162q-3 -8 -8 -8t-8 7l-76 164q-2 2 -3.5 2t-1.5 -3v-423q0 -10 -10 -10h-76q-10 0 -10 10z" />
    <glyph glyph-name="n.sc" horiz-adv-x="452" 
d="M51 10v556q0 10 10 10h77q8 0 11 -8l152 -375q1 -3 3 -2.5t2 3.5v372q0 10 10 10h75q10 0 10 -10v-556q0 -10 -10 -10h-78q-8 0 -11 8l-151 375q-1 3 -3 3t-2 -3l1 -373q0 -10 -10 -10h-76q-10 0 -10 10z" />
    <glyph glyph-name="nacute.sc" horiz-adv-x="452" 
d="M51 10v556q0 10 10 10h77q8 0 11 -8l152 -375q1 -3 3 -2.5t2 3.5v372q0 10 10 10h75q10 0 10 -10v-556q0 -10 -10 -10h-78q-8 0 -11 8l-151 375q-1 3 -3 3t-2 -3l1 -373q0 -10 -10 -10h-76q-10 0 -10 10zM170 657.5q-2 3.5 1 8.5l62 108q5 7 12 7h69q6 0 8 -3.5t-1 -8.5
l-73 -109q-4 -6 -12 -6h-58q-6 0 -8 3.5z" />
    <glyph glyph-name="ncaron.sc" horiz-adv-x="452" 
d="M51 10v556q0 10 10 10h77q8 0 11 -8l152 -375q1 -3 3 -2.5t2 3.5v372q0 10 10 10h75q10 0 10 -10v-556q0 -10 -10 -10h-78q-8 0 -11 8l-151 375q-1 3 -3 3t-2 -3l1 -373q0 -10 -10 -10h-76q-10 0 -10 10zM172 645l-67 105q-2 4 -2 6q0 6 8 6h58q7 0 12 -7l41 -68
q1 -1 3 -1t3 1l40 68q5 7 12 7h55q6 0 7.5 -3.5t-1.5 -8.5l-69 -105q-5 -7 -12 -7h-76q-7 0 -12 7z" />
    <glyph glyph-name="uni0146.sc" horiz-adv-x="452" 
d="M51 10v556q0 10 10 10h77q8 0 11 -8l152 -375q1 -3 3 -2.5t2 3.5v372q0 10 10 10h75q10 0 10 -10v-556q0 -10 -10 -10h-78q-8 0 -11 8l-151 375q-1 3 -3 3t-2 -3l1 -373q0 -10 -10 -10h-76q-10 0 -10 10zM165 -178.5q-2 3.5 1 8.5l62 108q5 7 12 7h69q6 0 8 -3.5t-1 -8.5
l-73 -109q-4 -6 -12 -6h-58q-6 0 -8 3.5z" />
    <glyph glyph-name="eng.sc" horiz-adv-x="453" 
d="M316 576h75q10 0 10 -10v-566q0 -54 -8.5 -83.5t-41 -46.5t-100.5 -17q-14 0 -14 10v63q0 10 11 10q25 0 35.5 8.5t12 21.5t1.5 45v6q0 4 -1 5l-145 361q-1 3 -3 3t-2 -3l1 -373q0 -10 -10 -10h-76q-10 0 -10 10v556q0 10 10 10h77q8 0 11 -8l143 -353q1 -3 3 -2.5t2 3.5
v77q0 10 5 10v0q4 0 4 4v259q0 10 10 10z" />
    <glyph glyph-name="ntilde.sc" horiz-adv-x="452" 
d="M51 10v556q0 10 10 10h77q8 0 11 -8l152 -375q1 -3 3 -2.5t2 3.5v372q0 10 10 10h75q10 0 10 -10v-556q0 -10 -10 -10h-78q-8 0 -11 8l-151 375q-1 3 -3 3t-2 -3l1 -373q0 -10 -10 -10h-76q-10 0 -10 10zM263.5 672q-11.5 5 -29.5 15q-5 3 -13.5 9t-15 8.5t-14.5 2.5
q-13 0 -23 -5.5t-19 -20.5q-2 -4 -6 -5t-8 2l-28 20q-7 6 -4 13q14 30 35 45t46 15q16 0 30 -6t30 -17q4 -2 12 -8t16 -9t16 -3q12 0 22 5.5t19 20.5q4 9 14 3l27 -18q4 -3 4 -9q0 -4 -3 -10q-15 -28 -38 -40.5t-45 -12.5q-13 0 -24.5 5z" />
    <glyph glyph-name="o.sc" horiz-adv-x="418" 
d="M86.5 37.5q-45.5 44.5 -45.5 122.5v256q0 79 45.5 123.5t122.5 44.5t122.5 -44.5t45.5 -123.5v-256q0 -78 -45.5 -122.5t-122.5 -44.5t-122.5 44.5zM262 97q19 21 19 59v264q0 38 -19 59t-53 21q-33 0 -52.5 -21t-19.5 -59v-264q0 -38 19.5 -59t52.5 -21q34 0 53 21z" />
    <glyph glyph-name="oacute.sc" horiz-adv-x="418" 
d="M86.5 37.5q-45.5 44.5 -45.5 122.5v256q0 79 45.5 123.5t122.5 44.5t122.5 -44.5t45.5 -123.5v-256q0 -78 -45.5 -122.5t-122.5 -44.5t-122.5 44.5zM262 97q19 21 19 59v264q0 38 -19 59t-53 21q-33 0 -52.5 -21t-19.5 -59v-264q0 -38 19.5 -59t52.5 -21q34 0 53 21z
M154 650.5q-2 3.5 1 8.5l62 108q5 7 12 7h69q6 0 8 -3.5t-1 -8.5l-73 -109q-4 -6 -12 -6h-58q-6 0 -8 3.5z" />
    <glyph glyph-name="ocircumflex.sc" horiz-adv-x="418" 
d="M86.5 37.5q-45.5 44.5 -45.5 122.5v256q0 79 45.5 123.5t122.5 44.5t122.5 -44.5t45.5 -123.5v-256q0 -78 -45.5 -122.5t-122.5 -44.5t-122.5 44.5zM262 97q19 21 19 59v264q0 38 -19 59t-53 21q-33 0 -52.5 -21t-19.5 -59v-264q0 -38 19.5 -59t52.5 -21q34 0 53 21z
M86.5 644.5q-1.5 3.5 1.5 8.5l67 105q5 7 12 7h81q7 0 12 -7l69 -105q2 -4 2 -6q0 -6 -8 -6h-61q-7 0 -12 7l-39 69q-1 2 -3 2t-3 -2l-39 -69q-5 -7 -12 -7h-60q-6 0 -7.5 3.5z" />
    <glyph glyph-name="odieresis.sc" horiz-adv-x="418" 
d="M86.5 37.5q-45.5 44.5 -45.5 122.5v256q0 79 45.5 123.5t122.5 44.5t122.5 -44.5t45.5 -123.5v-256q0 -78 -45.5 -122.5t-122.5 -44.5t-122.5 44.5zM262 97q19 21 19 59v264q0 38 -19 59t-53 21q-33 0 -52.5 -21t-19.5 -59v-264q0 -38 19.5 -59t52.5 -21q34 0 53 21z
M100.5 671.5q-15.5 15.5 -15.5 39.5t15.5 39.5t38.5 15.5q22 0 36.5 -15.5t14.5 -39.5t-14.5 -39.5t-36.5 -15.5q-23 0 -38.5 15.5zM244.5 671.5q-14.5 15.5 -14.5 39.5t14.5 39.5t38.5 15.5q23 0 37.5 -15.5t14.5 -39.5t-14.5 -39.5t-37.5 -15.5q-24 0 -38.5 15.5z" />
    <glyph glyph-name="ograve.sc" horiz-adv-x="418" 
d="M86.5 37.5q-45.5 44.5 -45.5 122.5v256q0 79 45.5 123.5t122.5 44.5t122.5 -44.5t45.5 -123.5v-256q0 -78 -45.5 -122.5t-122.5 -44.5t-122.5 44.5zM262 97q19 21 19 59v264q0 38 -19 59t-53 21q-33 0 -52.5 -21t-19.5 -59v-264q0 -38 19.5 -59t52.5 -21q34 0 53 21z
M245 653q0 -6 -9 -6h-58q-8 0 -12 6l-73 109l-2 5q0 7 9 7h69q7 0 12 -7l62 -108q2 -4 2 -6z" />
    <glyph glyph-name="ohungarumlaut.sc" horiz-adv-x="418" 
d="M86.5 37.5q-45.5 44.5 -45.5 122.5v256q0 79 45.5 123.5t122.5 44.5t122.5 -44.5t45.5 -123.5v-256q0 -78 -45.5 -122.5t-122.5 -44.5t-122.5 44.5zM262 97q19 21 19 59v264q0 38 -19 59t-53 21q-33 0 -52.5 -21t-19.5 -59v-264q0 -38 19.5 -59t52.5 -21q34 0 53 21z
M108 648.5q-2 3.5 0 8.5l54 108q3 7 12 7h63q6 0 8.5 -3.5t-0.5 -8.5l-59 -108q-3 -7 -12 -7h-59q-5 0 -7 3.5zM244.5 648.5q-2.5 3.5 0.5 8.5l58 108q3 7 12 7h59q6 0 8.5 -3.5t-0.5 -8.5l-59 -108q-3 -7 -12 -7h-58q-6 0 -8.5 3.5z" />
    <glyph glyph-name="omacron.sc" horiz-adv-x="418" 
d="M86.5 37.5q-45.5 44.5 -45.5 122.5v256q0 79 45.5 123.5t122.5 44.5t122.5 -44.5t45.5 -123.5v-256q0 -78 -45.5 -122.5t-122.5 -44.5t-122.5 44.5zM262 97q19 21 19 59v264q0 38 -19 59t-53 21q-33 0 -52.5 -21t-19.5 -59v-264q0 -38 19.5 -59t52.5 -21q34 0 53 21z
M103 671v48q0 10 10 10h188q10 0 10 -10v-48q0 -10 -10 -10h-188q-10 0 -10 10z" />
    <glyph glyph-name="oslash.sc" horiz-adv-x="457" 
d="M445.5 684.5q2.5 -3.5 0.5 -8.5l-80 -186q-1 -3 0 -6q11 -31 11 -68v-256q0 -78 -45.5 -122.5t-122.5 -44.5q-23 0 -48 5q-4 1 -5 -2l-40 -91q-3 -8 -11 -8h-46q-5 0 -7.5 3.5t-0.5 8.5l49 113q1 3 -2 5q-57 46 -57 133v256q0 79 45.5 123.5t122.5 44.5q67 0 110 -34
q4 -3 6 1l55 129q3 8 11 8h47q5 0 7.5 -3.5zM140 130q1 -3 2.5 -3.5t2.5 2.5l133 311q2 2 0 6q-6 26 -24 40t-45 14q-33 0 -52.5 -21t-19.5 -59v-264q0 -14 3 -26zM281 278q0 3 -2 3t-3 -2l-84 -197q-2 -3 3 -5l14 -1q34 0 53 21t19 59v122z" />
    <glyph glyph-name="otilde.sc" horiz-adv-x="418" 
d="M86.5 37.5q-45.5 44.5 -45.5 122.5v256q0 79 45.5 123.5t122.5 44.5t122.5 -44.5t45.5 -123.5v-256q0 -78 -45.5 -122.5t-122.5 -44.5t-122.5 44.5zM262 97q19 21 19 59v264q0 38 -19 59t-53 21q-33 0 -52.5 -21t-19.5 -59v-264q0 -38 19.5 -59t52.5 -21q34 0 53 21z
M247.5 665q-11.5 5 -29.5 15q-5 3 -13.5 9t-15 8.5t-14.5 2.5q-13 0 -23 -5.5t-19 -20.5q-2 -4 -6 -5t-8 2l-28 20q-7 6 -4 13q14 30 35 45t46 15q16 0 30 -6t30 -17q4 -2 12 -8t16 -9t16 -3q12 0 22 5.5t19 20.5q4 9 14 3l27 -18q4 -3 4 -9q0 -4 -3 -10q-15 -28 -38 -40.5
t-45 -12.5q-13 0 -24.5 5z" />
    <glyph glyph-name="oe.sc" horiz-adv-x="619" 
d="M579 493h-198q-4 0 -4 -4v-154q0 -4 4 -4h120q10 0 10 -10v-64q0 -10 -10 -10h-120q-4 0 -4 -4v-156q0 -4 4 -4h198q10 0 10 -10v-63q0 -10 -10 -10h-288q-10 0 -10 10v11q0 2 -1.5 3t-3.5 0q-34 -31 -90 -31q-39 0 -72.5 20t-53 58t-19.5 89v256q0 51 19.5 89.5t53 58.5
t72.5 20q56 0 90 -31q2 -2 3.5 -1t1.5 3v12q0 10 10 10h288q10 0 10 -10v-64q0 -10 -10 -10zM262 97q19 21 19 59v264q0 38 -19 59t-53 21q-33 0 -52.5 -21t-19.5 -59v-264q0 -38 19.5 -59t52.5 -21q34 0 53 21z" />
    <glyph glyph-name="p.sc" horiz-adv-x="405" 
d="M337 530.5q44 -47.5 44 -123.5q0 -73 -43 -118.5t-111 -45.5h-80q-4 0 -4 -4v-229q0 -10 -10 -10h-76q-10 0 -10 10v558q0 10 10 10h165q71 0 115 -47.5zM263.5 341.5q21.5 23.5 21.5 64.5t-21.5 65t-56.5 24h-60q-4 0 -4 -4v-169q0 -4 4 -4h60q35 0 56.5 23.5z" />
    <glyph glyph-name="thorn.sc" horiz-adv-x="405" 
d="M336 410q44 -47 44 -123q0 -75 -42.5 -120.5t-111.5 -45.5h-79q-4 0 -4 -4v-107q0 -10 -10 -10h-76q-10 0 -10 10v557q0 10 10 10h76q10 0 10 -10v-106q0 -4 4 -4h75q70 0 114 -47zM262.5 221q21.5 23 21.5 64t-21.5 64.5t-55.5 23.5h-60q-4 0 -4 -4v-167q0 -4 4 -4h60
q34 0 55.5 23z" />
    <glyph glyph-name="q.sc" horiz-adv-x="409" 
d="M323 537.5q45 -46.5 45 -125.5v-247q0 -64 -30 -107.5t-83 -57.5q-3 -2 -3 -5v-70q0 -10 -10 -10h-77q-10 0 -10 10v70q0 3 -3 5q-52 15 -81.5 58t-29.5 107v247q0 79 44.5 125.5t118.5 46.5t119 -46.5zM272 422q0 37 -18.5 57.5t-49.5 20.5t-49 -20.5t-18 -57.5v-267
q0 -38 18 -58.5t49 -20.5t49.5 21t18.5 58v267z" />
    <glyph glyph-name="r.sc" horiz-adv-x="411" 
d="M289 8l-78 237q-1 3 -4 3h-56q-4 0 -4 -4v-234q0 -10 -10 -10h-76q-10 0 -10 10v558q0 10 10 10h165q70 0 114.5 -47.5t44.5 -121.5q0 -51 -22 -89.5t-61 -55.5q-4 -3 -3 -6l89 -247l1 -4q0 -7 -9 -7h-79q-9 0 -12 8zM147 491v-164q0 -4 4 -4h61q34 0 55.5 23t21.5 62
q0 40 -21.5 63.5t-55.5 23.5h-61q-4 0 -4 -4z" />
    <glyph glyph-name="racute.sc" horiz-adv-x="411" 
d="M289 8l-78 237q-1 3 -4 3h-56q-4 0 -4 -4v-234q0 -10 -10 -10h-76q-10 0 -10 10v558q0 10 10 10h165q70 0 114.5 -47.5t44.5 -121.5q0 -51 -22 -89.5t-61 -55.5q-4 -3 -3 -6l89 -247l1 -4q0 -7 -9 -7h-79q-9 0 -12 8zM147 491v-164q0 -4 4 -4h61q34 0 55.5 23t21.5 62
q0 40 -21.5 63.5t-55.5 23.5h-61q-4 0 -4 -4zM148 647.5q-2 3.5 1 8.5l62 108q5 7 12 7h69q6 0 8 -3.5t-1 -8.5l-73 -109q-4 -6 -12 -6h-58q-6 0 -8 3.5z" />
    <glyph glyph-name="rcaron.sc" horiz-adv-x="411" 
d="M289 8l-78 237q-1 3 -4 3h-56q-4 0 -4 -4v-234q0 -10 -10 -10h-76q-10 0 -10 10v558q0 10 10 10h165q70 0 114.5 -47.5t44.5 -121.5q0 -51 -22 -89.5t-61 -55.5q-4 -3 -3 -6l89 -247l1 -4q0 -7 -9 -7h-79q-9 0 -12 8zM147 491v-164q0 -4 4 -4h61q34 0 55.5 23t21.5 62
q0 40 -21.5 63.5t-55.5 23.5h-61q-4 0 -4 -4zM150 635l-67 105q-2 4 -2 6q0 6 8 6h58q7 0 12 -7l41 -68q1 -1 3 -1t3 1l40 68q5 7 12 7h55q6 0 7.5 -3.5t-1.5 -8.5l-69 -105q-5 -7 -12 -7h-76q-7 0 -12 7z" />
    <glyph glyph-name="uni0157.sc" horiz-adv-x="411" 
d="M289 8l-78 237q-1 3 -4 3h-56q-4 0 -4 -4v-234q0 -10 -10 -10h-76q-10 0 -10 10v558q0 10 10 10h165q70 0 114.5 -47.5t44.5 -121.5q0 -51 -22 -89.5t-61 -55.5q-4 -3 -3 -6l89 -247l1 -4q0 -7 -9 -7h-79q-9 0 -12 8zM147 491v-164q0 -4 4 -4h61q34 0 55.5 23t21.5 62
q0 40 -21.5 63.5t-55.5 23.5h-61q-4 0 -4 -4zM149 -178.5q-2 3.5 1 8.5l62 108q5 7 12 7h69q6 0 8 -3.5t-1 -8.5l-73 -109q-4 -6 -12 -6h-58q-6 0 -8 3.5z" />
    <glyph glyph-name="s.sc" horiz-adv-x="396" 
d="M82.5 34.5q-44.5 41.5 -44.5 107.5v19q0 10 10 10h74q10 0 10 -9v-10q0 -35 19 -56t49 -21t49.5 20t19.5 51q0 21 -11 37.5t-28 29.5t-58 40q-44 28 -72 50.5t-46 55t-18 75.5q0 68 44.5 109t115.5 41q73 0 118 -43t45 -112v-14q0 -10 -10 -10h-74q-10 0 -10 10v12
q0 34 -19 54t-50 20q-29 0 -47 -18t-18 -50q0 -27 18.5 -46.5t74.5 -56.5q53 -36 81.5 -60.5t43.5 -53t15 -67.5q0 -71 -45.5 -113.5t-118.5 -42.5t-117.5 41.5z" />
    <glyph glyph-name="sacute.sc" horiz-adv-x="396" 
d="M82.5 34.5q-44.5 41.5 -44.5 107.5v19q0 10 10 10h74q10 0 10 -9v-10q0 -35 19 -56t49 -21t49.5 20t19.5 51q0 21 -11 37.5t-28 29.5t-58 40q-44 28 -72 50.5t-46 55t-18 75.5q0 68 44.5 109t115.5 41q73 0 118 -43t45 -112v-14q0 -10 -10 -10h-74q-10 0 -10 10v12
q0 34 -19 54t-50 20q-29 0 -47 -18t-18 -50q0 -27 18.5 -46.5t74.5 -56.5q53 -36 81.5 -60.5t43.5 -53t15 -67.5q0 -71 -45.5 -113.5t-118.5 -42.5t-117.5 41.5zM141 654.5q-2 3.5 1 8.5l62 108q5 7 12 7h69q6 0 8 -3.5t-1 -8.5l-73 -109q-4 -6 -12 -6h-58q-6 0 -8 3.5z" />
    <glyph glyph-name="scaron.sc" horiz-adv-x="396" 
d="M82.5 34.5q-44.5 41.5 -44.5 107.5v19q0 10 10 10h74q10 0 10 -9v-10q0 -35 19 -56t49 -21t49.5 20t19.5 51q0 21 -11 37.5t-28 29.5t-58 40q-44 28 -72 50.5t-46 55t-18 75.5q0 68 44.5 109t115.5 41q73 0 118 -43t45 -112v-14q0 -10 -10 -10h-74q-10 0 -10 10v12
q0 34 -19 54t-50 20q-29 0 -47 -18t-18 -50q0 -27 18.5 -46.5t74.5 -56.5q53 -36 81.5 -60.5t43.5 -53t15 -67.5q0 -71 -45.5 -113.5t-118.5 -42.5t-117.5 41.5zM143 642l-67 105q-2 4 -2 6q0 6 8 6h58q7 0 12 -7l41 -68q1 -1 3 -1t3 1l40 68q5 7 12 7h55q6 0 7.5 -3.5
t-1.5 -8.5l-69 -105q-5 -7 -12 -7h-76q-7 0 -12 7z" />
    <glyph glyph-name="scedilla.sc" horiz-adv-x="396" 
d="M330 47.5q-34 -40.5 -92 -51.5q-6 -1 -2 -5q40 -40 40 -92q0 -46 -24 -64.5t-59 -18.5q-16 0 -36 4q-9 3 -8 12l5 32q1 9 12 7q4 -1 10 -1q14 0 23.5 8t11.5 24q1 4 1 11q0 39 -44 81q-1 2 -5 2q-57 10 -91 49.5t-34 96.5v19q0 10 10 10h74q10 0 10 -9v-10q0 -35 19 -56
t49 -21t49.5 20t19.5 51q0 21 -11 37.5t-28 29.5t-58 40q-44 28 -72 50.5t-46 55t-18 75.5q0 68 44.5 109t115.5 41q73 0 118 -43t45 -112v-14q0 -10 -10 -10h-74q-10 0 -10 10v12q0 34 -19 54t-50 20q-29 0 -47 -18t-18 -50q0 -27 18.5 -46.5t74.5 -56.5q53 -36 81.5 -60.5
t43.5 -53t15 -67.5q0 -61 -34 -101.5z" />
    <glyph glyph-name="uni0219.sc" horiz-adv-x="396" 
d="M82.5 34.5q-44.5 41.5 -44.5 107.5v19q0 10 10 10h74q10 0 10 -9v-10q0 -35 19 -56t49 -21t49.5 20t19.5 51q0 21 -11 37.5t-28 29.5t-58 40q-44 28 -72 50.5t-46 55t-18 75.5q0 68 44.5 109t115.5 41q73 0 118 -43t45 -112v-14q0 -10 -10 -10h-74q-10 0 -10 10v12
q0 34 -19 54t-50 20q-29 0 -47 -18t-18 -50q0 -27 18.5 -46.5t74.5 -56.5q53 -36 81.5 -60.5t43.5 -53t15 -67.5q0 -71 -45.5 -113.5t-118.5 -42.5t-117.5 41.5zM136 -185.5q-2 3.5 1 8.5l62 108q5 7 12 7h69q6 0 8 -3.5t-1 -8.5l-73 -109q-4 -6 -12 -6h-58q-6 0 -8 3.5z
" />
    <glyph glyph-name="t.sc" horiz-adv-x="389" 
d="M369 567v-64q0 -10 -10 -10h-115q-4 0 -4 -4v-479q0 -10 -10 -10h-76q-10 0 -10 10v479q0 4 -4 4h-110q-10 0 -10 10v64q0 10 10 10h329q10 0 10 -10z" />
    <glyph glyph-name="tbar.sc" horiz-adv-x="389" 
d="M359 493h-115q-4 0 -4 -4v-122q0 -4 4 -4h80q10 0 10 -10v-41q0 -10 -10 -10h-80q-4 0 -4 -4v-288q0 -10 -10 -10h-76q-10 0 -10 10v288q0 4 -4 4h-77q-10 0 -10 10v41q0 10 10 10h77q4 0 4 4v122q0 4 -4 4h-110q-10 0 -10 10v64q0 10 10 10h329q10 0 10 -10v-64
q0 -10 -10 -10z" />
    <glyph glyph-name="tcaron.sc" horiz-adv-x="389" 
d="M369 567v-64q0 -10 -10 -10h-115q-4 0 -4 -4v-479q0 -10 -10 -10h-76q-10 0 -10 10v479q0 4 -4 4h-110q-10 0 -10 10v64q0 10 10 10h329q10 0 10 -10zM141 635l-67 105q-2 4 -2 6q0 6 8 6h58q7 0 12 -7l41 -68q1 -1 3 -1t3 1l40 68q5 7 12 7h55q6 0 7.5 -3.5t-1.5 -8.5
l-69 -105q-5 -7 -12 -7h-76q-7 0 -12 7z" />
    <glyph glyph-name="uni0163.sc" horiz-adv-x="389" 
d="M240 489v-479q0 -10 -7 -10h-1q-2 0 -3 -1.5t1 -3.5q37 -40 37 -89q0 -46 -24 -65t-59 -19q-16 0 -36 4q-9 3 -8 12l5 32q1 9 12 7q4 -1 10 -1q16 0 26 10.5t10 31.5q0 38 -42 80l-4 2h-3q-10 0 -10 10v479q0 4 -4 4h-110q-10 0 -10 10v64q0 10 10 10h329q10 0 10 -10
v-64q0 -10 -10 -10h-115q-4 0 -4 -4z" />
    <glyph glyph-name="uni021B.sc" horiz-adv-x="389" 
d="M369 567v-64q0 -10 -10 -10h-115q-4 0 -4 -4v-479q0 -10 -10 -10h-76q-10 0 -10 10v479q0 4 -4 4h-110q-10 0 -10 10v64q0 10 10 10h329q10 0 10 -10zM111 -179.5q-2 3.5 1 8.5l62 108q5 7 12 7h69q6 0 8 -3.5t-1 -8.5l-73 -109q-4 -6 -12 -6h-58q-6 0 -8 3.5z" />
    <glyph glyph-name="u.sc" horiz-adv-x="427" 
d="M92.5 40.5q-45.5 47.5 -45.5 128.5v397q0 10 10 10h76q10 0 10 -10v-404q0 -40 19 -63t51 -23q33 0 52 23t19 63v404q0 10 10 10h76q10 0 10 -10v-397q0 -81 -45.5 -128.5t-121.5 -47.5q-75 0 -120.5 47.5z" />
    <glyph glyph-name="uacute.sc" horiz-adv-x="427" 
d="M92.5 40.5q-45.5 47.5 -45.5 128.5v397q0 10 10 10h76q10 0 10 -10v-404q0 -40 19 -63t51 -23q33 0 52 23t19 63v404q0 10 10 10h76q10 0 10 -10v-397q0 -81 -45.5 -128.5t-121.5 -47.5q-75 0 -120.5 47.5zM158 657.5q-2 3.5 1 8.5l62 108q5 7 12 7h69q6 0 8 -3.5
t-1 -8.5l-73 -109q-4 -6 -12 -6h-58q-6 0 -8 3.5z" />
    <glyph glyph-name="ucircumflex.sc" horiz-adv-x="427" 
d="M92.5 40.5q-45.5 47.5 -45.5 128.5v397q0 10 10 10h76q10 0 10 -10v-404q0 -40 19 -63t51 -23q33 0 52 23t19 63v404q0 10 10 10h76q10 0 10 -10v-397q0 -81 -45.5 -128.5t-121.5 -47.5q-75 0 -120.5 47.5zM90.5 651.5q-1.5 3.5 1.5 8.5l67 105q5 7 12 7h81q7 0 12 -7
l69 -105q2 -4 2 -6q0 -6 -8 -6h-61q-7 0 -12 7l-39 69q-1 2 -3 2t-3 -2l-39 -69q-5 -7 -12 -7h-60q-6 0 -7.5 3.5z" />
    <glyph glyph-name="udieresis.sc" horiz-adv-x="427" 
d="M92.5 40.5q-45.5 47.5 -45.5 128.5v397q0 10 10 10h76q10 0 10 -10v-404q0 -40 19 -63t51 -23q33 0 52 23t19 63v404q0 10 10 10h76q10 0 10 -10v-397q0 -81 -45.5 -128.5t-121.5 -47.5q-75 0 -120.5 47.5zM104.5 678.5q-15.5 15.5 -15.5 39.5t15.5 39.5t38.5 15.5
q22 0 36.5 -15.5t14.5 -39.5t-14.5 -39.5t-36.5 -15.5q-23 0 -38.5 15.5zM248.5 678.5q-14.5 15.5 -14.5 39.5t14.5 39.5t38.5 15.5q23 0 37.5 -15.5t14.5 -39.5t-14.5 -39.5t-37.5 -15.5q-24 0 -38.5 15.5z" />
    <glyph glyph-name="ugrave.sc" horiz-adv-x="427" 
d="M92.5 40.5q-45.5 47.5 -45.5 128.5v397q0 10 10 10h76q10 0 10 -10v-404q0 -40 19 -63t51 -23q33 0 52 23t19 63v404q0 10 10 10h76q10 0 10 -10v-397q0 -81 -45.5 -128.5t-121.5 -47.5q-75 0 -120.5 47.5zM249 660q0 -6 -9 -6h-58q-8 0 -12 6l-73 109l-2 5q0 7 9 7h69
q7 0 12 -7l62 -108q2 -4 2 -6z" />
    <glyph glyph-name="uhungarumlaut.sc" horiz-adv-x="427" 
d="M92.5 40.5q-45.5 47.5 -45.5 128.5v397q0 10 10 10h76q10 0 10 -10v-404q0 -40 19 -63t51 -23q33 0 52 23t19 63v404q0 10 10 10h76q10 0 10 -10v-397q0 -81 -45.5 -128.5t-121.5 -47.5q-75 0 -120.5 47.5zM112 655.5q-2 3.5 0 8.5l54 108q3 7 12 7h63q6 0 8.5 -3.5
t-0.5 -8.5l-59 -108q-3 -7 -12 -7h-59q-5 0 -7 3.5zM248.5 655.5q-2.5 3.5 0.5 8.5l58 108q3 7 12 7h59q6 0 8.5 -3.5t-0.5 -8.5l-59 -108q-3 -7 -12 -7h-58q-6 0 -8.5 3.5z" />
    <glyph glyph-name="umacron.sc" horiz-adv-x="427" 
d="M92.5 40.5q-45.5 47.5 -45.5 128.5v397q0 10 10 10h76q10 0 10 -10v-404q0 -40 19 -63t51 -23q33 0 52 23t19 63v404q0 10 10 10h76q10 0 10 -10v-397q0 -81 -45.5 -128.5t-121.5 -47.5q-75 0 -120.5 47.5zM107 678v48q0 10 10 10h188q10 0 10 -10v-48q0 -10 -10 -10
h-188q-10 0 -10 10z" />
    <glyph glyph-name="uogonek.sc" horiz-adv-x="427" 
d="M294 576h76q10 0 10 -10v-397q0 -71 -36 -117t-97 -57q-3 0 -5 -2q-39 -39 -39 -76q0 -22 10 -32.5t26 -10.5q7 0 10 1h3q8 0 9 -7l5 -32v-2q0 -7 -8 -9q-17 -5 -37 -5q-34 0 -58 19t-24 65q0 49 36 88q4 3 -1 5q-59 12 -93 57.5t-34 114.5v397q0 10 10 10h76
q10 0 10 -10v-404q0 -40 19 -63t51 -23q33 0 52 23t19 63v404q0 10 10 10z" />
    <glyph glyph-name="uring.sc" horiz-adv-x="427" 
d="M92.5 40.5q-45.5 47.5 -45.5 128.5v397q0 10 10 10h76q10 0 10 -10v-404q0 -40 19 -63t51 -23q33 0 52 23t19 63v404q0 10 10 10h76q10 0 10 -10v-397q0 -81 -45.5 -128.5t-121.5 -47.5q-75 0 -120.5 47.5zM139.5 677q-30.5 31 -30.5 75t30.5 75t73.5 31q44 0 74.5 -31
t30.5 -75t-30.5 -75t-74.5 -31q-43 0 -73.5 31zM253 711q17 17 17 41q0 25 -16.5 42t-40.5 17q-23 0 -39.5 -17t-16.5 -42q0 -24 16.5 -41t39.5 -17t40 17z" />
    <glyph glyph-name="v.sc" horiz-adv-x="418" 
d="M159 9l-132 557l-1 4q0 7 9 7h84q10 0 11 -9l80 -407q1 -2 2 -2t2 2l77 407q2 9 11 9h80q5 0 7.5 -3t0.5 -8l-132 -557q-2 -9 -11 -9h-77q-9 0 -11 9z" />
    <glyph glyph-name="w.sc" horiz-adv-x="593" 
d="M146 9l-120 557v2q0 9 9 9h80q10 0 11 -9l66 -382q1 -2 2 -2t2 2l62 382q2 9 10 9h61q10 0 11 -9l64 -382q1 -2 2 -2t2 2l61 382q2 9 10 9h78q5 0 7.5 -3t1.5 -8l-113 -557q-1 -9 -11 -9h-68q-9 0 -11 9l-63 379q-1 2 -2 2t-2 -2l-61 -379q-1 -9 -10 -9h-68q-9 0 -11 9z
" />
    <glyph glyph-name="wacute.sc" horiz-adv-x="593" 
d="M146 9l-120 557v2q0 9 9 9h80q10 0 11 -9l66 -382q1 -2 2 -2t2 2l62 382q2 9 10 9h61q10 0 11 -9l64 -382q1 -2 2 -2t2 2l61 382q2 9 10 9h78q5 0 7.5 -3t1.5 -8l-113 -557q-1 -9 -11 -9h-68q-9 0 -11 9l-63 379q-1 2 -2 2t-2 -2l-61 -379q-1 -9 -10 -9h-68q-9 0 -11 9z
M241 647.5q-2 3.5 1 8.5l62 108q5 7 12 7h69q6 0 8 -3.5t-1 -8.5l-73 -109q-4 -6 -12 -6h-58q-6 0 -8 3.5z" />
    <glyph glyph-name="wcircumflex.sc" horiz-adv-x="593" 
d="M146 9l-120 557v2q0 9 9 9h80q10 0 11 -9l66 -382q1 -2 2 -2t2 2l62 382q2 9 10 9h61q10 0 11 -9l64 -382q1 -2 2 -2t2 2l61 382q2 9 10 9h78q5 0 7.5 -3t1.5 -8l-113 -557q-1 -9 -11 -9h-68q-9 0 -11 9l-63 379q-1 2 -2 2t-2 -2l-61 -379q-1 -9 -10 -9h-68q-9 0 -11 9z
M173.5 641.5q-1.5 3.5 1.5 8.5l67 105q5 7 12 7h81q7 0 12 -7l69 -105q2 -4 2 -6q0 -6 -8 -6h-61q-7 0 -12 7l-39 69q-1 2 -3 2t-3 -2l-39 -69q-5 -7 -12 -7h-60q-6 0 -7.5 3.5z" />
    <glyph glyph-name="wdieresis.sc" horiz-adv-x="593" 
d="M146 9l-120 557v2q0 9 9 9h80q10 0 11 -9l66 -382q1 -2 2 -2t2 2l62 382q2 9 10 9h61q10 0 11 -9l64 -382q1 -2 2 -2t2 2l61 382q2 9 10 9h78q5 0 7.5 -3t1.5 -8l-113 -557q-1 -9 -11 -9h-68q-9 0 -11 9l-63 379q-1 2 -2 2t-2 -2l-61 -379q-1 -9 -10 -9h-68q-9 0 -11 9z
M187.5 668.5q-15.5 15.5 -15.5 39.5t15.5 39.5t38.5 15.5q22 0 36.5 -15.5t14.5 -39.5t-14.5 -39.5t-36.5 -15.5q-23 0 -38.5 15.5zM331.5 668.5q-14.5 15.5 -14.5 39.5t14.5 39.5t38.5 15.5q23 0 37.5 -15.5t14.5 -39.5t-14.5 -39.5t-37.5 -15.5q-24 0 -38.5 15.5z" />
    <glyph glyph-name="wgrave.sc" horiz-adv-x="593" 
d="M146 9l-120 557v2q0 9 9 9h80q10 0 11 -9l66 -382q1 -2 2 -2t2 2l62 382q2 9 10 9h61q10 0 11 -9l64 -382q1 -2 2 -2t2 2l61 382q2 9 10 9h78q5 0 7.5 -3t1.5 -8l-113 -557q-1 -9 -11 -9h-68q-9 0 -11 9l-63 379q-1 2 -2 2t-2 -2l-61 -379q-1 -9 -10 -9h-68q-9 0 -11 9z
M332 650q0 -6 -9 -6h-58q-8 0 -12 6l-73 109l-2 5q0 7 9 7h69q7 0 12 -7l62 -108q2 -4 2 -6z" />
    <glyph glyph-name="x.sc" horiz-adv-x="410" 
d="M29.5 3.5q-2.5 3.5 -0.5 8.5l124 273q2 3 0 6l-124 274l-1 4q0 8 9 8h79q8 0 11 -8l76 -180q1 -2 3 -2t3 2l74 180q3 8 11 8h78q5 0 7.5 -3.5t0.5 -8.5l-123 -274q-1 -3 0 -6l123 -273l1 -4q0 -8 -9 -8h-77q-8 0 -11 8l-75 180q-1 2 -3 2t-3 -2l-77 -180q-3 -8 -11 -8
h-78q-5 0 -7.5 3.5z" />
    <glyph glyph-name="y.sc" horiz-adv-x="406" 
d="M154 11v224q0 4 -1 5l-125 325l-1 4q0 8 9 8h80q9 0 12 -8l72 -213q1 -2 3 -2t3 2l71 213q3 8 12 8h80q5 0 7.5 -3.5t0.5 -8.5l-126 -325q-1 -1 -1 -5v-224q0 -10 -10 -10h-76q-10 0 -10 10z" />
    <glyph glyph-name="yacute.sc" horiz-adv-x="406" 
d="M154 11v224q0 4 -1 5l-125 325l-1 4q0 8 9 8h80q9 0 12 -8l72 -213q1 -2 3 -2t3 2l71 213q3 8 12 8h80q5 0 7.5 -3.5t0.5 -8.5l-126 -325q-1 -1 -1 -5v-224q0 -10 -10 -10h-76q-10 0 -10 10zM148 646.5q-2 3.5 1 8.5l62 108q5 7 12 7h69q6 0 8 -3.5t-1 -8.5l-73 -109
q-4 -6 -12 -6h-58q-6 0 -8 3.5z" />
    </font>
</defs>
</svg>
